Ошибка

(Soundtrack) The Elder Scrolls V: Skyrim Original Game Soundtrack [4CD] - 2011, FLAC (tracks+.cue), lossless

Ответить на тему
 
Автор Сообщение

Carmine

Пол: Пол:Муж

Стаж: 12 лет

Сообщений: 1311

Предупреждений: 1

США
Рейтинг

post 06-Дек-2011 14:51 7[+]

[Цитировать] 

pic="http://i31.fastpic.ru/big/2011/1206/74/26a97689180c65eceb7ac892eabd9174.jpg"


Жанр: Original Soundtrack || Происхождение исполнителя: USA || Композитор: Jeremy Soule
Издатель: DirectSong || Год: Nov 11, 2011 || Аудио кодек: FLAC || Типа рипа: tracks+.cue
Битрейт аудио: lossless || Продолжительность: 03:38:46

01 Dragonborn 3:57
02 Awake 1:34
03 From Past to Present 5:06
04 Unbroken Road 6:26
05 Ancient Stones 4:47
06 The City Gates 3:48
07 Silent Footsteps 2:53
08 Dragonsreach 2:22
09 Tooth and Claw 1:50
10 Under an Ancient Sun 3:43
11 Death or Sovngarde 3:02
12 Masser 6:06
13 Distant Horizons 3:54
14 Dawn 3:59
15 The Jerall Mountains 3:21
16 Steel on Steel 1:45
17 Secunda 2:05
18 Imperial Throne 2:22

Код:

TITLE "Disc 1"
PERFORMER "Jeremy Soule"
REM DATE "2011-11-11"
REM DISCID 040ECD12
FILE "01 Jeremy Soule - Dragonborn.wav" WAVE
  TRACK 01 AUDIO
    TITLE "Dragonborn"
    ISRC QMVAB1100001
    REM REPLAYGAIN_TRACK_GAIN -6.11 dB
    REM REPLAYGAIN_TRACK_PEAK 0.987396
    INDEX 01 00:00:00
  TRACK 02 AUDIO
    TITLE "Awake"
    ISRC QMVAB1100002
    REM REPLAYGAIN_TRACK_GAIN -2.48 dB
    REM REPLAYGAIN_TRACK_PEAK 0.880920
    INDEX 00 03:55:48
FILE "02 Jeremy Soule - Awake.wav" WAVE
    INDEX 01 00:00:00
  TRACK 03 AUDIO
    TITLE "From Past to Present"
    ISRC QMVAB1100003
    REM REPLAYGAIN_TRACK_GAIN -2.48 dB
    REM REPLAYGAIN_TRACK_PEAK 0.875488
    INDEX 00 01:32:68
FILE "03 Jeremy Soule - From Past to Present.wav" WAVE
    INDEX 01 00:00:00
  TRACK 04 AUDIO
    TITLE "Unbroken Road"
    ISRC QMVAB1100004
    INDEX 00 05:04:01
FILE "04 Jeremy Soule - Unbroken Road.wav" WAVE
    INDEX 01 00:00:00
  TRACK 05 AUDIO
    TITLE "Ancient Stones"
    ISRC QMVAB1100005
    INDEX 00 06:24:14
FILE "05 Jeremy Soule - Ancient Stones.wav" WAVE
    INDEX 01 00:00:00
  TRACK 06 AUDIO
    TITLE "The City Gates"
    ISRC QMVAB1100006
    INDEX 00 04:45:40
FILE "06 Jeremy Soule - The City Gates.wav" WAVE
    INDEX 01 00:00:00
  TRACK 07 AUDIO
    TITLE "Silent Footsteps"
    ISRC QMVAB1100007
    INDEX 00 03:46:05
FILE "07 Jeremy Soule - Silent Footsteps.wav" WAVE
    INDEX 01 00:00:00
  TRACK 08 AUDIO
    TITLE "Dragonsreach"
    ISRC QMVAB1100008
    INDEX 00 02:51:17
FILE "08 Jeremy Soule - Dragonsreach.wav" WAVE
    INDEX 01 00:00:00
  TRACK 09 AUDIO
    TITLE "Tooth and Claw"
    ISRC QMVAB1100009
    INDEX 00 02:20:71
FILE "09 Jeremy Soule - Tooth and Claw.wav" WAVE
    INDEX 01 00:00:00
  TRACK 10 AUDIO
    TITLE "Under an Ancient Sun"
    ISRC QMVAB1100010
    INDEX 00 01:48:62
FILE "10 Jeremy Soule - Under an Ancient Sun.wav" WAVE
    INDEX 01 00:00:00
  TRACK 11 AUDIO
    TITLE "Death or Sovngarde"
    ISRC QMVAB1100011
    INDEX 00 03:41:49
FILE "11 Jeremy Soule - Death or Sovngarde.wav" WAVE
    INDEX 01 00:00:00
  TRACK 12 AUDIO
    TITLE "Masser"
    ISRC QMVAB1100012
    INDEX 00 03:00:37
FILE "12 Jeremy Soule - Masser.wav" WAVE
    INDEX 01 00:00:00
  TRACK 13 AUDIO
    TITLE "Distant Horizons"
    ISRC QMVAB1100013
    INDEX 00 06:04:32
FILE "13 Jeremy Soule - Distant Horizons.wav" WAVE
    INDEX 01 00:00:00
  TRACK 14 AUDIO
    TITLE "Dawn"
    ISRC QMVAB1100014
    INDEX 00 03:52:66
FILE "14 Jeremy Soule - Dawn.wav" WAVE
    INDEX 01 00:00:00
  TRACK 15 AUDIO
    TITLE "The Jerall Mountains"
    ISRC QMVAB1100015
    INDEX 00 03:57:60
FILE "15 Jeremy Soule - The Jerall Mountains.wav" WAVE
    INDEX 01 00:00:00
  TRACK 16 AUDIO
    TITLE "Steel on Steel"
    ISRC QMVAB1100016
    INDEX 00 03:19:64
FILE "16 Jeremy Soule - Steel on Steel.wav" WAVE
    INDEX 01 00:00:00
  TRACK 17 AUDIO
    TITLE "Secunda"
    ISRC QMVAB1100017
    INDEX 00 01:43:00
FILE "17 Jeremy Soule - Secunda.wav" WAVE
    INDEX 01 00:00:00
  TRACK 18 AUDIO
    TITLE "Imperial Throne"
    ISRC QMVAB1100018
    INDEX 00 02:03:17
FILE "18 Jeremy Soule - Imperial Throne.wav" WAVE
    INDEX 01 00:00:00

Код:

X Lossless Decoder version 20111113 (137.1)

XLD extraction logfile from 2011-12-05 19:57:22 +0000

Jeremy Soule / Disc 1

Used drive : HL-DT-ST DVDRW  GS23N (revision SB03)

Ripper mode             : XLD Secure Ripper
Disable audio cache     : OK for the drive with a cache less than 1375KiB
Make use of C2 pointers : NO
Read offset correction  : 667
Max retry count         : 20
Gap status              : Analyzed, Appended

TOC of the extracted CD
     Track |   Start  |  Length  | Start sector | End sector
    ---------------------------------------------------------
        1  | 00:00:00 | 03:57:48 |         0    |    17822   
        2  | 03:57:48 | 01:34:68 |     17823    |    24940   
        3  | 05:32:41 | 05:06:01 |     24941    |    47891   
        4  | 10:38:42 | 06:26:14 |     47892    |    76855   
        5  | 17:04:56 | 04:47:40 |     76856    |    98420   
        6  | 21:52:21 | 03:48:05 |     98421    |   115525   
        7  | 25:40:26 | 02:53:17 |    115526    |   128517   
        8  | 28:33:43 | 02:22:71 |    128518    |   139238   
        9  | 30:56:39 | 01:50:62 |    139239    |   147550   
       10  | 32:47:26 | 03:43:49 |    147551    |   164324   
       11  | 36:31:00 | 03:02:37 |    164325    |   178011   
       12  | 39:33:37 | 06:06:32 |    178012    |   205493   
       13  | 45:39:69 | 03:54:66 |    205494    |   223109   
       14  | 49:34:60 | 03:59:60 |    223110    |   241094   
       15  | 53:34:45 | 03:21:64 |    241095    |   256233   
       16  | 56:56:34 | 01:45:00 |    256234    |   264108   
       17  | 58:41:34 | 02:05:17 |    264109    |   273500   
       18  | 60:46:51 | 02:22:63 |    273501    |   284213   

AccurateRip Summary
    Disc not found in AccurateRip DB.

All Tracks
    Album gain             : -3.07 dB
    Peak                   : 0.997772
    Statistics
        Read error                           : 0
        Jitter error (maybe fixed)           : 0
        Retry sector count                   : 0
        Damaged sector count                 : 0

Track 01
    Filename : /Users/angerZen/Rips/01 Jeremy Soule - Dragonborn.flac
               /Users/angerZen/Rips/01 Jeremy Soule - Dragonborn.m4a
               /Users/angerZen/Rips/01 Jeremy Soule - Dragonborn(V0).mp3
               /Users/angerZen/Rips/01 Jeremy Soule - Dragonborn(LAME 320kbps).mp3
    Pre-gap length : 00:02:00

    Track gain             : -6.11 dB
    Peak                   : 0.987396
    CRC32 hash (test run)  : 76912B15
    CRC32 hash             : 76912B15
    CRC32 hash (skip zero) : AAF77A02
    AccurateRip signature  : 31083205
        ->Track not present in AccurateRip database.
    Statistics
        Read error                           : 0
        Jitter error (maybe fixed)           : 0
        Retry sector count                   : 0
        Damaged sector count                 : 0

Track 02
    Filename : /Users/angerZen/Rips/02 Jeremy Soule - Awake.flac
               /Users/angerZen/Rips/02 Jeremy Soule - Awake.m4a
               /Users/angerZen/Rips/02 Jeremy Soule - Awake(V0).mp3
               /Users/angerZen/Rips/02 Jeremy Soule - Awake(LAME 320kbps).mp3
    Pre-gap length : 00:02:00

    Track gain             : -2.48 dB
    Peak                   : 0.880920
    CRC32 hash (test run)  : 403B6323
    CRC32 hash             : 403B6323
    CRC32 hash (skip zero) : 9F6EB241
    AccurateRip signature  : 9B728941
        ->Track not present in AccurateRip database.
    Statistics
        Read error                           : 0
        Jitter error (maybe fixed)           : 0
        Retry sector count                   : 0
        Damaged sector count                 : 0

Track 03
    Filename : /Users/angerZen/Rips/03 Jeremy Soule - From Past to Present.flac
               /Users/angerZen/Rips/03 Jeremy Soule - From Past to Present.m4a
               /Users/angerZen/Rips/03 Jeremy Soule - From Past to Present(V0).mp3
               /Users/angerZen/Rips/03 Jeremy Soule - From Past to Present(LAME 320kbps).mp3
    Pre-gap length : 00:02:00

    Track gain             : -1.67 dB
    Peak                   : 0.875488
    CRC32 hash (test run)  : BC892302
    CRC32 hash             : BC892302
    CRC32 hash (skip zero) : 7EDCA544
    AccurateRip signature  : 91F68C0C
        ->Track not present in AccurateRip database.
    Statistics
        Read error                           : 0
        Jitter error (maybe fixed)           : 0
        Retry sector count                   : 0
        Damaged sector count                 : 0

Track 04
    Filename : /Users/angerZen/Rips/04 Jeremy Soule - Unbroken Road.flac
               /Users/angerZen/Rips/04 Jeremy Soule - Unbroken Road.m4a
               /Users/angerZen/Rips/04 Jeremy Soule - Unbroken Road(V0).mp3
               /Users/angerZen/Rips/04 Jeremy Soule - Unbroken Road(LAME 320kbps).mp3
    Pre-gap length : 00:02:00

    Track gain             : -0.19 dB
    Peak                   : 0.924500
    CRC32 hash (test run)  : A014E95C
    CRC32 hash             : A014E95C
    CRC32 hash (skip zero) : C8977148
    AccurateRip signature  : 6C745D52
        ->Track not present in AccurateRip database.
    Statistics
        Read error                           : 0
        Jitter error (maybe fixed)           : 0
        Retry sector count                   : 0
        Damaged sector count                 : 0

Track 05
    Filename : /Users/angerZen/Rips/05 Jeremy Soule - Ancient Stones.flac
               /Users/angerZen/Rips/05 Jeremy Soule - Ancient Stones.m4a
               /Users/angerZen/Rips/05 Jeremy Soule - Ancient Stones(V0).mp3
               /Users/angerZen/Rips/05 Jeremy Soule - Ancient Stones(LAME 320kbps).mp3
    Pre-gap length : 00:02:00

    Track gain             : 0.01 dB
    Peak                   : 0.925171
    CRC32 hash (test run)  : 918ED319
    CRC32 hash             : 918ED319
    CRC32 hash (skip zero) : 3FA38B28
    AccurateRip signature  : F0A89236
        ->Track not present in AccurateRip database.
    Statistics
        Read error                           : 0
        Jitter error (maybe fixed)           : 0
        Retry sector count                   : 0
        Damaged sector count                 : 0

Track 06
    Filename : /Users/angerZen/Rips/06 Jeremy Soule - The City Gates.flac
               /Users/angerZen/Rips/06 Jeremy Soule - The City Gates.m4a
               /Users/angerZen/Rips/06 Jeremy Soule - The City Gates(V0).mp3
               /Users/angerZen/Rips/06 Jeremy Soule - The City Gates(LAME 320kbps).mp3
    Pre-gap length : 00:02:00

    Track gain             : -2.70 dB
    Peak                   : 0.862396
    CRC32 hash (test run)  : 229E533F
    CRC32 hash             : 229E533F
    CRC32 hash (skip zero) : 2E3BF7CC
    AccurateRip signature  : 13E77B78
        ->Track not present in AccurateRip database.
    Statistics
        Read error                           : 0
        Jitter error (maybe fixed)           : 0
        Retry sector count                   : 0
        Damaged sector count                 : 0

Track 07
    Filename : /Users/angerZen/Rips/07 Jeremy Soule - Silent Footsteps.flac
               /Users/angerZen/Rips/07 Jeremy Soule - Silent Footsteps.m4a
               /Users/angerZen/Rips/07 Jeremy Soule - Silent Footsteps(V0).mp3
               /Users/angerZen/Rips/07 Jeremy Soule - Silent Footsteps(LAME 320kbps).mp3
    Pre-gap length : 00:02:00

    Track gain             : 6.56 dB
    Peak                   : 0.573914
    CRC32 hash (test run)  : B80AA501
    CRC32 hash             : B80AA501
    CRC32 hash (skip zero) : 4C89093F
    AccurateRip signature  : 9774FAB1
        ->Track not present in AccurateRip database.
    Statistics
        Read error                           : 0
        Jitter error (maybe fixed)           : 0
        Retry sector count                   : 0
        Damaged sector count                 : 0

Track 08
    Filename : /Users/angerZen/Rips/08 Jeremy Soule - Dragonsreach.flac
               /Users/angerZen/Rips/08 Jeremy Soule - Dragonsreach.m4a
               /Users/angerZen/Rips/08 Jeremy Soule - Dragonsreach(V0).mp3
               /Users/angerZen/Rips/08 Jeremy Soule - Dragonsreach(LAME 320kbps).mp3
    Pre-gap length : 00:02:00

    Track gain             : -4.20 dB
    Peak                   : 0.996552
    CRC32 hash (test run)  : 55284B9B
    CRC32 hash             : 55284B9B
    CRC32 hash (skip zero) : D970BE6B
    AccurateRip signature  : 24E8AC53
        ->Track not present in AccurateRip database.
    Statistics
        Read error                           : 0
        Jitter error (maybe fixed)           : 0
        Retry sector count                   : 0
        Damaged sector count                 : 0

Track 09
    Filename : /Users/angerZen/Rips/09 Jeremy Soule - Tooth and Claw.flac
               /Users/angerZen/Rips/09 Jeremy Soule - Tooth and Claw.m4a
               /Users/angerZen/Rips/09 Jeremy Soule - Tooth and Claw(V0).mp3
               /Users/angerZen/Rips/09 Jeremy Soule - Tooth and Claw(LAME 320kbps).mp3
    Pre-gap length : 00:02:00

    Track gain             : -2.86 dB
    Peak                   : 0.997772
    CRC32 hash (test run)  : EE7D8950
    CRC32 hash             : EE7D8950
    CRC32 hash (skip zero) : D22277B8
    AccurateRip signature  : B2CF3AE2
        ->Track not present in AccurateRip database.
    Statistics
        Read error                           : 0
        Jitter error (maybe fixed)           : 0
        Retry sector count                   : 0
        Damaged sector count                 : 0

Track 10
    Filename : /Users/angerZen/Rips/10 Jeremy Soule - Under an Ancient Sun.flac
               /Users/angerZen/Rips/10 Jeremy Soule - Under an Ancient Sun.m4a
               /Users/angerZen/Rips/10 Jeremy Soule - Under an Ancient Sun(V0).mp3
               /Users/angerZen/Rips/10 Jeremy Soule - Under an Ancient Sun(LAME 320kbps).mp3
    Pre-gap length : 00:02:00

    Track gain             : 10.96 dB
    Peak                   : 0.233490
    CRC32 hash (test run)  : 54158A79
    CRC32 hash             : 54158A79
    CRC32 hash (skip zero) : 7F3AC014
    AccurateRip signature  : 3B32E7D7
        ->Track not present in AccurateRip database.
    Statistics
        Read error                           : 0
        Jitter error (maybe fixed)           : 0
        Retry sector count                   : 0
        Damaged sector count                 : 0

Track 11
    Filename : /Users/angerZen/Rips/11 Jeremy Soule - Death or Sovngarde.flac
               /Users/angerZen/Rips/11 Jeremy Soule - Death or Sovngarde.m4a
               /Users/angerZen/Rips/11 Jeremy Soule - Death or Sovngarde(V0).mp3
               /Users/angerZen/Rips/11 Jeremy Soule - Death or Sovngarde(LAME 320kbps).mp3
    Pre-gap length : 00:02:00

    Track gain             : -7.15 dB
    Peak                   : 0.989380
    CRC32 hash (test run)  : 16B9686F
    CRC32 hash             : 16B9686F
    CRC32 hash (skip zero) : A81E7A57
    AccurateRip signature  : B7E3C630
        ->Track not present in AccurateRip database.
    Statistics
        Read error                           : 0
        Jitter error (maybe fixed)           : 0
        Retry sector count                   : 0
        Damaged sector count                 : 0

Track 12
    Filename : /Users/angerZen/Rips/12 Jeremy Soule - Masser.flac
               /Users/angerZen/Rips/12 Jeremy Soule - Masser.m4a
               /Users/angerZen/Rips/12 Jeremy Soule - Masser(V0).mp3
               /Users/angerZen/Rips/12 Jeremy Soule - Masser(LAME 320kbps).mp3
    Pre-gap length : 00:02:00

    Track gain             : 0.97 dB
    Peak                   : 0.979462
    CRC32 hash (test run)  : DE64FFE0
    CRC32 hash             : DE64FFE0
    CRC32 hash (skip zero) : F85B16EA
    AccurateRip signature  : D0401D29
        ->Track not present in AccurateRip database.
    Statistics
        Read error                           : 0
        Jitter error (maybe fixed)           : 0
        Retry sector count                   : 0
        Damaged sector count                 : 0

Track 13
    Filename : /Users/angerZen/Rips/13 Jeremy Soule - Distant Horizons.flac
               /Users/angerZen/Rips/13 Jeremy Soule - Distant Horizons.m4a
               /Users/angerZen/Rips/13 Jeremy Soule - Distant Horizons(V0).mp3
               /Users/angerZen/Rips/13 Jeremy Soule - Distant Horizons(LAME 320kbps).mp3
    Pre-gap length : 00:02:00

    Track gain             : -0.17 dB
    Peak                   : 0.888153
    CRC32 hash (test run)  : 5DC0D54F
    CRC32 hash             : 5DC0D54F
    CRC32 hash (skip zero) : 8F63622D
    AccurateRip signature  : F10043E6
        ->Track not present in AccurateRip database.
    Statistics
        Read error                           : 0
        Jitter error (maybe fixed)           : 0
        Retry sector count                   : 0
        Damaged sector count                 : 0

Track 14
    Filename : /Users/angerZen/Rips/14 Jeremy Soule - Dawn.flac
               /Users/angerZen/Rips/14 Jeremy Soule - Dawn.m4a
               /Users/angerZen/Rips/14 Jeremy Soule - Dawn(V0).mp3
               /Users/angerZen/Rips/14 Jeremy Soule - Dawn(LAME 320kbps).mp3
    Pre-gap length : 00:02:00

    Track gain             : 2.04 dB
    Peak                   : 0.714661
    CRC32 hash (test run)  : 727E4BF8
    CRC32 hash             : 727E4BF8
    CRC32 hash (skip zero) : E820C90D
    AccurateRip signature  : 92B95D14
        ->Track not present in AccurateRip database.
    Statistics
        Read error                           : 0
        Jitter error (maybe fixed)           : 0
        Retry sector count                   : 0
        Damaged sector count                 : 0

Track 15
    Filename : /Users/angerZen/Rips/15 Jeremy Soule - The Jerall Mountains.flac
               /Users/angerZen/Rips/15 Jeremy Soule - The Jerall Mountains.m4a
               /Users/angerZen/Rips/15 Jeremy Soule - The Jerall Mountains(V0).mp3
               /Users/angerZen/Rips/15 Jeremy Soule - The Jerall Mountains(LAME 320kbps).mp3
    Pre-gap length : 00:02:00

    Track gain             : -0.04 dB
    Peak                   : 0.742279
    CRC32 hash (test run)  : 3E1B9074
    CRC32 hash             : 3E1B9074
    CRC32 hash (skip zero) : 7E1775C7
    AccurateRip signature  : 14FBA910
        ->Track not present in AccurateRip database.
    Statistics
        Read error                           : 0
        Jitter error (maybe fixed)           : 0
        Retry sector count                   : 0
        Damaged sector count                 : 0

Track 16
    Filename : /Users/angerZen/Rips/16 Jeremy Soule - Steel on Steel.flac
               /Users/angerZen/Rips/16 Jeremy Soule - Steel on Steel.m4a
               /Users/angerZen/Rips/16 Jeremy Soule - Steel on Steel(V0).mp3
               /Users/angerZen/Rips/16 Jeremy Soule - Steel on Steel(LAME 320kbps).mp3
    Pre-gap length : 00:02:00

    Track gain             : -3.62 dB
    Peak                   : 0.981323
    CRC32 hash (test run)  : 79970FBA
    CRC32 hash             : 79970FBA
    CRC32 hash (skip zero) : 996997FA
    AccurateRip signature  : 7D4997FB
        ->Track not present in AccurateRip database.
    Statistics
        Read error                           : 0
        Jitter error (maybe fixed)           : 0
        Retry sector count                   : 0
        Damaged sector count                 : 0

Track 17
    Filename : /Users/angerZen/Rips/17 Jeremy Soule - Secunda.flac
               /Users/angerZen/Rips/17 Jeremy Soule - Secunda.m4a
               /Users/angerZen/Rips/17 Jeremy Soule - Secunda(V0).mp3
               /Users/angerZen/Rips/17 Jeremy Soule - Secunda(LAME 320kbps).mp3
    Pre-gap length : 00:02:00

    Track gain             : 1.14 dB
    Peak                   : 0.600159
    CRC32 hash (test run)  : 7D02654B
    CRC32 hash             : 7D02654B
    CRC32 hash (skip zero) : 7F3E649E
    AccurateRip signature  : 795F5833
        ->Track not present in AccurateRip database.
    Statistics
        Read error                           : 0
        Jitter error (maybe fixed)           : 0
        Retry sector count                   : 0
        Damaged sector count                 : 0

Track 18
    Filename : /Users/angerZen/Rips/18 Jeremy Soule - Imperial Throne.flac
               /Users/angerZen/Rips/18 Jeremy Soule - Imperial Throne.m4a
               /Users/angerZen/Rips/18 Jeremy Soule - Imperial Throne(V0).mp3
               /Users/angerZen/Rips/18 Jeremy Soule - Imperial Throne(LAME 320kbps).mp3
    Pre-gap length : 00:02:00

    Track gain             : 5.33 dB
    Peak                   : 0.533630
    CRC32 hash (test run)  : E1E9977B
    CRC32 hash             : E1E9977B
    CRC32 hash (skip zero) : F651C210
    AccurateRip signature  : 305C3557
        ->Track not present in AccurateRip database.
    Statistics
        Read error                           : 0
        Jitter error (maybe fixed)           : 0
        Retry sector count                   : 0
        Damaged sector count                 : 0

No errors occurred

End of status report
01 Frostfall 3:28
02 Night without Stars 0:43
03 Into Darkness 2:54
04 Kyne's Peace 3:51
05 Unbound 1:34
06 Far Horizons 5:33
07 A Winter's Tale 3:21
08 The Bannered Mare 2:30
09 The Streets of Whiterun 4:06
10 One They Fear 3:16
11 The White River 3:31
12 Silence Unbroken 2:23
13 Standing Stones 6:38
14 Beneath the Ice 4:16
15 Tundra 3:51
16 Joruney's End 4:09
TITLE "Disc 2"
PERFORMER "Jeremy Soule"
REM DATE "2011-11-11"
REM DISCID D60D2C10
FILE "01 Jeremy Soule - Frostfall.wav" WAVE
TRACK 01 AUDIO
TITLE "Frostfall"
ISRC QMVAB1100019
INDEX 01 00:00:00
TRACK 02 AUDIO
TITLE "Night without Stars"
ISRC QMVAB1100020
INDEX 00 03:26:26
FILE "02 Jeremy Soule - Night without Stars.wav" WAVE
INDEX 01 00:00:00
TRACK 03 AUDIO
TITLE "Into Darkness"
ISRC QMVAB1100021
INDEX 00 00:41:32
FILE "03 Jeremy Soule - Into Darkness.wav" WAVE
INDEX 01 00:00:00
TRACK 04 AUDIO
TITLE "Kyne's Peace"
ISRC QMVAB1100022
INDEX 00 02:52:56
FILE "04 Jeremy Soule - Kyne's Peace.wav" WAVE
INDEX 01 00:00:00
TRACK 05 AUDIO
TITLE "Unbound"
ISRC QMVAB1100023
INDEX 00 03:49:39
FILE "05 Jeremy Soule - Unbound.wav" WAVE
INDEX 01 00:00:00
TRACK 06 AUDIO
TITLE "Far Horizons"
ISRC QMVAB1100024
INDEX 00 01:32:46
FILE "06 Jeremy Soule - Far Horizons.wav" WAVE
INDEX 01 00:00:00
TRACK 07 AUDIO
TITLE "A Winter's Tale"
ISRC QMVAB1100025
INDEX 00 05:31:36
FILE "07 Jeremy Soule - A Winter's Tale.wav" WAVE
INDEX 01 00:00:00
TRACK 08 AUDIO
TITLE "The Bannered Mare"
ISRC QMVAB1100026
INDEX 00 03:19:65
FILE "08 Jeremy Soule - The Bannered Mare.wav" WAVE
INDEX 01 00:00:00
TRACK 09 AUDIO
TITLE "The Streets of Whiterun"
ISRC QMVAB1100027
INDEX 00 02:28:05
FILE "09 Jeremy Soule - The Streets of Whiterun.wav" WAVE
INDEX 01 00:00:00
TRACK 10 AUDIO
TITLE "One They Fear"
ISRC QMVAB1100028
INDEX 00 04:04:64
FILE "10 Jeremy Soule - One They Fear.wav" WAVE
INDEX 01 00:00:00
TRACK 11 AUDIO
TITLE "The White River"
ISRC QMVAB1100029
INDEX 00 03:14:10
FILE "11 Jeremy Soule - The White River.wav" WAVE
INDEX 01 00:00:00
TRACK 12 AUDIO
TITLE "Silence Unbroken"
ISRC QMVAB1100030
INDEX 00 03:29:08
FILE "12 Jeremy Soule - Silence Unbroken.wav" WAVE
INDEX 01 00:00:00
TRACK 13 AUDIO
TITLE "Standing Stones"
ISRC QMVAB1100031
INDEX 00 02:21:64
FILE "13 Jeremy Soule - Standing Stones.wav" WAVE
INDEX 01 00:00:00
TRACK 14 AUDIO
TITLE "Beneath the Ice"
ISRC QMVAB1100032
INDEX 00 06:36:63
FILE "14 Jeremy Soule - Beneath the Ice.wav" WAVE
INDEX 01 00:00:00
TRACK 15 AUDIO
TITLE "Tundra"
ISRC QMVAB1100033
INDEX 00 04:14:00
FILE "15 Jeremy Soule - Tundra.wav" WAVE
INDEX 01 00:00:00
TRACK 16 AUDIO
TITLE "Journey's End"
ISRC QMVAB1100034
INDEX 00 03:49:38
FILE "16 Jeremy Soule - Journey's End.wav" WAVE
INDEX 01 00:00:00
X Lossless Decoder version 20111113 (137.1)

XLD extraction logfile from 2011-12-05 20:36:09 +0000

Jeremy Soule / Disc 2

Used drive : HL-DT-ST DVDRW GS23N (revision SB03)

Ripper mode : XLD Secure Ripper
Disable audio cache : OK for the drive with a cache less than 1375KiB
Make use of C2 pointers : NO
Read offset correction : 667
Max retry count : 20
Gap status : Analyzed, Appended

TOC of the extracted CD
Track | Start | Length | Start sector | End sector
---------------------------------------------------------
1 | 00:00:00 | 03:28:26 | 0 | 15625
2 | 03:28:26 | 00:43:32 | 15626 | 18882
3 | 04:11:58 | 02:54:56 | 18883 | 31988
4 | 07:06:39 | 03:51:39 | 31989 | 49352
5 | 10:58:03 | 01:34:46 | 49353 | 56448
6 | 12:32:49 | 05:33:36 | 56449 | 81459
7 | 18:06:10 | 03:21:65 | 81460 | 96599
8 | 21:28:00 | 02:30:05 | 96600 | 107854
9 | 23:58:05 | 04:06:64 | 107855 | 126368
10 | 28:04:69 | 03:16:10 | 126369 | 141078
11 | 31:21:04 | 03:31:08 | 141079 | 156911
12 | 34:52:12 | 02:23:64 | 156912 | 167700
13 | 37:16:01 | 06:38:63 | 167701 | 197613
14 | 43:54:64 | 04:16:00 | 197614 | 216813
15 | 48:10:64 | 03:51:38 | 216814 | 234176
16 | 52:02:27 | 04:09:68 | 234177 | 252919

AccurateRip Summary
Disc not found in AccurateRip DB.

All Tracks
Album gain : -2.45 dB
Peak : 1.000000
Statistics
Read error : 0
Jitter error (maybe fixed) : 0
Retry sector count : 0
Damaged sector count : 0

Track 01
Filename : /Users/angerZen/Rips/01 Jeremy Soule - Frostfall.flac
/Users/angerZen/Rips/01 Jeremy Soule - Frostfall.m4a
/Users/angerZen/Rips/01 Jeremy Soule - Frostfall(V0).mp3
/Users/angerZen/Rips/01 Jeremy Soule - Frostfall(LAME 320kbps).mp3
Pre-gap length : 00:02:00

Track gain : -5.56 dB
Peak : 0.989929
CRC32 hash (test run) : 17BD2065
CRC32 hash : 17BD2065
CRC32 hash (skip zero) : 275FF941
AccurateRip signature : CC0A5A03
->Track not present in AccurateRip database.
Statistics
Read error : 0
Jitter error (maybe fixed) : 0
Retry sector count : 0
Damaged sector count : 0

Track 02
Filename : /Users/angerZen/Rips/02 Jeremy Soule - Night without Stars.flac
/Users/angerZen/Rips/02 Jeremy Soule - Night without Stars.m4a
/Users/angerZen/Rips/02 Jeremy Soule - Night without Stars(V0).mp3
/Users/angerZen/Rips/02 Jeremy Soule - Night without Stars(LAME 320kbps).mp3
Pre-gap length : 00:02:00

Track gain : 4.33 dB
Peak : 0.983795
CRC32 hash (test run) : CE6A2B58
CRC32 hash : CE6A2B58
CRC32 hash (skip zero) : 31F9C211
AccurateRip signature : 778ADDF4
->Track not present in AccurateRip database.
Statistics
Read error : 0
Jitter error (maybe fixed) : 0
Retry sector count : 0
Damaged sector count : 0

Track 03
Filename : /Users/angerZen/Rips/03 Jeremy Soule - Into Darkness.flac
/Users/angerZen/Rips/03 Jeremy Soule - Into Darkness.m4a
/Users/angerZen/Rips/03 Jeremy Soule - Into Darkness(V0).mp3
/Users/angerZen/Rips/03 Jeremy Soule - Into Darkness(LAME 320kbps).mp3
Pre-gap length : 00:02:00

Track gain : 8.36 dB
Peak : 0.988220
CRC32 hash (test run) : 1B058CAC
CRC32 hash : 1B058CAC
CRC32 hash (skip zero) : 86DB9273
AccurateRip signature : F7BBFEF5
->Track not present in AccurateRip database.
Statistics
Read error : 0
Jitter error (maybe fixed) : 0
Retry sector count : 0
Damaged sector count : 0

Track 04
Filename : /Users/angerZen/Rips/04 Jeremy Soule - Kyne's Peace.flac
/Users/angerZen/Rips/04 Jeremy Soule - Kyne's Peace.m4a
/Users/angerZen/Rips/04 Jeremy Soule - Kyne's Peace(V0).mp3
/Users/angerZen/Rips/04 Jeremy Soule - Kyne's Peace(LAME 320kbps).mp3
Pre-gap length : 00:02:00

Track gain : 1.92 dB
Peak : 0.553223
CRC32 hash (test run) : 1607D978
CRC32 hash : 1607D978
CRC32 hash (skip zero) : 2267C431
AccurateRip signature : C28DB3FA
->Track not present in AccurateRip database.
Statistics
Read error : 0
Jitter error (maybe fixed) : 0
Retry sector count : 0
Damaged sector count : 0

Track 05
Filename : /Users/angerZen/Rips/05 Jeremy Soule - Unbound.flac
/Users/angerZen/Rips/05 Jeremy Soule - Unbound.m4a
/Users/angerZen/Rips/05 Jeremy Soule - Unbound(V0).mp3
/Users/angerZen/Rips/05 Jeremy Soule - Unbound(LAME 320kbps).mp3
Pre-gap length : 00:02:00

Track gain : 2.20 dB
Peak : 0.798615
CRC32 hash (test run) : 292A6A82
CRC32 hash : 292A6A82
CRC32 hash (skip zero) : AA964F3F
AccurateRip signature : 854ACC66
->Track not present in AccurateRip database.
Statistics
Read error : 0
Jitter error (maybe fixed) : 0
Retry sector count : 0
Damaged sector count : 0

Track 06
Filename : /Users/angerZen/Rips/06 Jeremy Soule - Far Horizons.flac
/Users/angerZen/Rips/06 Jeremy Soule - Far Horizons.m4a
/Users/angerZen/Rips/06 Jeremy Soule - Far Horizons(V0).mp3
/Users/angerZen/Rips/06 Jeremy Soule - Far Horizons(LAME 320kbps).mp3
Pre-gap length : 00:02:00

Track gain : -0.90 dB
Peak : 0.918762
CRC32 hash (test run) : 009EC475
CRC32 hash : 009EC475
CRC32 hash (skip zero) : 51F4985E
AccurateRip signature : FA53269E
->Track not present in AccurateRip database.
Statistics
Read error : 0
Jitter error (maybe fixed) : 0
Retry sector count : 0
Damaged sector count : 0

Track 07
Filename : /Users/angerZen/Rips/07 Jeremy Soule - A Winter's Tale.flac
/Users/angerZen/Rips/07 Jeremy Soule - A Winter's Tale.m4a
/Users/angerZen/Rips/07 Jeremy Soule - A Winter's Tale(V0).mp3
/Users/angerZen/Rips/07 Jeremy Soule - A Winter's Tale(LAME 320kbps).mp3
Pre-gap length : 00:02:00

Track gain : 6.35 dB
Peak : 0.439880
CRC32 hash (test run) : 57545B81
CRC32 hash : 57545B81
CRC32 hash (skip zero) : 612F319A
AccurateRip signature : A0013ED3
->Track not present in AccurateRip database.
Statistics
Read error : 0
Jitter error (maybe fixed) : 0
Retry sector count : 0
Damaged sector count : 0

Track 08
Filename : /Users/angerZen/Rips/08 Jeremy Soule - The Bannered Mare.flac
/Users/angerZen/Rips/08 Jeremy Soule - The Bannered Mare.m4a
/Users/angerZen/Rips/08 Jeremy Soule - The Bannered Mare(V0).mp3
/Users/angerZen/Rips/08 Jeremy Soule - The Bannered Mare(LAME 320kbps).mp3
Pre-gap length : 00:02:00

Track gain : 7.72 dB
Peak : 0.282898
CRC32 hash (test run) : E855C203
CRC32 hash : E855C203
CRC32 hash (skip zero) : 6E6DBA1C
AccurateRip signature : AF8B2E3D
->Track not present in AccurateRip database.
Statistics
Read error : 0
Jitter error (maybe fixed) : 0
Retry sector count : 0
Damaged sector count : 0

Track 09
Filename : /Users/angerZen/Rips/09 Jeremy Soule - The Streets of Whiterun.flac
/Users/angerZen/Rips/09 Jeremy Soule - The Streets of Whiterun.m4a
/Users/angerZen/Rips/09 Jeremy Soule - The Streets of Whiterun(V0).mp3
/Users/angerZen/Rips/09 Jeremy Soule - The Streets of Whiterun(LAME 320kbps).mp3
Pre-gap length : 00:02:00

Track gain : -5.08 dB
Peak : 0.989319
CRC32 hash (test run) : C0D9DCA8
CRC32 hash : C0D9DCA8
CRC32 hash (skip zero) : BAB7F5F3
AccurateRip signature : FAE6B438
->Track not present in AccurateRip database.
Statistics
Read error : 0
Jitter error (maybe fixed) : 0
Retry sector count : 0
Damaged sector count : 0

Track 10
Filename : /Users/angerZen/Rips/10 Jeremy Soule - One They Fear.flac
/Users/angerZen/Rips/10 Jeremy Soule - One They Fear.m4a
/Users/angerZen/Rips/10 Jeremy Soule - One They Fear(V0).mp3
/Users/angerZen/Rips/10 Jeremy Soule - One They Fear(LAME 320kbps).mp3
Pre-gap length : 00:02:00

Track gain : -6.71 dB
Peak : 1.000000
CRC32 hash (test run) : 7E939081
CRC32 hash : 7E939081
CRC32 hash (skip zero) : 3CCD9439
AccurateRip signature : 36AA4701
->Track not present in AccurateRip database.
Statistics
Read error : 0
Jitter error (maybe fixed) : 0
Retry sector count : 0
Damaged sector count : 0

Track 11
Filename : /Users/angerZen/Rips/11 Jeremy Soule - The White River.flac
/Users/angerZen/Rips/11 Jeremy Soule - The White River.m4a
/Users/angerZen/Rips/11 Jeremy Soule - The White River(V0).mp3
/Users/angerZen/Rips/11 Jeremy Soule - The White River(LAME 320kbps).mp3
Pre-gap length : 00:02:00

Track gain : 1.01 dB
Peak : 0.987732
CRC32 hash (test run) : 20F9532E
CRC32 hash : 20F9532E
CRC32 hash (skip zero) : BF25AF59
AccurateRip signature : 1F93B367
->Track not present in AccurateRip database.
Statistics
Read error : 0
Jitter error (maybe fixed) : 0
Retry sector count : 0
Damaged sector count : 0

Track 12
Filename : /Users/angerZen/Rips/12 Jeremy Soule - Silence Unbroken.flac
/Users/angerZen/Rips/12 Jeremy Soule - Silence Unbroken.m4a
/Users/angerZen/Rips/12 Jeremy Soule - Silence Unbroken(V0).mp3
/Users/angerZen/Rips/12 Jeremy Soule - Silence Unbroken(LAME 320kbps).mp3
Pre-gap length : 00:02:00

Track gain : 2.31 dB
Peak : 0.988220
CRC32 hash (test run) : C5B95C03
CRC32 hash : C5B95C03
CRC32 hash (skip zero) : 6B5064BF
AccurateRip signature : 2CCEF1A7
->Track not present in AccurateRip database.
Statistics
Read error : 0
Jitter error (maybe fixed) : 0
Retry sector count : 0
Damaged sector count : 0

Track 13
Filename : /Users/angerZen/Rips/13 Jeremy Soule - Standing Stones.flac
/Users/angerZen/Rips/13 Jeremy Soule - Standing Stones.m4a
/Users/angerZen/Rips/13 Jeremy Soule - Standing Stones(V0).mp3
/Users/angerZen/Rips/13 Jeremy Soule - Standing Stones(LAME 320kbps).mp3
Pre-gap length : 00:02:00

Track gain : 1.49 dB
Peak : 0.616455
CRC32 hash (test run) : 8E1A7AF4
CRC32 hash : 8E1A7AF4
CRC32 hash (skip zero) : F7FE0346
AccurateRip signature : 3535F458
->Track not present in AccurateRip database.
Statistics
Read error : 0
Jitter error (maybe fixed) : 0
Retry sector count : 0
Damaged sector count : 0

Track 14
Filename : /Users/angerZen/Rips/14 Jeremy Soule - Beneath the Ice.flac
/Users/angerZen/Rips/14 Jeremy Soule - Beneath the Ice.m4a
/Users/angerZen/Rips/14 Jeremy Soule - Beneath the Ice(V0).mp3
/Users/angerZen/Rips/14 Jeremy Soule - Beneath the Ice(LAME 320kbps).mp3
Pre-gap length : 00:02:00

Track gain : 1.81 dB
Peak : 0.741180
CRC32 hash (test run) : B0EB5DA0
CRC32 hash : B0EB5DA0
CRC32 hash (skip zero) : FC4D2C04
AccurateRip signature : 17D9C4F8
->Track not present in AccurateRip database.
Statistics
Read error : 0
Jitter error (maybe fixed) : 0
Retry sector count : 0
Damaged sector count : 0

Track 15
Filename : /Users/angerZen/Rips/15 Jeremy Soule - Tundra.flac
/Users/angerZen/Rips/15 Jeremy Soule - Tundra.m4a
/Users/angerZen/Rips/15 Jeremy Soule - Tundra(V0).mp3
/Users/angerZen/Rips/15 Jeremy Soule - Tundra(LAME 320kbps).mp3
Pre-gap length : 00:02:00

Track gain : 2.59 dB
Peak : 0.658630
CRC32 hash (test run) : 8797919B
CRC32 hash : 8797919B
CRC32 hash (skip zero) : 16046976
AccurateRip signature : 967C75CC
->Track not present in AccurateRip database.
Statistics
Read error : 0
Jitter error (maybe fixed) : 0
Retry sector count : 0
Damaged sector count : 0

Track 16
Filename : /Users/angerZen/Rips/16 Jeremy Soule - Journey's End.flac
/Users/angerZen/Rips/16 Jeremy Soule - Journey's End.m4a
/Users/angerZen/Rips/16 Jeremy Soule - Journey's End(V0).mp3
/Users/angerZen/Rips/16 Jeremy Soule - Journey's End(LAME 320kbps).mp3
Pre-gap length : 00:02:00

Track gain : 3.48 dB
Peak : 0.563080
CRC32 hash (test run) : B0A7B290
CRC32 hash : B0A7B290
CRC32 hash (skip zero) : 1AA17980
AccurateRip signature : 2140A91E
->Track not present in AccurateRip database.
Statistics
Read error : 0
Jitter error (maybe fixed) : 0
Retry sector count : 0
Damaged sector count : 0

No errors occurred

End of status report
01 Before the Storm 1:09
02 A Chance Meeting 3:11
03 Out of the Cold 3:04
04 Around the Fire 3:11
05 Shadows and Echoes 2:21
06 Caught off Guard 1:12
07 Aurora 7:23
08 Blood and Steel 2:12
09 Towers and Shadows 2:23
10 Seven Thousand Steps 1:08
11 Solitude 2:12
12 Watch the Skies 2:22
13 The Gathering Storm 2:55
14 Sky Above, Voice Within 3:58
15 Death in the Darkness 2:37
16 Shattered Shields 2:40
17 Sovngarde 3:38
18 Wind Guide You 9:05
TITLE "Disc 3"
PERFORMER "Jeremy Soule"
REM DATE "2011-11-11"
REM DISCID 080D5112
FILE "01 Jeremy Soule - Before the Storm.wav" WAVE
TRACK 01 AUDIO
TITLE "Before the Storm"
ISRC QMVAB1100035
INDEX 01 00:00:00
TRACK 02 AUDIO
TITLE "A Chance Meeting"
ISRC QMVAB1100036
INDEX 00 01:07:04
FILE "02 Jeremy Soule - A Chance Meeting.wav" WAVE
INDEX 01 00:00:00
TRACK 03 AUDIO
TITLE "Out of the Cold"
ISRC QMVAB1100037
INDEX 00 03:09:67
FILE "03 Jeremy Soule - Out of the Cold.wav" WAVE
INDEX 01 00:00:00
TRACK 04 AUDIO
TITLE "Around the Fire"
ISRC QMVAB1100038
INDEX 00 03:02:26
FILE "04 Jeremy Soule - Around the Fire.wav" WAVE
INDEX 01 00:00:00
TRACK 05 AUDIO
TITLE "Shadows and Echoes"
ISRC QMVAB1100039
INDEX 00 03:09:70
FILE "05 Jeremy Soule - Shadows and Echoes.wav" WAVE
INDEX 01 00:00:00
TRACK 06 AUDIO
TITLE "Caught off Guard"
ISRC QMVAB1100040
INDEX 00 02:19:27
FILE "06 Jeremy Soule - Caught off Guard.wav" WAVE
INDEX 01 00:00:00
TRACK 07 AUDIO
TITLE "Aurora"
ISRC QMVAB1100041
INDEX 00 01:10:46
FILE "07 Jeremy Soule - Aurora.wav" WAVE
INDEX 01 00:00:00
TRACK 08 AUDIO
TITLE "Blood and Steel"
ISRC QMVAB1100042
INDEX 00 07:21:35
FILE "08 Jeremy Soule - Blood and Steel.wav" WAVE
INDEX 01 00:00:00
TRACK 09 AUDIO
TITLE "Towers and Shadows"
ISRC QMVAB1100043
INDEX 00 02:10:29
FILE "09 Jeremy Soule - Towers and Shadows.wav" WAVE
INDEX 01 00:00:00
TRACK 10 AUDIO
TITLE "Seven Thousand Steps"
ISRC QMVAB1100044
INDEX 00 02:21:59
FILE "10 Jeremy Soule - Seven Thousand Steps.wav" WAVE
INDEX 01 00:00:00
TRACK 11 AUDIO
TITLE "Solitude"
ISRC QMVAB1100045
INDEX 00 01:06:21
FILE "11 Jeremy Soule - Solitude.wav" WAVE
INDEX 01 00:00:00
TRACK 12 AUDIO
TITLE "Watch the Skies"
ISRC QMVAB1100046
INDEX 00 02:10:18
FILE "12 Jeremy Soule - Watch the Skies.wav" WAVE
INDEX 01 00:00:00
TRACK 13 AUDIO
TITLE "The Gathering Storm"
ISRC QMVAB1100047
INDEX 00 02:20:55
FILE "13 Jeremy Soule - The Gathering Storm.wav" WAVE
INDEX 01 00:00:00
TRACK 14 AUDIO
TITLE "Sky Above, Voice Within"
ISRC QMVAB1100048
INDEX 00 02:53:19
FILE "14 Jeremy Soule - Sky Above, Voice Within.wav" WAVE
INDEX 01 00:00:00
TRACK 15 AUDIO
TITLE "Death in the Darkness"
ISRC QMVAB1100049
INDEX 00 03:56:65
FILE "15 Jeremy Soule - Death in the Darkness.wav" WAVE
INDEX 01 00:00:00
TRACK 16 AUDIO
TITLE "Shattered Shields"
ISRC QMVAB1100050
INDEX 00 02:35:51
FILE "16 Jeremy Soule - Shattered Shields.wav" WAVE
INDEX 01 00:00:00
TRACK 17 AUDIO
TITLE "Sovngarde"
ISRC QMVAB1100051
INDEX 00 02:38:19
FILE "17 Jeremy Soule - Sovngarde.wav" WAVE
INDEX 01 00:00:00
TRACK 18 AUDIO
TITLE "Wind Guide You"
ISRC QMVAB1100052
INDEX 00 03:36:25
FILE "18 Jeremy Soule - Wind Guide You.wav" WAVE
INDEX 01 00:00:00
X Lossless Decoder version 20111113 (137.1)

XLD extraction logfile from 2011-12-05 21:31:11 +0000

Jeremy Soule / Disc 3

Used drive : HL-DT-ST DVDRW GS23N (revision SB03)

Ripper mode : XLD Secure Ripper
Disable audio cache : OK for the drive with a cache less than 1375KiB
Make use of C2 pointers : NO
Read offset correction : 667
Max retry count : 20
Gap status : Analyzed, Appended

TOC of the extracted CD
Track | Start | Length | Start sector | End sector
---------------------------------------------------------
1 | 00:00:00 | 01:09:04 | 0 | 5178
2 | 01:09:04 | 03:11:67 | 5179 | 19570
3 | 04:20:71 | 03:04:26 | 19571 | 33396
4 | 07:25:22 | 03:11:70 | 33397 | 47791
5 | 10:37:17 | 02:21:27 | 47792 | 58393
6 | 12:58:44 | 01:12:46 | 58394 | 63839
7 | 14:11:15 | 07:23:35 | 63840 | 97099
8 | 21:34:50 | 02:12:29 | 97100 | 107028
9 | 23:47:04 | 02:23:59 | 107029 | 117812
10 | 26:10:63 | 01:08:21 | 117813 | 122933
11 | 27:19:09 | 02:12:18 | 122934 | 132851
12 | 29:31:27 | 02:22:55 | 132852 | 143556
13 | 31:54:07 | 02:55:19 | 143557 | 156700
14 | 34:49:26 | 03:58:65 | 156701 | 174615
15 | 38:48:16 | 02:37:51 | 174616 | 186441
16 | 41:25:67 | 02:40:19 | 186442 | 198460
17 | 44:06:11 | 03:38:25 | 198461 | 214835
18 | 47:44:36 | 09:05:21 | 214836 | 255731

AccurateRip Summary
Disc not found in AccurateRip DB.

All Tracks
Album gain : -2.93 dB
Peak : 0.999969
Statistics
Read error : 0
Jitter error (maybe fixed) : 0
Retry sector count : 0
Damaged sector count : 0

Track 01
Filename : /Users/angerZen/Rips/01 Jeremy Soule - Before the Storm.flac
/Users/angerZen/Rips/01 Jeremy Soule - Before the Storm.m4a
/Users/angerZen/Rips/01 Jeremy Soule - Before the Storm(V0).mp3
/Users/angerZen/Rips/01 Jeremy Soule - Before the Storm(LAME 320kbps).mp3
Pre-gap length : 00:02:00

Track gain : 0.20 dB
Peak : 0.989502
CRC32 hash (test run) : D15ABB36
CRC32 hash : D15ABB36
CRC32 hash (skip zero) : F013C5FE
AccurateRip signature : 3A4D264C
->Track not present in AccurateRip database.
Statistics
Read error : 0
Jitter error (maybe fixed) : 0
Retry sector count : 0
Damaged sector count : 0

Track 02
Filename : /Users/angerZen/Rips/02 Jeremy Soule - A Chance Meeting.flac
/Users/angerZen/Rips/02 Jeremy Soule - A Chance Meeting.m4a
/Users/angerZen/Rips/02 Jeremy Soule - A Chance Meeting(V0).mp3
/Users/angerZen/Rips/02 Jeremy Soule - A Chance Meeting(LAME 320kbps).mp3
Pre-gap length : 00:02:00

Track gain : 8.96 dB
Peak : 0.331268
CRC32 hash (test run) : C38BED8F
CRC32 hash : C38BED8F
CRC32 hash (skip zero) : 562BADC4
AccurateRip signature : 29D2D80B
->Track not present in AccurateRip database.
Statistics
Read error : 0
Jitter error (maybe fixed) : 0
Retry sector count : 0
Damaged sector count : 0

Track 03
Filename : /Users/angerZen/Rips/03 Jeremy Soule - Out of the Cold.flac
/Users/angerZen/Rips/03 Jeremy Soule - Out of the Cold.m4a
/Users/angerZen/Rips/03 Jeremy Soule - Out of the Cold(V0).mp3
/Users/angerZen/Rips/03 Jeremy Soule - Out of the Cold(LAME 320kbps).mp3
Pre-gap length : 00:02:00

Track gain : 6.50 dB
Peak : 0.334045
CRC32 hash (test run) : 1924ABE5
CRC32 hash : 1924ABE5
CRC32 hash (skip zero) : A72773F6
AccurateRip signature : DFED3172
->Track not present in AccurateRip database.
Statistics
Read error : 0
Jitter error (maybe fixed) : 0
Retry sector count : 0
Damaged sector count : 0

Track 04
Filename : /Users/angerZen/Rips/04 Jeremy Soule - Around the Fire.flac
/Users/angerZen/Rips/04 Jeremy Soule - Around the Fire.m4a
/Users/angerZen/Rips/04 Jeremy Soule - Around the Fire(V0).mp3
/Users/angerZen/Rips/04 Jeremy Soule - Around the Fire(LAME 320kbps).mp3
Pre-gap length : 00:02:00

Track gain : 5.66 dB
Peak : 0.446442
CRC32 hash (test run) : 6B7E32E9
CRC32 hash : 6B7E32E9
CRC32 hash (skip zero) : 8654B71C
AccurateRip signature : 84D9DE15
->Track not present in AccurateRip database.
Statistics
Read error : 0
Jitter error (maybe fixed) : 0
Retry sector count : 0
Damaged sector count : 0

Track 05
Filename : /Users/angerZen/Rips/05 Jeremy Soule - Shadows and Echoes.flac
/Users/angerZen/Rips/05 Jeremy Soule - Shadows and Echoes.m4a
/Users/angerZen/Rips/05 Jeremy Soule - Shadows and Echoes(V0).mp3
/Users/angerZen/Rips/05 Jeremy Soule - Shadows and Echoes(LAME 320kbps).mp3
Pre-gap length : 00:02:00

Track gain : 5.98 dB
Peak : 0.988220
CRC32 hash (test run) : 93C81539
CRC32 hash : 93C81539
CRC32 hash (skip zero) : C8A0DB4A
AccurateRip signature : D65773FC
->Track not present in AccurateRip database.
Statistics
Read error : 0
Jitter error (maybe fixed) : 0
Retry sector count : 0
Damaged sector count : 0

Track 06
Filename : /Users/angerZen/Rips/06 Jeremy Soule - Caught off Guard.flac
/Users/angerZen/Rips/06 Jeremy Soule - Caught off Guard.m4a
/Users/angerZen/Rips/06 Jeremy Soule - Caught off Guard(V0).mp3
/Users/angerZen/Rips/06 Jeremy Soule - Caught off Guard(LAME 320kbps).mp3
Pre-gap length : 00:02:00

Track gain : -5.68 dB
Peak : 0.990356
CRC32 hash (test run) : 9119FAF4
CRC32 hash : 9119FAF4
CRC32 hash (skip zero) : DE7BD3AD
AccurateRip signature : 767B77F5
->Track not present in AccurateRip database.
Statistics
Read error : 0
Jitter error (maybe fixed) : 0
Retry sector count : 0
Damaged sector count : 0

Track 07
Filename : /Users/angerZen/Rips/07 Jeremy Soule - Aurora.flac
/Users/angerZen/Rips/07 Jeremy Soule - Aurora.m4a
/Users/angerZen/Rips/07 Jeremy Soule - Aurora(V0).mp3
/Users/angerZen/Rips/07 Jeremy Soule - Aurora(LAME 320kbps).mp3
Pre-gap length : 00:02:00

Track gain : 1.30 dB
Peak : 0.754547
CRC32 hash (test run) : 573765F8
CRC32 hash : 573765F8
CRC32 hash (skip zero) : EEEDCC27
AccurateRip signature : E9B4F58D
->Track not present in AccurateRip database.
Statistics
Read error : 0
Jitter error (maybe fixed) : 0
Retry sector count : 0
Damaged sector count : 0

Track 08
Filename : /Users/angerZen/Rips/08 Jeremy Soule - Blood and Steel.flac
/Users/angerZen/Rips/08 Jeremy Soule - Blood and Steel.m4a
/Users/angerZen/Rips/08 Jeremy Soule - Blood and Steel(V0).mp3
/Users/angerZen/Rips/08 Jeremy Soule - Blood and Steel(LAME 320kbps).mp3
Pre-gap length : 00:02:00

Track gain : -5.80 dB
Peak : 0.996490
CRC32 hash (test run) : 2ABE5719
CRC32 hash : 2ABE5719
CRC32 hash (skip zero) : D46FB971
AccurateRip signature : 9D57EA0C
->Track not present in AccurateRip database.
Statistics
Read error : 0
Jitter error (maybe fixed) : 0
Retry sector count : 0
Damaged sector count : 0

Track 09
Filename : /Users/angerZen/Rips/09 Jeremy Soule - Towers and Shadows.flac
/Users/angerZen/Rips/09 Jeremy Soule - Towers and Shadows.m4a
/Users/angerZen/Rips/09 Jeremy Soule - Towers and Shadows(V0).mp3
/Users/angerZen/Rips/09 Jeremy Soule - Towers and Shadows(LAME 320kbps).mp3
Pre-gap length : 00:02:00

Track gain : 8.55 dB
Peak : 0.516571
CRC32 hash (test run) : 83EA1CFC
CRC32 hash : 83EA1CFC
CRC32 hash (skip zero) : 32B0B5A2
AccurateRip signature : DF0A82E2
->Track not present in AccurateRip database.
Statistics
Read error : 0
Jitter error (maybe fixed) : 0
Retry sector count : 0
Damaged sector count : 0

Track 10
Filename : /Users/angerZen/Rips/10 Jeremy Soule - Seven Thousand Steps.flac
/Users/angerZen/Rips/10 Jeremy Soule - Seven Thousand Steps.m4a
/Users/angerZen/Rips/10 Jeremy Soule - Seven Thousand Steps(V0).mp3
/Users/angerZen/Rips/10 Jeremy Soule - Seven Thousand Steps(LAME 320kbps).mp3
Pre-gap length : 00:02:00

Track gain : -1.05 dB
Peak : 0.751556
CRC32 hash (test run) : 81A059A6
CRC32 hash : 81A059A6
CRC32 hash (skip zero) : 97695655
AccurateRip signature : E7A5BD5C
->Track not present in AccurateRip database.
Statistics
Read error : 0
Jitter error (maybe fixed) : 0
Retry sector count : 0
Damaged sector count : 0

Track 11
Filename : /Users/angerZen/Rips/11 Jeremy Soule - Solitude.flac
/Users/angerZen/Rips/11 Jeremy Soule - Solitude.m4a
/Users/angerZen/Rips/11 Jeremy Soule - Solitude(V0).mp3
/Users/angerZen/Rips/11 Jeremy Soule - Solitude(LAME 320kbps).mp3
Pre-gap length : 00:02:00

Track gain : -2.54 dB
Peak : 0.948151
CRC32 hash (test run) : 793A609F
CRC32 hash : 793A609F
CRC32 hash (skip zero) : 2C862BE9
AccurateRip signature : 66E4BAC8
->Track not present in AccurateRip database.
Statistics
Read error : 0
Jitter error (maybe fixed) : 0
Retry sector count : 0
Damaged sector count : 0

Track 12
Filename : /Users/angerZen/Rips/12 Jeremy Soule - Watch the Skies.flac
/Users/angerZen/Rips/12 Jeremy Soule - Watch the Skies.m4a
/Users/angerZen/Rips/12 Jeremy Soule - Watch the Skies(V0).mp3
/Users/angerZen/Rips/12 Jeremy Soule - Watch the Skies(LAME 320kbps).mp3
Pre-gap length : 00:02:00

Track gain : -6.85 dB
Peak : 0.999969
CRC32 hash (test run) : 0948E554
CRC32 hash : 0948E554
CRC32 hash (skip zero) : A3DA1483
AccurateRip signature : D0CE407A
->Track not present in AccurateRip database.
Statistics
Read error : 0
Jitter error (maybe fixed) : 0
Retry sector count : 0
Damaged sector count : 0

Track 13
Filename : /Users/angerZen/Rips/13 Jeremy Soule - The Gathering Storm.flac
/Users/angerZen/Rips/13 Jeremy Soule - The Gathering Storm.m4a
/Users/angerZen/Rips/13 Jeremy Soule - The Gathering Storm(V0).mp3
/Users/angerZen/Rips/13 Jeremy Soule - The Gathering Storm(LAME 320kbps).mp3
Pre-gap length : 00:02:00

Track gain : 2.02 dB
Peak : 0.541290
CRC32 hash (test run) : 81F7152C
CRC32 hash : 81F7152C
CRC32 hash (skip zero) : B9B84DCB
AccurateRip signature : C7966275
->Track not present in AccurateRip database.
Statistics
Read error : 0
Jitter error (maybe fixed) : 0
Retry sector count : 0
Damaged sector count : 0

Track 14
Filename : /Users/angerZen/Rips/14 Jeremy Soule - Sky Above, Voice Within.flac
/Users/angerZen/Rips/14 Jeremy Soule - Sky Above, Voice Within.m4a
/Users/angerZen/Rips/14 Jeremy Soule - Sky Above, Voice Within(V0).mp3
/Users/angerZen/Rips/14 Jeremy Soule - Sky Above, Voice Within(LAME 320kbps).mp3
Pre-gap length : 00:02:00

Track gain : 1.92 dB
Peak : 0.644928
CRC32 hash (test run) : C45001F7
CRC32 hash : C45001F7
CRC32 hash (skip zero) : 795078D2
AccurateRip signature : 47B31DA5
->Track not present in AccurateRip database.
Statistics
Read error : 0
Jitter error (maybe fixed) : 0
Retry sector count : 0
Damaged sector count : 0

Track 15
Filename : /Users/angerZen/Rips/15 Jeremy Soule - Death in the Darkness.flac
/Users/angerZen/Rips/15 Jeremy Soule - Death in the Darkness.m4a
/Users/angerZen/Rips/15 Jeremy Soule - Death in the Darkness(V0).mp3
/Users/angerZen/Rips/15 Jeremy Soule - Death in the Darkness(LAME 320kbps).mp3
Pre-gap length : 00:02:00

Track gain : 11.17 dB
Peak : 0.363922
CRC32 hash (test run) : 68BB0018
CRC32 hash : 68BB0018
CRC32 hash (skip zero) : 397C3DEB
AccurateRip signature : 1DDAFC13
->Track not present in AccurateRip database.
Statistics
Read error : 0
Jitter error (maybe fixed) : 0
Retry sector count : 0
Damaged sector count : 0

Track 16
Filename : /Users/angerZen/Rips/16 Jeremy Soule - Shattered Shields.flac
/Users/angerZen/Rips/16 Jeremy Soule - Shattered Shields.m4a
/Users/angerZen/Rips/16 Jeremy Soule - Shattered Shields(V0).mp3
/Users/angerZen/Rips/16 Jeremy Soule - Shattered Shields(LAME 320kbps).mp3
Pre-gap length : 00:02:00

Track gain : 11.32 dB
Peak : 0.337616
CRC32 hash (test run) : DC546055
CRC32 hash : DC546055
CRC32 hash (skip zero) : 464E6622
AccurateRip signature : D92AC9E4
->Track not present in AccurateRip database.
Statistics
Read error : 0
Jitter error (maybe fixed) : 0
Retry sector count : 0
Damaged sector count : 0

Track 17
Filename : /Users/angerZen/Rips/17 Jeremy Soule - Sovngarde.flac
/Users/angerZen/Rips/17 Jeremy Soule - Sovngarde.m4a
/Users/angerZen/Rips/17 Jeremy Soule - Sovngarde(V0).mp3
/Users/angerZen/Rips/17 Jeremy Soule - Sovngarde(LAME 320kbps).mp3
Pre-gap length : 00:02:00

Track gain : -5.55 dB
Peak : 0.994843
CRC32 hash (test run) : 5867D0E2
CRC32 hash : 5867D0E2
CRC32 hash (skip zero) : 0B906C59
AccurateRip signature : 40494DBC
->Track not present in AccurateRip database.
Statistics
Read error : 0
Jitter error (maybe fixed) : 0
Retry sector count : 0
Damaged sector count : 0

Track 18
Filename : /Users/angerZen/Rips/18 Jeremy Soule - Wind Guide You.flac
/Users/angerZen/Rips/18 Jeremy Soule - Wind Guide You.m4a
/Users/angerZen/Rips/18 Jeremy Soule - Wind Guide You(V0).mp3
/Users/angerZen/Rips/18 Jeremy Soule - Wind Guide You(LAME 320kbps).mp3
Pre-gap length : 00:02:00

Track gain : -0.91 dB
Peak : 0.990814
CRC32 hash (test run) : 1CDFB99F
CRC32 hash : 1CDFB99F
CRC32 hash (skip zero) : 3E80BB81
AccurateRip signature : A3FB1CC1
->Track not present in AccurateRip database.
Statistics
Read error : 0
Jitter error (maybe fixed) : 0
Retry sector count : 0
Damaged sector count : 0

No errors occurred

End of status report
01 Skyrim Atmospheres 42:34
TITLE "Disc 4"
PERFORMER "Jeremy Soule"
REM GENRE "Spoken & Audio"
REM DATE "2011-11-11"
REM DISCID 0209FA01
FILE "01 Jeremy Soule - Skyrim Atmospheres.wav" WAVE
TRACK 01 AUDIO
TITLE "Skyrim Atmospheres"
ISRC QMVAB1100053
INDEX 01 00:00:00
X Lossless Decoder version 20111113 (137.1)

XLD extraction logfile from 2011-12-05 21:52:26 +0000

Jeremy Soule / Disc 4

Used drive : HL-DT-ST DVDRW GS23N (revision SB03)

Ripper mode : XLD Secure Ripper
Disable audio cache : OK for the drive with a cache less than 1375KiB
Make use of C2 pointers : NO
Read offset correction : 667
Max retry count : 20
Gap status : Analyzed, Appended

TOC of the extracted CD
Track | Start | Length | Start sector | End sector
---------------------------------------------------------
1 | 00:00:00 | 42:34:66 | 0 | 191615

AccurateRip Summary
Disc not found in AccurateRip DB.

All Tracks
Album gain : 7.02 dB
Peak : 0.630707
Statistics
Read error : 0
Jitter error (maybe fixed) : 0
Retry sector count : 0
Damaged sector count : 0

Track 01
Filename : /Users/angerZen/Rips/01 Jeremy Soule - Skyrim Atmospheres.flac
/Users/angerZen/Rips/01 Jeremy Soule - Skyrim Atmospheres.m4a
/Users/angerZen/Rips/01 Jeremy Soule - Skyrim Atmospheres(V0).mp3
/Users/angerZen/Rips/01 Jeremy Soule - Skyrim Atmospheres(LAME 320kbps).mp3
Pre-gap length : 00:02:00

Track gain : 7.02 dB
Peak : 0.630707
CRC32 hash (test run) : 3853902A
CRC32 hash : 3853902A
CRC32 hash (skip zero) : EF6ED356
AccurateRip signature : 1EAAD289
->Track not present in AccurateRip database.
Statistics
Read error : 0
Jitter error (maybe fixed) : 0
Retry sector count : 0
Damaged sector count : 0

No errors occurred

End of status report


info [Профиль]  [ЛС] 

bromista

Пол: Пол:Муж

Стаж: 13 лет

Сообщений: 424

Предупреждений: 1

Гондурас
Рейтинг

post 06-Дек-2011 16:40 (спустя 1 час 49 минут) [-]0[+]

[Цитировать] 

спасибо забираю

_________________
Sep. ??, 2014 Final Season!
Пейте витамин П, он содержится во всех лучших сортах пива.
In trance we trust, but hardcore will never die. And Female Vocal Music Only.
info [Профиль]  [ЛС] 

pogar111

Пол: Пол:Муж

Стаж: 12 лет

Сообщений: 235

Россия
Рейтинг

post 06-Дек-2011 20:27 (спустя 3 часа) [-]0[+]

[Цитировать] 

Советую послушать:
http://www.youtube.com/watch?feature=player_embedded&v=4z9TdDCWN7g
http://www.youtube.com/watch?feature=player_embedded&v=M1vZ3UaAytc

Ооочень классно поёт)))

_________________
[/url]
info [Профиль]  [ЛС] 

dvdrw4x

Пол: Пол:Муж

Стаж: 12 лет

Сообщений: 18

Молдавия
Рейтинг

post 06-Дек-2011 20:28 (спустя 1 минута) [-]0[+]

[Цитировать] 

Шикарный саундтрек. Спасибо!
info [Профиль]  [ЛС] 

bromista

Пол: Пол:Муж

Стаж: 13 лет

Сообщений: 424

Предупреждений: 1

Гондурас
Рейтинг

post 07-Дек-2011 18:13 (спустя 21 час) [-]0[+]

[Цитировать] 

просто мега шикаркая вещь

добавлено спустя 1 минута 3 секунды:

pogar111 писал(а):

pogar111
баян Улыбаюсь

_________________
Sep. ??, 2014 Final Season!
Пейте витамин П, он содержится во всех лучших сортах пива.
In trance we trust, but hardcore will never die. And Female Vocal Music Only.
info [Профиль]  [ЛС] 

tombeg

Пол: Пол:Муж

Стаж: 10 лет

Сообщений: 2

Рейтинг

post 08-Дек-2011 13:07 (спустя 18 часов) [-]0[+]

[Цитировать] 

Чем открывать данный формат?
info [Профиль]  [ЛС] 

OiNK

Пол: Пол:Муж

Стаж: 10 лет

Сообщений: 88

Великобритания
Рейтинг

post 16-Дек-2011 16:53 (спустя 8 дней) [-]0[+]

[Цитировать] 

tombeg писал(а):

Чем открывать данный формат?
Вот
Но, однако, что можно делать в разделе lossless музыки, если не знать, как его проигрывать?

_________________
info [Профиль]  [ЛС] 

NOFX

Пол: Пол:Муж

Стаж: 12 лет

Сообщений: 189

Россия
Рейтинг

post 31-Дек-2011 17:01 (спустя 15 дней) [-]0[+]

[Цитировать] 

Cпасибо большое !!!
info [Профиль]  [ЛС] 

MAXELL 13 RUS

Пол: Пол:Муж

Стаж: 10 лет

Сообщений: 52

Россия
Рейтинг

post 03-Дек-2012 22:44 (спустя 11 месяцев 3 дня) [-]0[+]

[Цитировать] 

Спасибо шикарнейший саундтрек =)

_________________
info [Профиль]  [ЛС] 
Показать сообщения:    
Ответить на тему

Текущее время: 28-Май 03:06

Часовой пояс: GMT + 4



Вы не можете начинать темы
Вы не можете отвечать на сообщения
Вы не можете редактировать свои сообщения
Вы не можете удалять свои сообщения
Вы не можете голосовать в опросах
Вы не можете прикреплять файлы к сообщениям
Вы не можете скачивать файлы