Ошибка

(Chillout) VA - Chilled Euphoria - 2009 FLAC (image + .cue), lossless

Ответить на тему
 
Автор Сообщение

finderX

Пол: Пол:Муж

Стаж: 10 лет

Сообщений: 10

Россия
Рейтинг

post 31-Авг-2010 06:26 2[+]

[Цитировать] 

Artist: VA
Album: Chilled Euphoria
Released: 24.08.2009
Label: Ministry of Sound
Genre: Chill-out
Country: UK
2009 - Chilled Euphoria (disc 1)
Tracklisting:
01. Ferry Corsten - Galaxia (Symphonic remake) [3:25]
02. Eric Prydz - Pjanoo (Afterlife remix) [2:46]
03. Jakatta - American Dream (Ski Dakenfull Dream on remix) [3:24]
04. September - Cry for You (acoustic mix) (Candlelight edit) [3:39]
05. Solu Music - Fade (feat. Kimblee) [4:25]
06. Chicane - Poppiholla [3:52]
07. Starchaser - Love Will Set You Free (Jambe Myth) [3:32]
08. X-Press 2 - Lazy (feat. David Byrne) (Moto Blanco remix) [4:55]
09. Mike Koglin - The Silence (Tekara mix) [5:02]
10. Jam & Spoon - Stella [2:31]
11. Space Manoeuvers - Stage One (Blain Sandberg mix) [3:01]
12. Lost Tribe - Gamemaster [3:58]
13. York - On the Beach (CRW mix) [4:38]
14. Chicane - Salt Water (Thrillseekers House mix) [5:00]
15. Agnelli & Nelson - Singing for the Future [3:15]
16. Layo & Bushwacka! - Love Story (vs. Finally) [4:22]
17. Tall Paul vs. INXS - Precious Heart (Lush mix) [4:59]
18. Mandrake - Children (Chill mix) [4:16]
19. Bent - Private Road [5:03]
20. Kings of Tomorrow - Finally (Lenny Ibizarre mix) [3:18]
Duration: 1:19:21

2009 - Chilled Euphoria (disc 2)
Tracklisting:
01. Hybrid - Finished Symphony (soundtrack edit) [3:18]
02. Pete Lazonby - Sacred Cycle [4:02]
03. Sasha - Baja [4:44]
04. Miro - By Your Side (Illinton Chilled mix) [3:57]
05. Shakedown - At Night (Afterlife mix) [4:22]
06. W.O.S.P. - Gettin' Into U (dub mix) [5:00]
07. Slusnik Luna - Sun (Kossin mix) [2:36]
08. Faithless - We Come 1 (Elliot J remix) [4:10]
09. Humate - Love Stimulation (Micheal Woods Ambient mix) [3:17]
10. Basshunter - Angel in the Night (Ali Payami remix) [4:07]
11. Glide & Swerve - Feel It [3:25]
12. Kid Cudi vs. Crookers - Day 'n' Nite (D.O.N.S. remix) [4:22]
13. Tilt - Invisible (Supernatural mix) [5:45]
14. Banda Sonora - Guitarra G (Afterlife mix) [2:46]
15. Freefall - Skydive (I Feel Wonderful) (feat. Jan Johnston) [2:44]
16. Push - Strange World (Underwater Kingdom remix) [3:11]
17. Agnelli & Nelson - Everyday (Lange remix) [6:48]
18. Finley Quaye & William Orbit - Dice [3:24]
19. Christian Falk - Dream On (feat. Robyn) (Tiger Stripes remix) [4:32]
20. Sasha & Emerson - Scorchio (Emerson's Late Night dub) [2:19]
Duration: 1:18:49

2009 - Chilled Euphoria (disc 3)
Tracklisting:
01. Stewart and Bradley James - The Kiss [4:01]
02. Guru Josh Project - Infinity 2008 (Steen Thottrup Chill mix) [2:42]
03. Primal Scream - Higher Than the Sun [2:23]
04. Mylo - Valley of the Dolls [2:34]
05. Three Drives - Greece 2000 (Moonwatcher Sea of Tranquility mix) [4:16]
06. Atb - 9 PM (Till I Come) (Bent remix) [3:45]
07. The Future Sound of London - Papua New Guinea (Dumb Child of Q mix) [2:05]
08. Accadia - Into the Dawn (Accadia Ambient mix) [3:42]
09. Jes - As the Rush Comes (Hamptons Chills remix) [4:48]
10. Jean Jacques Smoothie - 2 People (Mirwais extended mix) [4:26]
11. Junk Project - Composure [5:17]
12. Lange - Nearly Home [1:49]
13. The Thrillseekers - Dreaming of You (Tranquilo's Ambient mix) [5:02]
14. Solarstone - Seven Cities (Ambient dub) [4:21]
15. Deepest Blue - Deepest Blue (Jon Hopkins mix) [3:59]
16. Julien Jabre - Swimming Places [4:11]
17. Delerium - Silence (feat. Sarah McLachlan) (Micheal Woods remix) [4:26]
18. Rui Da Silva - Touch Me (feat. Cassandra) [6:21]
19. Roger Sanchez - Another Chance (Afterlife remix) [5:37]
20. Hi-Gate - I Can Hear Voices (Chilled mix) [3:10]
Duration: 1:18:54

Код:

REM DATE 2009
REM DISCID 18129914
REM COMMENT "ExactAudioCopy v0.99pb5"
PERFORMER "Various Artists"
TITLE "Chilled Euphoria (disc 1)"
FILE "Various Artists - Chilled Euphoria (disc 1).flac" WAVE
  TRACK 01 AUDIO
    TITLE "Galaxia (Symphonic remake)"
    PERFORMER "Ferry Corsten"
    INDEX 01 00:00:00
  TRACK 02 AUDIO
    TITLE "Pjanoo (Afterlife remix)"
    PERFORMER "Eric Prydz"
    INDEX 01 03:24:61
  TRACK 03 AUDIO
    TITLE "American Dream (Ski Dakenfull Dream on remix)"
    PERFORMER "Jakatta"
    INDEX 01 06:11:06
  TRACK 04 AUDIO
    TITLE "Cry for You (acoustic mix) (Candlelight edit)"
    PERFORMER "September"
    INDEX 01 09:35:12
  TRACK 05 AUDIO
    TITLE "Fade (feat. Kimblee)"
    PERFORMER "Solu Music"
    INDEX 01 13:14:29
  TRACK 06 AUDIO
    TITLE "Poppiholla"
    PERFORMER "Chicane"
    INDEX 01 17:38:71
  TRACK 07 AUDIO
    TITLE "Love Will Set You Free (Jambe Myth)"
    PERFORMER "Starchaser"
    INDEX 01 21:31:31
  TRACK 08 AUDIO
    TITLE "Lazy (feat. David Byrne) (Moto Blanco remix)"
    PERFORMER "X-Press 2"
    INDEX 01 25:03:05
  TRACK 09 AUDIO
    TITLE "The Silence (Tekara mix)"
    PERFORMER "Mike Koglin"
    INDEX 01 29:57:62
  TRACK 10 AUDIO
    TITLE "Stella"
    PERFORMER "Jam & Spoon"
    INDEX 01 35:00:12
  TRACK 11 AUDIO
    TITLE "Stage One (Blain Sandberg mix)"
    PERFORMER "Space Manoeuvers"
    INDEX 01 37:31:24
  TRACK 12 AUDIO
    TITLE "Gamemaster"
    PERFORMER "Lost Tribe"
    INDEX 01 40:32:55
  TRACK 13 AUDIO
    TITLE "On the Beach (CRW mix)"
    PERFORMER "York"
    INDEX 01 44:30:59
  TRACK 14 AUDIO
    TITLE "Salt Water (Thrillseekers House mix)"
    PERFORMER "Chicane"
    INDEX 01 49:08:47
  TRACK 15 AUDIO
    TITLE "Singing for the Future"
    PERFORMER "Agnelli & Nelson"
    INDEX 01 54:09:07
  TRACK 16 AUDIO
    TITLE "Love Story (vs. Finally)"
    PERFORMER "Layo & Bushwacka!"
    INDEX 01 57:24:06
  TRACK 17 AUDIO
    TITLE "Precious Heart (Lush mix)"
    PERFORMER "Tall Paul vs. INXS"
    INDEX 01 61:46:39
  TRACK 18 AUDIO
    TITLE "Children (Chill mix)"
    PERFORMER "Mandrake"
    INDEX 01 66:45:46
  TRACK 19 AUDIO
    TITLE "Private Road"
    PERFORMER "Bent"
    INDEX 01 71:01:32
  TRACK 20 AUDIO
    TITLE "Finally (Lenny Ibizarre mix)"
    PERFORMER "Kings of Tomorrow"
    INDEX 01 76:04:02

Код:

REM DATE 2009
REM DISCID 1B127914
REM COMMENT ExactAudioCopy v0.99pb5
PERFORMER "Various Artists"
TITLE "Chilled Euphoria (disc 2)"
FILE "Various Artists - Chilled Euphoria (disc 2).flac" WAVE
  TRACK 01 AUDIO
    TITLE "Finished Symphony (soundtrack edit)"
    PERFORMER "Hybrid"
    INDEX 01 00:00:00
  TRACK 02 AUDIO
    TITLE "Sacred Cycle"
    PERFORMER "Pete Lazonby"
    INDEX 01 03:17:46
  TRACK 03 AUDIO
    TITLE "Baja"
    PERFORMER "Sasha"
    INDEX 01 07:19:21
  TRACK 04 AUDIO
    TITLE "By Your Side (Illinton Chilled mix)"
    PERFORMER "Miro"
    INDEX 01 12:03:48
  TRACK 05 AUDIO
    TITLE "At Night (Afterlife mix)"
    PERFORMER "Shakedown"
    INDEX 01 16:00:73
  TRACK 06 AUDIO
    TITLE "Gettin' Into U (dub mix)"
    PERFORMER "W.O.S.P."
    INDEX 01 20:23:35
  TRACK 07 AUDIO
    TITLE "Sun (Kossin mix)"
    PERFORMER "Slusnik Luna"
    INDEX 01 25:23:16
  TRACK 08 AUDIO
    TITLE "We Come 1 (Elliot J remix)"
    PERFORMER "Faithless"
    INDEX 01 27:59:44
  TRACK 09 AUDIO
    TITLE "Love Stimulation (Micheal Woods Ambient mix)"
    PERFORMER "Humate"
    INDEX 01 32:09:47
  TRACK 10 AUDIO
    TITLE "Angel in the Night (Ali Payami remix)"
    PERFORMER "Basshunter"
    INDEX 01 35:26:18
  TRACK 11 AUDIO
    TITLE "Feel It"
    PERFORMER "Glide & Swerve"
    INDEX 01 39:33:07
  TRACK 12 AUDIO
    TITLE "Day 'n' Nite (D.O.N.S. remix)"
    PERFORMER "Kid Cudi vs. Crookers"
    INDEX 01 42:58:30
  TRACK 13 AUDIO
    TITLE "Invisible (Supernatural mix)"
    PERFORMER "Tilt"
    INDEX 01 47:20:10
  TRACK 14 AUDIO
    TITLE "Guitarra G (Afterlife mix)"
    PERFORMER "Banda Sonora"
    INDEX 01 53:04:56
  TRACK 15 AUDIO
    TITLE "Skydive (I Feel Wonderful) (feat. Jan Johnston)"
    PERFORMER "Freefall"
    INDEX 01 55:51:01
  TRACK 16 AUDIO
    TITLE "Strange World (Underwater Kingdom remix)"
    PERFORMER "Push"
    INDEX 01 58:35:29
  TRACK 17 AUDIO
    TITLE "Everyday (Lange remix)"
    PERFORMER "Agnelli & Nelson"
    INDEX 01 61:46:15
  TRACK 18 AUDIO
    TITLE "Dice"
    PERFORMER "Finley Quaye & William Orbit"
    INDEX 01 68:34:20
  TRACK 19 AUDIO
    TITLE "Dream On (feat. Robyn) (Tiger Stripes remix)"
    PERFORMER "Christian Falk"
    INDEX 01 71:58:21
  TRACK 20 AUDIO
    TITLE "Scorchio (Emerson's Late Night dub)"
    PERFORMER "Sasha & Emerson"
    INDEX 01 76:30:26

Код:

REM DATE 2009
REM DISCID FC127E14
REM COMMENT "ExactAudioCopy v0.99pb5"
PERFORMER "Various Artists"
TITLE "Chilled Euphoria (disc 3)"
FILE "Various Artists - Chilled Euphoria (disc 3).flac" WAVE
  TRACK 01 AUDIO
    TITLE "The Kiss"
    PERFORMER "Stewart and Bradley James"
    INDEX 01 00:00:00
  TRACK 02 AUDIO
    TITLE "Infinity 2008 (Steen Thottrup Chill mix)"
    PERFORMER "Guru Josh Project"
    INDEX 01 04:00:71
  TRACK 03 AUDIO
    TITLE "Higher Than the Sun"
    PERFORMER "Primal Scream"
    INDEX 01 06:42:48
  TRACK 04 AUDIO
    TITLE "Valley of the Dolls"
    PERFORMER "Mylo"
    INDEX 01 09:05:46
  TRACK 05 AUDIO
    TITLE "Greece 2000 (Moonwatcher Sea of Tranquility mix)"
    PERFORMER "Three Drives"
    INDEX 01 11:39:37
  TRACK 06 AUDIO
    TITLE "9 PM (Till I Come) (Bent remix)"
    PERFORMER "Atb"
    INDEX 01 15:55:23
  TRACK 07 AUDIO
    TITLE "Papua New Guinea (Dumb Child of Q mix)"
    PERFORMER "The Future Sound of London"
    INDEX 01 19:40:35
  TRACK 08 AUDIO
    TITLE "Into the Dawn (Accadia Ambient mix)"
    PERFORMER "Accadia"
    INDEX 01 21:44:73
  TRACK 09 AUDIO
    TITLE "As the Rush Comes (Hamptons Chills remix)"
    PERFORMER "Jes"
    INDEX 01 25:27:13
  TRACK 10 AUDIO
    TITLE "2 People (Mirwais extended mix)"
    PERFORMER "Jean Jacques Smoothie"
    INDEX 01 30:15:10
  TRACK 11 AUDIO
    TITLE "Composure"
    PERFORMER "Junk Project"
    INDEX 01 34:40:72
  TRACK 12 AUDIO
    TITLE "Nearly Home"
    PERFORMER "Lange"
    INDEX 01 39:58:17
  TRACK 13 AUDIO
    TITLE "Dreaming of You (Tranquilo's Ambient mix)"
    PERFORMER "The Thrillseekers"
    INDEX 01 41:47:54
  TRACK 14 AUDIO
    TITLE "Seven Cities (Ambient dub)"
    PERFORMER "Solarstone"
    INDEX 01 46:49:60
  TRACK 15 AUDIO
    TITLE "Deepest Blue (Jon Hopkins mix)"
    PERFORMER "Deepest Blue"
    INDEX 01 51:11:14
  TRACK 16 AUDIO
    TITLE "Swimming Places"
    PERFORMER "Julien Jabre"
    INDEX 01 55:10:13
  TRACK 17 AUDIO
    TITLE "Silence (feat. Sarah McLachlan) (Micheal Woods remix)"
    PERFORMER "Delerium"
    INDEX 01 59:21:29
  TRACK 18 AUDIO
    TITLE "Touch Me (feat. Cassandra)"
    PERFORMER "Rui Da Silva"
    INDEX 01 63:47:28
  TRACK 19 AUDIO
    TITLE "Another Chance (Afterlife remix)"
    PERFORMER "Roger Sanchez"
    INDEX 01 70:08:14
  TRACK 20 AUDIO
    TITLE "I Can Hear Voices (Chilled mix)"
    PERFORMER "Hi-Gate"
    INDEX 01 75:44:67

Код:

Exact Audio Copy V0.99 prebeta 5 from 4. May 2009

EAC extraction logfile from 16. May 2010, 13:35

Various Artists / Chilled Euphoria (disc 1)

Used drive  : TSSTcorpCDDVDW TS-L632H   Adapter: 0  ID: 0

Read mode               : Secure
Utilize accurate stream : Yes
Defeat audio cache      : Yes
Make use of C2 pointers : No

Read offset correction                      : 6
Overread into Lead-In and Lead-Out          : No
Fill up missing offset samples with silence : Yes
Delete leading and trailing silent blocks   : No
Null samples used in CRC calculations       : Yes
Used interface                              : Native Win32 interface for Win NT & 2000

Used output format : Internal WAV Routines
Sample format      : 44.100 Hz; 16 Bit; Stereo

TOC of the extracted CD

     Track |   Start  |  Length  | Start sector | End sector
    ---------------------------------------------------------
        1  |  0:00.00 |  3:24.61 |         0    |    15360   
        2  |  3:24.61 |  2:46.20 |     15361    |    27830   
        3  |  6:11.06 |  3:24.06 |     27831    |    43136   
        4  |  9:35.12 |  3:39.17 |     43137    |    59578   
        5  | 13:14.29 |  4:24.42 |     59579    |    79420   
        6  | 17:38.71 |  3:52.35 |     79421    |    96855   
        7  | 21:31.31 |  3:31.49 |     96856    |   112729   
        8  | 25:03.05 |  4:54.57 |    112730    |   134836   
        9  | 29:57.62 |  5:02.25 |    134837    |   157511   
       10  | 35:00.12 |  2:31.12 |    157512    |   168848   
       11  | 37:31.24 |  3:01.31 |    168849    |   182454   
       12  | 40:32.55 |  3:58.04 |    182455    |   200308   
       13  | 44:30.59 |  4:37.63 |    200309    |   221146   
       14  | 49:08.47 |  5:00.35 |    221147    |   243681   
       15  | 54:09.07 |  3:14.74 |    243682    |   258305   
       16  | 57:24.06 |  4:22.33 |    258306    |   277988   
       17  | 61:46.39 |  4:59.07 |    277989    |   300420   
       18  | 66:45.46 |  4:15.61 |    300421    |   319606   
       19  | 71:01.32 |  5:02.45 |    319607    |   342301   
       20  | 76:04.02 |  3:17.69 |    342302    |   357145   

Range status and errors

Selected range

     Filename C:\CD\Various Artists - Chilled Euphoria (disc 1).wav

     Peak level 98.8 %
     Range quality 100.0 %
     Test CRC 5B057268
     Copy CRC 5B057268
     Copy OK

No errors occurred

 
AccurateRip summary
 
Track  1  accurately ripped (confidence 5)  [29BD38F2]
Track  2  accurately ripped (confidence 5)  [AA48EAE3]
Track  3  accurately ripped (confidence 5)  [A2ACA45A]
Track  4  accurately ripped (confidence 5)  [0D087A92]
Track  5  accurately ripped (confidence 5)  [094F2A1B]
Track  6  accurately ripped (confidence 5)  [9B28DBA3]
Track  7  accurately ripped (confidence 5)  [6F86EF9A]
Track  8  accurately ripped (confidence 5)  [F2CF163A]
Track  9  accurately ripped (confidence 5)  [40FDCB8B]
Track 10  accurately ripped (confidence 5)  [F4F9ABA6]
Track 11  accurately ripped (confidence 5)  [348677B1]
Track 12  accurately ripped (confidence 5)  [17A40111]
Track 13  accurately ripped (confidence 5)  [FBC41D5F]
Track 14  accurately ripped (confidence 5)  [AD126E58]
Track 15  accurately ripped (confidence 5)  [C83D3E87]
Track 16  accurately ripped (confidence 5)  [C9F198B3]
Track 17  accurately ripped (confidence 5)  [C1792BBF]
Track 18  accurately ripped (confidence 5)  [E8CE8752]
Track 19  accurately ripped (confidence 5)  [021B5E52]
Track 20  accurately ripped (confidence 5)  [8BFD38A1]
 
All tracks accurately ripped

End of status report

Код:

Exact Audio Copy V0.99 prebeta 5 from 4. May 2009

EAC extraction logfile from 16. May 2010, 15:06

Various Artists / Chilled Euphoria (disc 2)

Used drive  : TSSTcorpCDDVDW TS-L632H   Adapter: 0  ID: 0

Read mode               : Secure
Utilize accurate stream : Yes
Defeat audio cache      : Yes
Make use of C2 pointers : No

Read offset correction                      : 6
Overread into Lead-In and Lead-Out          : No
Fill up missing offset samples with silence : Yes
Delete leading and trailing silent blocks   : No
Null samples used in CRC calculations       : Yes
Used interface                              : Native Win32 interface for Win NT & 2000

Used output format : Internal WAV Routines
Sample format      : 44.100 Hz; 16 Bit; Stereo

TOC of the extracted CD

     Track |   Start  |  Length  | Start sector | End sector
    ---------------------------------------------------------
        1  |  0:00.00 |  3:17.46 |         0    |    14820   
        2  |  3:17.46 |  4:01.50 |     14821    |    32945   
        3  |  7:19.21 |  4:44.27 |     32946    |    54272   
        4  | 12:03.48 |  3:57.25 |     54273    |    72072   
        5  | 16:00.73 |  4:22.37 |     72073    |    91759   
        6  | 20:23.35 |  4:59.56 |     91760    |   114240   
        7  | 25:23.16 |  2:36.28 |    114241    |   125968   
        8  | 27:59.44 |  4:10.03 |    125969    |   144721   
        9  | 32:09.47 |  3:16.46 |    144722    |   159467   
       10  | 35:26.18 |  4:06.64 |    159468    |   177981   
       11  | 39:33.07 |  3:25.23 |    177982    |   193379   
       12  | 42:58.30 |  4:21.55 |    193380    |   213009   
       13  | 47:20.10 |  5:44.46 |    213010    |   238855   
       14  | 53:04.56 |  2:46.20 |    238856    |   251325   
       15  | 55:51.01 |  2:44.28 |    251326    |   263653   
       16  | 58:35.29 |  3:10.61 |    263654    |   277964   
       17  | 61:46.15 |  6:48.05 |    277965    |   308569   
       18  | 68:34.20 |  3:24.01 |    308570    |   323870   
       19  | 71:58.21 |  4:32.05 |    323871    |   344275   
       20  | 76:30.26 |  2:18.52 |    344276    |   354677   

Range status and errors

Selected range

     Filename C:\CD\Various Artists - Chilled Euphoria (disc 2).wav

     Peak level 98.8 %
     Range quality 100.0 %
     Test CRC ACAE12A8
     Copy CRC ACAE12A8
     Copy OK

No errors occurred

 
AccurateRip summary
 
Track  1  accurately ripped (confidence 5)  [F38F4F69]
Track  2  accurately ripped (confidence 5)  [2F2AC638]
Track  3  accurately ripped (confidence 5)  [285BDF46]
Track  4  accurately ripped (confidence 5)  [F84B5BA6]
Track  5  accurately ripped (confidence 5)  [A064D0CD]
Track  6  accurately ripped (confidence 5)  [892FC3BC]
Track  7  accurately ripped (confidence 5)  [8F4621E4]
Track  8  accurately ripped (confidence 5)  [DD989279]
Track  9  accurately ripped (confidence 5)  [C2C538BA]
Track 10  accurately ripped (confidence 5)  [53D606DB]
Track 11  accurately ripped (confidence 5)  [BEB31D6D]
Track 12  accurately ripped (confidence 5)  [C589A2AE]
Track 13  accurately ripped (confidence 5)  [687C5AD9]
Track 14  accurately ripped (confidence 5)  [6D77D06A]
Track 15  accurately ripped (confidence 5)  [3987424B]
Track 16  accurately ripped (confidence 5)  [E6835123]
Track 17  accurately ripped (confidence 5)  [4D165C0E]
Track 18  accurately ripped (confidence 5)  [EE1E71D0]
Track 19  accurately ripped (confidence 5)  [46299E64]
Track 20  accurately ripped (confidence 5)  [FDC003EA]
 
All tracks accurately ripped

End of status report

Код:

Exact Audio Copy V0.99 prebeta 5 from 4. May 2009

EAC extraction logfile from 16. May 2010, 17:59

Various Artists / Chilled Euphoria (disc 3)

Used drive  : TSSTcorpCDDVDW TS-L632H   Adapter: 0  ID: 0

Read mode               : Secure
Utilize accurate stream : Yes
Defeat audio cache      : Yes
Make use of C2 pointers : No

Read offset correction                      : 6
Overread into Lead-In and Lead-Out          : No
Fill up missing offset samples with silence : Yes
Delete leading and trailing silent blocks   : No
Null samples used in CRC calculations       : Yes
Used interface                              : Native Win32 interface for Win NT & 2000

Used output format : Internal WAV Routines
Sample format      : 44.100 Hz; 16 Bit; Stereo

TOC of the extracted CD

     Track |   Start  |  Length  | Start sector | End sector
    ---------------------------------------------------------
        1  |  0:00.00 |  4:00.71 |         0    |    18070   
        2  |  4:00.71 |  2:41.52 |     18071    |    30197   
        3  |  6:42.48 |  2:22.73 |     30198    |    40920   
        4  |  9:05.46 |  2:33.66 |     40921    |    52461   
        5  | 11:39.37 |  4:15.61 |     52462    |    71647   
        6  | 15:55.23 |  3:45.12 |     71648    |    88534   
        7  | 19:40.35 |  2:04.38 |     88535    |    97872   
        8  | 21:44.73 |  3:42.15 |     97873    |   114537   
        9  | 25:27.13 |  4:47.72 |    114538    |   136134   
       10  | 30:15.10 |  4:25.62 |    136135    |   156071   
       11  | 34:40.72 |  5:17.20 |    156072    |   179866   
       12  | 39:58.17 |  1:49.37 |    179867    |   188078   
       13  | 41:47.54 |  5:02.06 |    188079    |   210734   
       14  | 46:49.60 |  4:21.29 |    210735    |   230338   
       15  | 51:11.14 |  3:58.74 |    230339    |   248262   
       16  | 55:10.13 |  4:11.16 |    248263    |   267103   
       17  | 59:21.29 |  4:25.74 |    267104    |   287052   
       18  | 63:47.28 |  6:20.61 |    287053    |   315613   
       19  | 70:08.14 |  5:36.53 |    315614    |   340866   
       20  | 75:44.67 |  3:09.41 |    340867    |   355082   

Range status and errors

Selected range

     Filename C:\CD\Various Artists - Chilled Euphoria (disc 3).wav

     Peak level 98.8 %
     Range quality 100.0 %
     Test CRC 08B6AD57
     Copy CRC 08B6AD57
     Copy OK

No errors occurred

 
AccurateRip summary
 
Track  1  accurately ripped (confidence 5)  [0BE4C5D0]
Track  2  accurately ripped (confidence 5)  [F5DC28AD]
Track  3  accurately ripped (confidence 5)  [55226B05]
Track  4  accurately ripped (confidence 5)  [ACB77BB2]
Track  5  accurately ripped (confidence 5)  [1F96FC84]
Track  6  accurately ripped (confidence 5)  [31F36F0B]
Track  7  accurately ripped (confidence 5)  [DA52A62A]
Track  8  accurately ripped (confidence 5)  [69CDAA04]
Track  9  accurately ripped (confidence 5)  [B6EA435A]
Track 10  accurately ripped (confidence 5)  [AA79C986]
Track 11  accurately ripped (confidence 5)  [31BEF11F]
Track 12  accurately ripped (confidence 5)  [CA3E9890]
Track 13  accurately ripped (confidence 5)  [2523110B]
Track 14  accurately ripped (confidence 5)  [080B873D]
Track 15  accurately ripped (confidence 5)  [D7C19F3D]
Track 16  accurately ripped (confidence 5)  [409C5A3F]
Track 17  accurately ripped (confidence 5)  [8CB581FF]
Track 18  accurately ripped (confidence 5)  [DABED7D2]
Track 19  accurately ripped (confidence 5)  [5B45FDD3]
Track 20  accurately ripped (confidence 5)  [60838A37]
 
All tracks accurately ripped

End of status report

Код:

AUDIOCHECKER v2.0 beta (build 457) - by Dester - opdester@freemail.hu
~~~~~~~~~~~~~~~~~~~~~~~~~~~~~~~~~~
-=== DO NOT EDIT THIS FILE! ===-

Path: ...\(2009) Chilled Euphoria (flac)

01 -=- Various Artists - Chilled Euphoria (disc 1).flac -=- CDDA (100%)
02 -=- Various Artists - Chilled Euphoria (disc 2).flac -=- CDDA (100%)
03 -=- Various Artists - Chilled Euphoria (disc 3).flac -=- CDDA (100%)

Summary 100,00% CDDA

259390260
Musicbrainz: 1CD, 2CD, 3CD.
info [Профиль]  [ЛС] 

Kenny69

Пол: Пол:Муж

Стаж: 11 лет

Сообщений: 1771

Россия
Рейтинг

post 31-Авг-2010 11:31 (спустя 5 часов) [-]0[+]

[Цитировать] 

1. Облогу уменьшить до 500x500
2. Добавить содержимое CUE-файлов в оформление раздачи
3. Убрать ссылку на сторонний ресурс
4. Треклисты лучше под спойлер убрать

_________________
info [Профиль]  [ЛС] 

Resistance

Пол: Пол:Муж

Стаж: 11 лет

Сообщений: 3640

Россия
Рейтинг

post 31-Авг-2010 11:36 (спустя 5 минут) [-]0[+]

[Цитировать] 

И на обложке ссылка на сторонний ресурс.
info [Профиль]  [ЛС] 

finderX

Пол: Пол:Муж

Стаж: 10 лет

Сообщений: 10

Россия
Рейтинг

post 31-Авг-2010 11:45 (спустя 8 минут) [-]0[+]

[Цитировать] 

Готово
info [Профиль]  [ЛС] 

post 31-Авг-2010 11:52 (спустя 6 минут) [-]0[+]

Топик был перенесен из форума Анонсы в форум Chillout, Lounge, Downtempo, Trip-Hop (lossless)

Kenny69
 

Fokich

Пол: Пол:Муж

Стаж: 11 лет

Сообщений: 259

Россия
Рейтинг

post 31-Авг-2010 18:31 (спустя 6 часов) [-]0[+]

[Цитировать] 

Ээх,зря в позавчера не выложил Грущу.Ну чтож,тогда хоть помогу в раздаче Улыбаюсь
info [Профиль]  [ЛС] 

Yozhin_Sky

Пол: Пол:Муж

Стаж: 7 лет 10 месяцев

Сообщений: 152

Предупреждений: 1

Россия
Рейтинг

post 24-Ноя-2017 16:14 (спустя 7 лет 2 месяца) [-]0[+]

[Цитировать] 

Раздачку будьте любезны Улыбаюсь

_________________
info [Профиль]  [ЛС] 

finderX

Пол: Пол:Муж

Стаж: 10 лет

Сообщений: 10

Россия
Рейтинг

post 24-Ноя-2017 17:34 (спустя 1 час 20 минут) [-]1[+]

[Цитировать] 

JozhinSky писал(а):

Раздачку будьте любезны Улыбаюсь
Не вопрос - цепляйся.
info [Профиль]  [ЛС] 

Yozhin_Sky

Пол: Пол:Муж

Стаж: 7 лет 10 месяцев

Сообщений: 152

Предупреждений: 1

Россия
Рейтинг

post 24-Ноя-2017 19:15 (спустя 1 час 40 минут) [-]0[+]

[Цитировать] 

finderX писал(а):

JozhinSky писал(а):

Раздачку будьте любезны Улыбаюсь
Не вопрос - цепляйся.
Благодарствую, но странно- всё равно не идёт..

_________________
info [Профиль]  [ЛС] 

finderX

Пол: Пол:Муж

Стаж: 10 лет

Сообщений: 10

Россия
Рейтинг

post 24-Ноя-2017 20:02 (спустя 47 минут) [-]1[+]

[Цитировать] 

У меня порт закрыт, т.к. все раздачи проксируются через VPN. Если у тебя закрытый порт, то сорян...
P.S. Пустил напрямую...
info [Профиль]  [ЛС] 

Yozhin_Sky

Пол: Пол:Муж

Стаж: 7 лет 10 месяцев

Сообщений: 152

Предупреждений: 1

Россия
Рейтинг

post 24-Ноя-2017 20:05 (спустя 2 минуты) [-]0[+]

[Цитировать] 

finderX писал(а):

У меня порт закрыт, т.к. все раздачи проксируются через VPN. Если у тебя закрытый порт, то сорян...
P.S. Пустил напрямую...
Благодарю, скачка пошла. хоть ничего и не понял)
Я отпишу, как закончится.
PS Всё, спасибо огромное. всё дома!

_________________
info [Профиль]  [ЛС] 
Показать сообщения:    
Ответить на тему

Текущее время: 25-Фев 09:01

Часовой пояс: GMT + 4



Вы не можете начинать темы
Вы не можете отвечать на сообщения
Вы не можете редактировать свои сообщения
Вы не можете удалять свои сообщения
Вы не можете голосовать в опросах
Вы не можете прикреплять файлы к сообщениям
Вы не можете скачивать файлы