Ошибка

До окончания фрилича осталось:


(Electro house) Justice - Cross - 2008, FLAC (tracks+.cue), lossless

Ответить на тему
 
Автор Сообщение

SilverTea

Пол: Пол:Муж

Стаж: 12 лет

Сообщений: 80

Рейтинг

post 28-Май-2010 16:59 0[+]

[Цитировать] 

Justice - Cross

Жанр: Electro house
Происхождение исполнителя: Франция, Париж
Год издания данного носителя: 2008
Страна-производитель носителя: Япония
Тип релиза: tracks+.cue
Аудио кодек: FLAC
Битрейт аудио: lossless
Продолжительность: 01:24:00

Год первого издания: 2007
Лейбл: Ed Banger Records/Warner Japan
Каталоговый номер: WPCR-12831/2
Тип рипа: tracks+.cue
Источник: What.CD (SuperDefekt)

Треклист:
Disc One
01. Genesis
02. Let There Be Light
03. D.A.N.C.E
04. Newjack
05. Phantom
06. Phantom pt. II
07. Valentine
08. The Party (featuring Uffie)
09. DVNO
10. Stress
11. Waters Of Nazareth
12. One Minute To Midnight
13. D.A.N.C.E. Rehearsal

Disc Two
01. D.A.N.C.E. (Live Version)
02. D.A.N.C.E. (Jackson Remix Do The J.A.H.C.B.)
03. D.A.N.C.E. (MSTRKRFT Remix)
04. D.A.N.C.E. (Alan Braxe And Fred Falke Remix)
05. D.A.N.C.E. (Live At Inrocks Festival)
06. D.A.N.C.E. (Benny Blanco Remix ft Mos Def And Spank Rock)

Код:

Exact Audio Copy V0.99 prebeta 4 from 23. January 2008

EAC extraction logfile from 24. May 2009, 11:24

Justice / Cross

Used drive  : _NEC    DVD_RW ND-3500AG   Adapter: 0  ID: 0

Read mode               : Secure
Utilize accurate stream : Yes
Defeat audio cache      : Yes
Make use of C2 pointers : No

Read offset correction                      : 48
Overread into Lead-In and Lead-Out          : No
Fill up missing offset samples with silence : Yes
Delete leading and trailing silent blocks   : No
Null samples used in CRC calculations       : Yes
Used interface                              : Native Win32 interface for Win NT & 2000
Gap handling                                : Appended to previous track

Used output format              : User Defined Encoder
Selected bitrate                : 768 kBit/s
Quality                         : High
Add ID3 tag                     : No
Command line compressor         : D:\Program Files\Exact Audio Copy\FLAC\FLAC.EXE
Additional command line options : -V -8 -T "artist=%a" -T "title=%t" -T "album=%g" -T "date=%y" -T "tracknumber=%n" -T "genre=%m" %s

TOC of the extracted CD

     Track |   Start  |  Length  | Start sector | End sector
    ---------------------------------------------------------
        1  |  0:00.00 |  3:54.72 |         0    |    17621   
        2  |  3:54.72 |  4:55.71 |     17622    |    39817   
        3  |  8:50.68 |  4:02.20 |     39818    |    57987   
        4  | 12:53.13 |  3:36.67 |     57988    |    74254   
        5  | 16:30.05 |  4:22.20 |     74255    |    93924   
        6  | 20:52.25 |  3:20.62 |     93925    |   108986   
        7  | 24:13.12 |  2:56.19 |    108987    |   122205   
        8  | 27:09.31 |  4:03.32 |    122206    |   140462   
        9  | 31:12.63 |  3:56.10 |    140463    |   158172   
       10  | 35:08.73 |  4:58.44 |    158173    |   180566   
       11  | 40:07.42 |  4:25.13 |    180567    |   200454   
       12  | 44:32.55 |  3:40.64 |    200455    |   217018   
       13  | 48:13.44 |  4:29.22 |    217019    |   237215   

Track  1

     Filename D:\EACRIP\Justice - 2007 - Cross\01 - Genesis.wav

     Pre-gap length  0:00:02.00

     Peak level 100.0 %
     Track quality 100.0 %
     Test CRC BF552A95
     Copy CRC BF552A95
     Accurately ripped (confidence 2)  [8D52781B]
     Copy OK

Track  2

     Filename D:\EACRIP\Justice - 2007 - Cross\02 - Let There Be Light.wav

     Peak level 100.0 %
     Track quality 100.0 %
     Test CRC 35425D11
     Copy CRC 35425D11
     Accurately ripped (confidence 2)  [9000B759]
     Copy OK

Track  3

     Filename D:\EACRIP\Justice - 2007 - Cross\03 - D.A.N.C.E..wav

     Peak level 98.8 %
     Track quality 100.0 %
     Test CRC 25F72C88
     Copy CRC 25F72C88
     Accurately ripped (confidence 2)  [C242FF4D]
     Copy OK

Track  4

     Filename D:\EACRIP\Justice - 2007 - Cross\04 - Newjack.wav

     Peak level 98.8 %
     Track quality 100.0 %
     Test CRC D218029A
     Copy CRC D218029A
     Accurately ripped (confidence 2)  [1085AF8D]
     Copy OK

Track  5

     Filename D:\EACRIP\Justice - 2007 - Cross\05 - Phantom.wav

     Peak level 96.6 %
     Track quality 99.9 %
     Test CRC E6C6BA98
     Copy CRC E6C6BA98
     Accurately ripped (confidence 2)  [5C86FEC7]
     Copy OK

Track  6

     Filename D:\EACRIP\Justice - 2007 - Cross\06 - Phantom (Pt II).wav

     Peak level 98.8 %
     Track quality 100.0 %
     Test CRC C703DD47
     Copy CRC C703DD47
     Accurately ripped (confidence 2)  [99E9E118]
     Copy OK

Track  7

     Filename D:\EACRIP\Justice - 2007 - Cross\07 - Valentine.wav

     Peak level 96.6 %
     Track quality 100.0 %
     Test CRC 6125C5CE
     Copy CRC 6125C5CE
     Accurately ripped (confidence 2)  [29E5CEBF]
     Copy OK

Track  8

     Filename D:\EACRIP\Justice - 2007 - Cross\08 - Tthhee Ppaarrttyy (Feat. Uffie).wav

     Peak level 100.0 %
     Track quality 99.9 %
     Test CRC A3C0E44C
     Copy CRC A3C0E44C
     Accurately ripped (confidence 2)  [18C64516]
     Copy OK

Track  9

     Filename D:\EACRIP\Justice - 2007 - Cross\09 - DVNO.wav

     Peak level 96.6 %
     Track quality 100.0 %
     Test CRC AA6B354C
     Copy CRC AA6B354C
     Accurately ripped (confidence 2)  [78420A92]
     Copy OK

Track 10

     Filename D:\EACRIP\Justice - 2007 - Cross\10 - Stress.wav

     Peak level 98.9 %
     Track quality 100.0 %
     Test CRC 77D89380
     Copy CRC 77D89380
     Accurately ripped (confidence 2)  [34E80BBF]
     Copy OK

Track 11

     Filename D:\EACRIP\Justice - 2007 - Cross\11 - Waters Of Nazareth.wav

     Peak level 96.6 %
     Track quality 100.0 %
     Test CRC 323B11B5
     Copy CRC 323B11B5
     Accurately ripped (confidence 2)  [46F546FE]
     Copy OK

Track 12

     Filename D:\EACRIP\Justice - 2007 - Cross\12 - One Minute To Midnight.wav

     Peak level 100.0 %
     Track quality 100.0 %
     Test CRC F6C7553A
     Copy CRC F6C7553A
     Accurately ripped (confidence 2)  [3DE82C91]
     Copy OK

Track 13

     Filename D:\EACRIP\Justice - 2007 - Cross\13 - D.A.N.C.E. Rehearsal.wav

     Peak level 99.8 %
     Track quality 99.9 %
     Test CRC 259884D7
     Copy CRC 259884D7
     Track not present in AccurateRip database
     Copy OK

12 track(s) accurately ripped
 1 track(s) not present in the AccurateRip database

Some tracks could not be verified as accurate

No errors occurred

End of status report

Код:

REM GENRE Electronic
REM DATE 2007
REM DISCID B60C5A0D
REM COMMENT "ExactAudioCopy v0.99pb4"
PERFORMER "Justice"
TITLE "Cross"
FILE "Justice - 2007 - Cross\01 - Genesis.wav" WAVE
  TRACK 01 AUDIO
    TITLE "Genesis"
    PERFORMER "Justice"
    INDEX 01 00:00:00
FILE "Justice - 2007 - Cross\02 - Let There Be Light.wav" WAVE
  TRACK 02 AUDIO
    TITLE "Let There Be Light"
    PERFORMER "Justice"
    INDEX 01 00:00:00
FILE "Justice - 2007 - Cross\03 - D.A.N.C.E..wav" WAVE
  TRACK 03 AUDIO
    TITLE "D.A.N.C.E."
    PERFORMER "Justice"
    INDEX 01 00:00:00
FILE "Justice - 2007 - Cross\04 - Newjack.wav" WAVE
  TRACK 04 AUDIO
    TITLE "Newjack"
    PERFORMER "Justice"
    INDEX 01 00:00:00
FILE "Justice - 2007 - Cross\05 - Phantom.wav" WAVE
  TRACK 05 AUDIO
    TITLE "Phantom"
    PERFORMER "Justice"
    INDEX 01 00:00:00
FILE "Justice - 2007 - Cross\06 - Phantom (Pt II).wav" WAVE
  TRACK 06 AUDIO
    TITLE "Phantom (Pt II)"
    PERFORMER "Justice"
    INDEX 01 00:00:00
FILE "Justice - 2007 - Cross\07 - Valentine.wav" WAVE
  TRACK 07 AUDIO
    TITLE "Valentine"
    PERFORMER "Justice"
    INDEX 01 00:00:00
FILE "Justice - 2007 - Cross\08 - Tthhee Ppaarrttyy (Feat. Uffie).wav" WAVE
  TRACK 08 AUDIO
    TITLE "Tthhee Ppaarrttyy (Feat. Uffie)"
    PERFORMER "Justice"
    INDEX 01 00:00:00
FILE "Justice - 2007 - Cross\09 - DVNO.wav" WAVE
  TRACK 09 AUDIO
    TITLE "DVNO"
    PERFORMER "Justice"
    INDEX 01 00:00:00
FILE "Justice - 2007 - Cross\10 - Stress.wav" WAVE
  TRACK 10 AUDIO
    TITLE "Stress"
    PERFORMER "Justice"
    INDEX 01 00:00:00
FILE "Justice - 2007 - Cross\11 - Waters Of Nazareth.wav" WAVE
  TRACK 11 AUDIO
    TITLE "Waters Of Nazareth"
    PERFORMER "Justice"
    INDEX 01 00:00:00
FILE "Justice - 2007 - Cross\12 - One Minute To Midnight.wav" WAVE
  TRACK 12 AUDIO
    TITLE "One Minute To Midnight"
    PERFORMER "Justice"
    INDEX 01 00:00:00
FILE "Justice - 2007 - Cross\13 - D.A.N.C.E. Rehearsal.wav" WAVE
  TRACK 13 AUDIO
    TITLE "D.A.N.C.E. Rehearsal"
    PERFORMER "Justice"
    INDEX 01 00:00:00

Код:

AUDIOCHECKER v2.0 beta (build 457) - by Dester - opdester@freemail.hu
~~~~~~~~~~~~~~~~~~~~~~~~~~~~~~~~~~
-=== DO NOT EDIT THIS FILE! ===-

Путь: ...\CD 01 (Main Disc)

01 -=- 01 - Genesis.flac -=- CDDA (100%)
02 -=- 02 - Let There Be Light.flac -=- CDDA (100%)
03 -=- 03 - D.A.N.C.E..flac -=- CDDA (100%)
04 -=- 04 - Newjack.flac -=- CDDA (100%)
05 -=- 05 - Phantom.flac -=- CDDA (100%)
06 -=- 06 - Phantom (Pt II).flac -=- CDDA (100%)
07 -=- 07 - Valentine.flac -=- CDDA (100%)
08 -=- 08 - Tthhee Ppaarrttyy (Feat. Uffie).flac -=- CDDA (100%)
09 -=- 09 - DVNO.flac -=- CDDA (100%)
10 -=- 10 - Stress.flac -=- CDDA (100%)
11 -=- 11 - Waters Of Nazareth.flac -=- CDDA (100%)
12 -=- 12 - One Minute To Midnight.flac -=- CDDA (100%)
13 -=- 13 - D.A.N.C.E. Rehearsal.flac -=- CDDA (100%)

Сводка 100,00% CDDA

102551140

Код:

Exact Audio Copy V0.99 prebeta 4 from 23. January 2008

EAC extraction logfile from 24. May 2009, 11:44

Justice / Cross

Used drive  : _NEC    DVD_RW ND-3500AG   Adapter: 0  ID: 0

Read mode               : Secure
Utilize accurate stream : Yes
Defeat audio cache      : Yes
Make use of C2 pointers : No

Read offset correction                      : 48
Overread into Lead-In and Lead-Out          : No
Fill up missing offset samples with silence : Yes
Delete leading and trailing silent blocks   : No
Null samples used in CRC calculations       : Yes
Used interface                              : Native Win32 interface for Win NT & 2000
Gap handling                                : Appended to previous track

Used output format              : User Defined Encoder
Selected bitrate                : 768 kBit/s
Quality                         : High
Add ID3 tag                     : No
Command line compressor         : D:\Program Files\Exact Audio Copy\FLAC\FLAC.EXE
Additional command line options : -V -8 -T "artist=%a" -T "title=%t" -T "album=%g" -T "date=%y" -T "tracknumber=%n" -T "genre=%m" %s

TOC of the extracted CD

     Track |   Start  |  Length  | Start sector | End sector
    ---------------------------------------------------------
        1  |  0:00.00 |  4:02.74 |         0    |    18223   
        2  |  4:02.74 | 11:11.20 |     18224    |    68568   
        3  | 15:14.19 |  4:40.05 |     68569    |    89573   
        4  | 19:54.24 |  5:05.10 |     89574    |   112458   
        5  | 24:59.34 |  3:01.05 |    112459    |   126038   
        6  | 28:00.39 |  3:17.34 |    126039    |   140847   
        7  | 33:49.73 | 16:12.51 |    152248    |   225198   

Track  1

     Filename D:\EACRIP\Justice - 2007 - Cross\01 - D.A.N.C.E. (Live Version).wav

     Pre-gap length  0:00:02.00

     Peak level 98.8 %
     Track quality 100.0 %
     Test CRC CD748AD3
     Copy CRC CD748AD3
     Track not present in AccurateRip database
     Copy OK

Track  2

     Filename D:\EACRIP\Justice - 2007 - Cross\02 - D.A.N.C.E. (Jackson Remix).wav

     Pre-gap length  0:00:01.54

     Peak level 98.8 %
     Track quality 100.0 %
     Test CRC BD355BDA
     Copy CRC BD355BDA
     Track not present in AccurateRip database
     Copy OK

Track  3

     Filename D:\EACRIP\Justice - 2007 - Cross\03 - D.A.N.C.E. (MSTRKRFT Remix).wav

     Pre-gap length  0:00:03.01

     Peak level 100.0 %
     Track quality 100.0 %
     Test CRC F53720E3
     Copy CRC F53720E3
     Track not present in AccurateRip database
     Copy OK

Track  4

     Filename D:\EACRIP\Justice - 2007 - Cross\04 - D.A.N.C.E. (Alan Braxe And Fred Falke Remix).wav

     Pre-gap length  0:00:02.34

     Peak level 98.8 %
     Track quality 100.0 %
     Test CRC DF40BD2B
     Copy CRC DF40BD2B
     Track not present in AccurateRip database
     Copy OK

Track  5

     Filename D:\EACRIP\Justice - 2007 - Cross\05 - D.A.N.C.E. (Live At Inrocks Festival).wav

     Pre-gap length  0:00:01.21

     Peak level 99.9 %
     Track quality 100.0 %
     Test CRC A92DD73C
     Copy CRC A92DD73C
     Track not present in AccurateRip database
     Copy OK

Track  6

     Filename D:\EACRIP\Justice - 2007 - Cross\06 - D.A.N.C.E. (Benny Blanco Remix).wav

     Pre-gap length  0:00:01.51

     Peak level 99.9 %
     Track quality 100.0 %
     Test CRC 6425FB49
     Copy CRC 6425FB49
     Track not present in AccurateRip database
     Copy OK

None of the tracks are present in the AccurateRip database

No errors occurred

End of status report

Код:

REM GENRE Electronic
REM DATE 2007
REM DISCID 4B0BBA07
REM COMMENT "ExactAudioCopy v0.99pb4"
PERFORMER "Justice"
TITLE "Cross "
FILE "Justice - 2007 - Cross\01 - D.A.N.C.E. (Live Version).wav" WAVE
  TRACK 01 AUDIO
    TITLE "D.A.N.C.E. (Live Version)"
    PERFORMER "Justice"
    INDEX 01 00:00:00
  TRACK 02 AUDIO
    TITLE "D.A.N.C.E. (Jackson Remix)"
    PERFORMER "Justice"
    INDEX 00 04:01:20
FILE "Justice - 2007 - Cross\02 - D.A.N.C.E. (Jackson Remix).wav" WAVE
    INDEX 01 00:00:00
  TRACK 03 AUDIO
    TITLE "D.A.N.C.E. (MSTRKRFT Remix)"
    PERFORMER "Justice"
    INDEX 00 11:08:19
FILE "Justice - 2007 - Cross\03 - D.A.N.C.E. (MSTRKRFT Remix).wav" WAVE
    INDEX 01 00:00:00
  TRACK 04 AUDIO
    TITLE "D.A.N.C.E. (Alan Braxe And Fred Falke Remix)"
    PERFORMER "Justice"
    INDEX 00 04:37:46
FILE "Justice - 2007 - Cross\04 - D.A.N.C.E. (Alan Braxe And Fred Falke Remix).wav" WAVE
    INDEX 01 00:00:00
  TRACK 05 AUDIO
    TITLE "D.A.N.C.E. (Live At Inrocks Festival)"
    PERFORMER "Justice"
    INDEX 00 05:03:64
FILE "Justice - 2007 - Cross\05 - D.A.N.C.E. (Live At Inrocks Festival).wav" WAVE
    INDEX 01 00:00:00
  TRACK 06 AUDIO
    TITLE "D.A.N.C.E. (Benny Blanco Remix)"
    PERFORMER "Justice"
    INDEX 00 02:59:29
FILE "Justice - 2007 - Cross\06 - D.A.N.C.E. (Benny Blanco Remix).wav" WAVE
    INDEX 01 00:00:00
  TRACK 07 MODEx/2xxx
    TITLE "Extras"
    PERFORMER "Justice"
    INDEX 00 03:17:34

Код:

AUDIOCHECKER v2.0 beta (build 457) - by Dester - opdester@freemail.hu
~~~~~~~~~~~~~~~~~~~~~~~~~~~~~~~~~~
-=== DO NOT EDIT THIS FILE! ===-

Путь: ...\CD 02 (Bonus Disc)

01 -=- 01 - D.A.N.C.E. (Live Version).flac -=- CDDA (100%)
02 -=- 02 - D.A.N.C.E. (Jackson Remix).flac -=- CDDA (100%)
03 -=- 03 - D.A.N.C.E. (MSTRKRFT Remix).flac -=- CDDA (99%)
04 -=- 04 - D.A.N.C.E. (Alan Braxe And Fred Falke Remix).flac -=- CDDA (100%)
05 -=- 05 - D.A.N.C.E. (Live At Inrocks Festival).flac -=- CDDA (100%)
06 -=- 06 - D.A.N.C.E. (Benny Blanco Remix).flac -=- CDDA (100%)

Сводка 99,83% CDDA

246984996
info [Профиль]  [ЛС] 

kAk0c

Предупреждений: 1

Рейтинг

post 28-Май-2010 18:22 (спустя 1 час 22 минуты) [-]1[+]

[Цитировать] 

спасиба качаю
 

Zmitrek

Стаж: 2 года 3 месяца

Сообщений: 8

Рейтинг

post 17-Июн-2021 22:45 (спустя 11 лет) [-]0[+]

[Цитировать] 

Сиды , покажитесь
info [Профиль]  [ЛС] 
Показать сообщения:    
Ответить на тему

Текущее время: 25-Июл 01:19

Часовой пояс: GMT + 4



Вы не можете начинать темы
Вы не можете отвечать на сообщения
Вы не можете редактировать свои сообщения
Вы не можете удалять свои сообщения
Вы не можете голосовать в опросах
Вы не можете прикреплять файлы к сообщениям
Вы не можете скачивать файлы