Ошибка

(Progressive House/Progressive Trance) Various Artists - Chemical Lovers (2003) FLAC (tracks+.cue), lossless

Ответить на тему
 
Автор Сообщение

Zobaken

Пол: Пол:Муж

Стаж: 6 лет 1 месяц

Сообщений: 35

Болгария
Рейтинг

post 18-Ноя-2019 19:22 0[+]

[Цитировать] 

Various Artists - Chemical Lovers

pic="http://i111.fastpic.ru/big/2019/1118/d7/f2d4e64d54fae284ff0baa3bb6088fd7.jpg"


Жанр: Progressive House/Progressive Trance
Год издания данного носителя: 2003
Страна-производитель носителя: Великобритания
Лейбл: Millennium Records
Каталоговый номер: MILL122CD
Аудио кодек: FLAC
Тип рипа: tracks+.cue
Битрейт аудио: lossless
Продолжительность: 02:29:44
Полиграфия: Отсутствует
Треклист:
01. Oliver Klein - Cobra Libre
02. Marco Bellini - The Nitro of Love
03. Ictus - The Look (Kingkade Mix)
04. Ballroom - Lullaby
05. Kruger & Coyle - Jungle Muff
06. Goodfellas - Dealbreaker (La Forge Mix)
07. Sven Palzer & Peter Jurgens - Smile
08. Peter Gun - Basic Pill
09. Sonic Cube - Thief
10. Alexander Ligowski - Cream
11. No Religion - Soul Pilot (DJ Pow Low & Greed Mix)
12. DJ 19 - Breaking of the Dawn (Thomas Penton Remix)
13. Yahel - Butterfly
14. Sun - Believe in Me (Shane's 54's Pink Flood Remix)
15. Patrick Zigon - Floating
16. Echomen - Substance
17. Toucharian - Arcadia
18. Filur - Kiwi Mint Pilot
Exact Audio Copy V1.0 beta 6 from 9. April 2015 

Отчёт EAC об извлечении, выполненном 10. июня 2015, 14:57

Various Artists / Chemical Lovers CD - 1

Дисковод: PLEXTOR BD-R PX-B950SA Adapter: 1 ID: 0

Режим чтения : Достоверность
Использование точного потока : Да
Отключение кэша аудио : Да
Использование указателей C2 : Нет

Коррекция смещения при чтении : 6
Способность читать области Lead-in и Lead-out : Нет
Заполнение пропущенных сэмплов тишиной : Да
Удаление блоков с тишиной в начале и конце : Нет
При вычислениях CRC использовались нулевые сэмплы : Да
Интерфейс : Встроенный Win32-интерфейс для Win NT/2000

Выходной формат : Пользовательский кодировщик
Выбранный битрейт : 1024 kBit/s
Качество : Высокий
Добавление ID3-тега : Нет
Утилита сжатия : N:ПРОГРАММЫExact Audio CopyFLACFLAC.EXE
Дополнительные параметры : -6 -V -T "ARTIST=%artist%" -T "TITLE=%title%" -T "ALBUM=%albumtitle%" -T "DATE=%year%" -T "TRACKNUMBER=%tracknr%" -T "GENRE=%genre%" -T "COMMENT=%comment%" -T "BAND=%albuminterpret%" -T "ALBUMARTIST=%albuminterpret%" -T "COMPOSER=%composer%" %haslyrics%--tag-from-file=LYRICS="%lyricsfile%"%haslyrics% -T "DISCNUMBER=%cdnumber%" -T "TOTALDISCS=%totalcds%" -T "TOTALTRACKS=%numtracks%" %hascover%--picture="%coverfile%"%hascover% %source% -o %dest%

TOC извлечённого CD

Трек | Старт | Длительность | Начальный сектор | Конечный сектор
---------------------------------------------------------------------
1 | 0:00.00 | 8:52.07 | 0 | 39906
2 | 8:52.07 | 7:50.54 | 39907 | 75210
3 | 16:42.61 | 8:37.26 | 75211 | 114011
4 | 25:20.12 | 7:15.65 | 114012 | 146701
5 | 32:36.02 | 8:04.14 | 146702 | 183015
6 | 40:40.16 | 7:54.66 | 183016 | 218631
7 | 48:35.07 | 7:16.40 | 218632 | 251371
8 | 55:51.47 | 7:50.18 | 251372 | 286639
9 | 63:41.65 | 9:11.54 | 286640 | 328018

Характеристики диапазона извлечения и сообщения об ошибках

Выбранный диапазон

Имя файла N:ТОРРЕНТЫChemical LoversCD - 1Various Artists - Chemical Lovers CD - 1.wav

Пиковый уровень 100.0 %
Скорость извлечения 8.0 X
Качество диапазона 100.0 %
CRC теста AF97E31A
CRC копии AF97E31A
Копирование... OK

Ошибок не произошло

AccurateRip: сводка
Трек 1 отсутствует в базе данных
Трек 2 отсутствует в базе данных
Трек 3 отсутствует в базе данных
Трек 4 отсутствует в базе данных
Трек 5 отсутствует в базе данных
Трек 6 отсутствует в базе данных
Трек 7 отсутствует в базе данных
Трек 8 отсутствует в базе данных
Трек 9 отсутствует в базе данных
Ни одного трека нет в базе AccurateRip

Конец отчёта

---- CUETools DB Plugin V2.1.6

[CTDB TOCID: aLjPU2HnjDVPOkfjgW9bzi3XoVU-] disk not present in database
Submit result: aLjPU2HnjDVPOkfjgW9bzi3XoVU- has been uploaded

==== Контрольная сумма отчёта 29C262579E3B513D1DA07C9737F132D0870F9F239D76C5F2C17DEC5A976EDB91 ====
Exact Audio Copy V1.0 beta 6 from 9. April 2015 

Отчёт EAC об извлечении, выполненном 10. июня 2015, 15:52

Various Artists / Chemical Lovers CD - 2

Дисковод: PLEXTOR BD-R PX-B950SA Adapter: 1 ID: 0

Режим чтения : Достоверность
Использование точного потока : Да
Отключение кэша аудио : Да
Использование указателей C2 : Нет

Коррекция смещения при чтении : 6
Способность читать области Lead-in и Lead-out : Нет
Заполнение пропущенных сэмплов тишиной : Да
Удаление блоков с тишиной в начале и конце : Нет
При вычислениях CRC использовались нулевые сэмплы : Да
Интерфейс : Встроенный Win32-интерфейс для Win NT/2000

Выходной формат : Пользовательский кодировщик
Выбранный битрейт : 1024 kBit/s
Качество : Высокий
Добавление ID3-тега : Нет
Утилита сжатия : N:\ПРОГРАММЫ\Exact Audio Copy\FLAC\FLAC.EXE
Дополнительные параметры : -6 -V -T "ARTIST=%artist%" -T "TITLE=%title%" -T "ALBUM=%albumtitle%" -T "DATE=%year%" -T "TRACKNUMBER=%tracknr%" -T "GENRE=%genre%" -T "COMMENT=%comment%" -T "BAND=%albuminterpret%" -T "ALBUMARTIST=%albuminterpret%" -T "COMPOSER=%composer%" %haslyrics%--tag-from-file=LYRICS="%lyricsfile%"%haslyrics% -T "DISCNUMBER=%cdnumber%" -T "TOTALDISCS=%totalcds%" -T "TOTALTRACKS=%numtracks%" %hascover%--picture="%coverfile%"%hascover% %source% -o %dest%

TOC извлечённого CD

Трек | Старт | Длительность | Начальный сектор | Конечный сектор
---------------------------------------------------------------------
1 | 0:00.00 | 8:20.49 | 0 | 37548
2 | 8:20.49 | 9:52.12 | 37549 | 81960
3 | 18:12.61 | 8:58.10 | 81961 | 122320
4 | 27:10.71 | 7:10.11 | 122321 | 154581
5 | 34:21.07 | 10:34.50 | 154582 | 202181
6 | 44:55.57 | 7:51.51 | 202182 | 237557
7 | 52:47.33 | 7:25.34 | 237558 | 270966
8 | 60:12.67 | 8:22.11 | 270967 | 308627
9 | 68:35.03 | 8:15.28 | 308628 | 345780

Характеристики диапазона извлечения и сообщения об ошибках

Выбранный диапазон

Имя файла N:\ТОРРЕНТЫ\Chemical Lovers\CD - 2\Various Artists - Chemical Lovers CD - 2.wav

Пиковый уровень 98.8 %
Скорость извлечения 3.9 X
Качество диапазона 100.0 %
CRC теста C4406474
CRC копии C4406474
Копирование... OK

Ошибок не произошло

AccurateRip: сводка
Трек 1 отсутствует в базе данных
Трек 2 отсутствует в базе данных
Трек 3 отсутствует в базе данных
Трек 4 отсутствует в базе данных
Трек 5 отсутствует в базе данных
Трек 6 отсутствует в базе данных
Трек 7 отсутствует в базе данных
Трек 8 отсутствует в базе данных
Трек 9 отсутствует в базе данных
Ни одного трека нет в базе AccurateRip

Конец отчёта

---- CUETools DB Plugin V2.1.6

[CTDB TOCID: TBlQH9_dsUM7h3PFNaDnVjEnbzc-] disk not present in database
Submit result: TBlQH9_dsUM7h3PFNaDnVjEnbzc- has been uploaded

==== Контрольная сумма отчёта 8992C91FCA244CE97C03F6B57B3BE27FB527175AB9E87216FDF7FF19539B2851 ====
; 
;--[ Created by Medieval CUE Splitter! ]--
;
;-----------[ www.medieval.it ]-----------
;
REM GENRE Electronic
REM DATE 2003
REM DISCID 71111509
REM COMMENT "ExactAudioCopy v1.0b6"
TITLE "Chemical Lovers"
PERFORMER "Various Artists"
FILE "01. Oliver Klein - Cobra Libre.flac" WAVE
TRACK 01 AUDIO
TITLE "Cobra Libre"
PERFORMER "Oliver Klein"
INDEX 01 00:00:00
FILE "02. Marco Bellini - The Nitro Of Love.flac" WAVE
TRACK 02 AUDIO
TITLE "The Nitro Of Love"
PERFORMER "Marco Bellini"
INDEX 01 00:00:00
FILE "03. Ictus - The Look (Kingkade Mix).flac" WAVE
TRACK 03 AUDIO
TITLE "The Look (Kingkade Mix)"
PERFORMER Ictus
INDEX 01 00:00:00
FILE "04. Ballroom - Lullaby.flac" WAVE
TRACK 04 AUDIO
TITLE Lullaby
PERFORMER Ballroom
INDEX 01 00:00:00
FILE "05. Krueger & Coyle - Jungle Muff.flac" WAVE
TRACK 05 AUDIO
TITLE "Jungle Muff"
PERFORMER "Krueger & Coyle"
INDEX 01 00:00:00
FILE "06. Goodfellas - Dealbreaker (La Forge Mix).flac" WAVE
TRACK 06 AUDIO
TITLE "Dealbreaker (La Forge Mix)"
PERFORMER Goodfellas
INDEX 01 00:00:00
FILE "07. Sven Palzer & Peter Jurgens - Smile.flac" WAVE
TRACK 07 AUDIO
TITLE Smile
PERFORMER "Sven Palzer & Peter Jurgens"
INDEX 01 00:00:00
FILE "08. Peter Gun - Basic Pill.flac" WAVE
TRACK 08 AUDIO
TITLE "Basic Pill"
PERFORMER "Peter Gun"
INDEX 01 00:00:00
FILE "09. Sonic Cube - Thief.flac" WAVE
TRACK 09 AUDIO
TITLE Thief
PERFORMER "Sonic Cube"
INDEX 01 00:00:00
FILE "10. Alexander Ligowski - Cream.flac" WAVE
TRACK 10 AUDIO
TITLE Cream
PERFORMER "Alexander Ligowski"
INDEX 01 00:00:00
FILE "11. No Religion - Soul Pilot (Dj Pow-low & Greed Mix).flac" WAVE
TRACK 11 AUDIO
TITLE "Soul Pilot (DJ Pow-Low & Greed Mix)"
PERFORMER "No Religion"
INDEX 01 00:00:00
FILE "12. Dj 19 - Breakin' Of The Dawn (Thomas Penton Remix).flac" WAVE
TRACK 12 AUDIO
TITLE "Breakin' Of The Dawn (Thomas Penton Remix)"
PERFORMER "DJ 19"
INDEX 01 00:00:00
FILE "13. Yahel - Butterfly.flac" WAVE
TRACK 13 AUDIO
TITLE Butterfly
PERFORMER Yahel
INDEX 01 00:00:00
FILE "14. Sun - Believe In Me (Shane's 54'S Pink Flood Remx).flac" WAVE
TRACK 14 AUDIO
TITLE "Believe In Me (Shane's 54's Pink Flood Remx)"
PERFORMER Sun
INDEX 01 00:00:00
FILE "15. Patrick Zigon - Floating.flac" WAVE
TRACK 15 AUDIO
TITLE Floating
PERFORMER "Patrick Zigon"
INDEX 01 00:00:00
FILE "16. Echomen - Substance.flac" WAVE
TRACK 16 AUDIO
TITLE Substance
PERFORMER Echomen
INDEX 01 00:00:00
FILE "17. Tocharian - Arcadia.flac" WAVE
TRACK 17 AUDIO
TITLE Arcadia
PERFORMER Tocharian
INDEX 01 00:00:00
FILE "18. Filur - Kiwi Mint Pilot.flac" WAVE
TRACK 18 AUDIO
TITLE "Kiwi Mint Pilot"
PERFORMER Filur
INDEX 01 00:00:00
----------------------- 

DON'T MODIFY THIS FILE

-----------------------

PERFORMER: auCDtect Task Manager, ver. 1.6.0 RC1 build 1.6.0.1
Copyright (c) 2008-2010 y-soft. All rights reserved
http://y-soft.org

ANALYZER: auCDtect: CD records authenticity detector, version 0.8.2
Copyright (c) 2004 Oleg Berngardt. All rights reserved.
Copyright (c) 2004 Alexander Djourik. All rights reserved.

FILE: 18. Filur - Kiwi Mint Pilot.flac
Size: 55550791 Hash: 70C24B1566F2055F5466F92A43C08409 Accuracy: -m0
Conclusion: CDDA 100%
Signature: 8DA75E6A444E911E0DF71036AFB6B605BC40BEBD
FILE: 17. Tocharian - Arcadia.flac
Size: 54784923 Hash: 8CD7062F47FA0D51EBD5467CEAD1804B Accuracy: -m0
Conclusion: CDDA 100%
Signature: 064200730B8C8670B6A730D81F5C158B5F1D81EA
FILE: 16. Echomen - Substance.flac
Size: 52330747 Hash: B0607FE9D3029F7009614EE79BDC0926 Accuracy: -m0
Conclusion: CDDA 100%
Signature: 78306E42A0D2D31D8D6D52E106FB749AE045A647
FILE: 15. Patrick Zigon - Floating.flac
Size: 51027355 Hash: 8EF06C183D6B5A90E05CDB8DAD63766F Accuracy: -m0
Conclusion: CDDA 100%
Signature: 9E6F7C7A81F3C53AD222727D581E8862ED2A9F1C
FILE: 14. Sun - Believe In Me (Shane's 54's Pink Flood Remx).flac
Size: 78167044 Hash: 6414EDA38C91D1115D0286480CD69FDF Accuracy: -m0
Conclusion: CDDA 100%
Signature: B207BCD593D718C238020A123B37126DB5E76416
FILE: 13. Yahel - Butterfly.flac
Size: 44480090 Hash: 3B4B0F763F5BAB3BE12D2DB445221045 Accuracy: -m0
Conclusion: CDDA 100%
Signature: 5D54083755FB858F4124722B55C4AC82DEB195F4
FILE: 12. DJ 19 - Breakin' Of The Dawn (Thomas Penton Remix).flac
Size: 62320990 Hash: 615348A28637512E8ACC5143D2FCC089 Accuracy: -m0
Conclusion: CDDA 100%
Signature: E7B3F619223F5633AED60FF266480582674AA325
FILE: 11. No Religion - Soul Pilot (DJ Pow-low & Greed Mix).flac
Size: 67760991 Hash: 9C948CD7C42A37A2BDCE8DC2C35AAFC6 Accuracy: -m0
Conclusion: CDDA 100%
Signature: E798B73BF7EBFE8866F1A8F340C8DFA32D2F6F1C
FILE: 10. Alexander Ligowski - Cream.flac
Size: 53312076 Hash: E03E329777C799B0B8DFF7DF1BF23D38 Accuracy: -m0
Conclusion: CDDA 100%
Signature: D2BE2A315478FD949E7BBE60A88D96B43792B9BA
FILE: 09. Sonic Cube - Thief.flac
Size: 45823241 Hash: 18DDB9B0FDB676DA59EDFDBE35C40C11 Accuracy: -m0
Conclusion: CDDA 100%
Signature: BCA075EC6FB4B568FEC37A1592DECC839B0A4A79
FILE: 08. Peter Gun - Basic Pill.flac
Size: 57911996 Hash: FEB123EB191D4C722C4C8E0F85E49D0D Accuracy: -m0
Conclusion: CDDA 100%
Signature: 4229F65C1F400944A43698DE4B07B93A4B185B2E
FILE: 07. Sven Palzer & Peter Jurgens - Smile.flac
Size: 54398687 Hash: 0077DD8F81E3E0FD4B2578103DF548DF Accuracy: -m0
Conclusion: CDDA 100%
Signature: 7C5FF0361E097C76F34CC3627C8CAD718D344CD9
FILE: 06. Goodfellas - Dealbreaker (La Forge Mix).flac
Size: 59676345 Hash: 2FCD335EEE9868D7CFBE7CF805B98137 Accuracy: -m0
Conclusion: CDDA 100%
Signature: E91160E392C94C712AE526849F242BFFEA114C1E
FILE: 05. Krueger & Coyle - Jungle Muff.flac
Size: 56703638 Hash: 92161C339E12714BC8E31EDC64F58A9E Accuracy: -m0
Conclusion: CDDA 99%
Signature: 3E98C72E92586971AA8775E7A2277002DDDE23EE
FILE: 04. Ballroom - Lullaby.flac
Size: 50617936 Hash: A24B181E96FFE84B8F19B090F38843E4 Accuracy: -m0
Conclusion: CDDA 100%
Signature: B80E64CEF8B7E165364DF5C7E200B41DB7F0FB61
FILE: 03. Ictus - The Look (Kingkade Mix).flac
Size: 61002236 Hash: F8B0210199229966D331B9AC0567B0FB Accuracy: -m0
Conclusion: CDDA 100%
Signature: B2D6C3D72584235EBB5A2F95D339D2CD6E4B2CE4
FILE: 02. Marco Bellini - The Nitro Of Love.flac
Size: 55329745 Hash: 728AB22930BFE7E8B596A88971C07948 Accuracy: -m0
Conclusion: CDDA 100%
Signature: BCD814F18B91387194204E42B5EAD89821F8BACA
FILE: 01. Oliver Klein - Cobra Libre.flac
Size: 62763595 Hash: 1A9BBADF83C96F39B43F9516EE0E3510 Accuracy: -m0
Conclusion: CDDA 100%
Signature: E92C430FE25EA71972F25FF342F8B2AFDC2E6E82
info [Профиль]  [ЛС] 
Показать сообщения:    
Ответить на тему

Текущее время: 02-Мар 08:36

Часовой пояс: GMT + 4



Вы не можете начинать темы
Вы не можете отвечать на сообщения
Вы не можете редактировать свои сообщения
Вы не можете удалять свои сообщения
Вы не можете голосовать в опросах
Вы не можете прикреплять файлы к сообщениям
Вы не можете скачивать файлы