Ошибка

(Score) Diablo 3 Collector's Edition Soundtrack - 2012, FLAC (tracks+.cue), lossless

Ответить на тему
 
Автор Сообщение

Resistance

Пол: Пол:Муж

Стаж: 12 лет

Сообщений: 3640

Россия
Рейтинг

post 13-Май-2012 17:51 2[+]

[Цитировать] 

Diablo 3 Collector's Edition Soundtrack


pic="http://i38.fastpic.ru/big/2012/0512/5d/c7f1054f6ddb220dd6ea36c585a0335d.jpg"


Жанр: Score
Год издания данного носителя: 2012
Страна-производитель носителя: USA
Лейбл: Blizzard Entertainment
Каталоговый номер: N/A
Аудио кодек: FLAC
Тип рипа: tracks+.cue
Битрейт аудио: lossless
Продолжительность: 01:17:55
Полиграфия: Отсутствует
Треклист:
01. And The Heavens Shall Tremble (2:24)
02. The Eternal Conflict (2:37)
03. New Tristram (5:16)
04. Demon Hunter (2:59)
05. Black Soulstone (2:48)
06. Azmodan (1:59)
07. Witch Doctor (1:18)
08. Tamoe Highlands (4:18)
09. I Am Justice (1:57)
10. Barbarian (0:58)
11. Arreat (3:56)
12. Leoric (8:10)
13. Monk (1:28)
14. Incantation (2:18)
15. Bastion's Keep (7:31)
16. Wizard (1:17)
17. Caldeum (7:11)
18. Evil Reawakened (3:30)
19. Garden Of Hope (3:25)
20. Heaven's Gate (2:43)
21. A Tenuous Bond (4:50)
22. A New Dawn (2:27)
23. Leah (2:36)
Exact Audio Copy V1.0 beta 3 from 29. August 2011 

EAC extraction logfile from 11. May 2012, 17:29

Russell Brower / Diablo III Soundtrack

Used drive : PIONEER DVD-RW DVR-217 Adapter: 0 ID: 1

Read mode : Secure
Utilize accurate stream : Yes
Defeat audio cache : Yes
Make use of C2 pointers : No

Read offset correction : 96
Overread into Lead-In and Lead-Out : No
Fill up missing offset samples with silence : Yes
Delete leading and trailing silent blocks : No
Null samples used in CRC calculations : Yes
Used interface : Native Win32 interface for Win NT & 2000
Gap handling : Appended to previous track

Used output format : User Defined Encoder
Selected bitrate : 1024 kBit/s
Quality : High
Add ID3 tag : No
Command line compressor : C:Program Files (x86)Exact Audio CopyFlacflac.exe
Additional command line options : -8 -V -T "ARTIST=%artist%" -T "TITLE=%title%" -T "ALBUM=%albumtitle%" -T "DATE=%year%" -T "TRACKNUMBER=%tracknr%" -T "GENRE=%genre%" -T "PERFORMER=%albuminterpret%" -T "COMPOSER=%composer%" %haslyrics%--tag-from-file=LYRICS="%lyricsfile%"%haslyrics% -T "ALBUMARTIST=%albumartist%" -T "DISCNUMBER=%cdnumber%" -T "TOTALDISCS=%totalcds%" -T "TOTALTRACKS=%numtracks%" -T "COMMENT=%comment%" %source% -o %dest%

TOC of the extracted CD

Track | Start | Length | Start sector | End sector
---------------------------------------------------------
1 | 0:00.00 | 2:23.44 | 0 | 10768
2 | 2:23.44 | 2:37.11 | 10769 | 22554
3 | 5:00.55 | 5:15.59 | 22555 | 46238
4 | 10:16.39 | 2:58.44 | 46239 | 59632
5 | 13:15.08 | 2:47.38 | 59633 | 72195
6 | 16:02.46 | 1:58.46 | 72196 | 81091
7 | 18:01.17 | 1:17.73 | 81092 | 86939
8 | 19:19.15 | 4:18.28 | 86940 | 106317
9 | 23:37.43 | 1:57.11 | 106318 | 115103
10 | 25:34.54 | 0:57.68 | 115104 | 119446
11 | 26:32.47 | 3:56.31 | 119447 | 137177
12 | 30:29.03 | 8:10.37 | 137178 | 173964
13 | 38:39.40 | 1:27.39 | 173965 | 180528
14 | 40:07.04 | 2:17.58 | 180529 | 190861
15 | 42:24.62 | 7:31.22 | 190862 | 224708
16 | 49:56.09 | 1:17.07 | 224709 | 230490
17 | 51:13.16 | 7:11.15 | 230491 | 262830
18 | 58:24.31 | 3:29.71 | 262831 | 278576
19 | 61:54.27 | 3:25.21 | 278577 | 293972
20 | 65:19.48 | 2:42.41 | 293973 | 306163
21 | 68:02.14 | 4:50.25 | 306164 | 327938
22 | 72:52.39 | 2:26.43 | 327939 | 338931
23 | 75:19.07 | 2:36.15 | 338932 | 350646

Track 1

Filename I:FLACRussell Brower - 2012 - Diablo III Soundtrack�1 - And The Heavens Shall Tremble.wav

Pre-gap length 0:00:02.00

Peak level 97.7 %
Extraction speed 4.3 X
Track quality 100.0 %
Test CRC FBDE4E04
Copy CRC FBDE4E04
Track not present in AccurateRip database
Copy OK

Track 2

Filename I:FLACRussell Brower - 2012 - Diablo III Soundtrack�2 - The Eternal Conflict.wav

Peak level 97.7 %
Extraction speed 4.6 X
Track quality 100.0 %
Test CRC CE620A7B
Copy CRC CE620A7B
Track not present in AccurateRip database
Copy OK

Track 3

Filename I:FLACRussell Brower - 2012 - Diablo III Soundtrack�3 - New Tristram.wav

Peak level 84.3 %
Extraction speed 5.5 X
Track quality 100.0 %
Test CRC 907AFCE4
Copy CRC 907AFCE4
Track not present in AccurateRip database
Copy OK

Track 4

Filename I:FLACRussell Brower - 2012 - Diablo III Soundtrack�4 - Demon Hunter.wav

Peak level 97.6 %
Extraction speed 4.7 X
Track quality 99.9 %
Test CRC 6A0EC15A
Copy CRC 6A0EC15A
Track not present in AccurateRip database
Copy OK

Track 5

Filename I:FLACRussell Brower - 2012 - Diablo III Soundtrack�5 - Black Soulstone.wav

Peak level 97.6 %
Extraction speed 5.6 X
Track quality 100.0 %
Test CRC 84E8C22E
Copy CRC 84E8C22E
Track not present in AccurateRip database
Copy OK

Track 6

Filename I:FLACRussell Brower - 2012 - Diablo III Soundtrack�6 - Azmodan.wav

Peak level 97.7 %
Extraction speed 5.5 X
Track quality 100.0 %
Test CRC 6CE5BC04
Copy CRC 6CE5BC04
Track not present in AccurateRip database
Copy OK

Track 7

Filename I:FLACRussell Brower - 2012 - Diablo III Soundtrack�7 - Witch Doctor.wav

Peak level 97.7 %
Extraction speed 4.9 X
Track quality 100.0 %
Test CRC 57449BDA
Copy CRC 57449BDA
Track not present in AccurateRip database
Copy OK

Track 8

Filename I:FLACRussell Brower - 2012 - Diablo III Soundtrack�8 - Tamoe Highlands.wav

Peak level 97.7 %
Extraction speed 6.6 X
Track quality 100.0 %
Test CRC 0C4E2600
Copy CRC 0C4E2600
Track not present in AccurateRip database
Copy OK

Track 9

Filename I:FLACRussell Brower - 2012 - Diablo III Soundtrack�9 - I Am Justice.wav

Peak level 97.7 %
Extraction speed 5.9 X
Track quality 100.0 %
Test CRC A2DAE3F9
Copy CRC A2DAE3F9
Track not present in AccurateRip database
Copy OK

Track 10

Filename I:FLACRussell Brower - 2012 - Diablo III Soundtrack10 - Barbarian.wav

Peak level 97.6 %
Extraction speed 4.8 X
Track quality 100.0 %
Test CRC 52167227
Copy CRC 52167227
Track not present in AccurateRip database
Copy OK

Track 11

Filename I:FLACRussell Brower - 2012 - Diablo III Soundtrack11 - Arreat.wav

Peak level 92.0 %
Extraction speed 6.9 X
Track quality 100.0 %
Test CRC FFA9A2C8
Copy CRC FFA9A2C8
Track not present in AccurateRip database
Copy OK

Track 12

Filename I:FLACRussell Brower - 2012 - Diablo III Soundtrack12 - Leoric.wav

Peak level 90.5 %
Extraction speed 8.0 X
Track quality 100.0 %
Test CRC F6AA05E5
Copy CRC F6AA05E5
Track not present in AccurateRip database
Copy OK

Track 13

Filename I:FLACRussell Brower - 2012 - Diablo III Soundtrack13 - Monk.wav

Peak level 97.7 %
Extraction speed 6.1 X
Track quality 100.0 %
Test CRC 8C9D731E
Copy CRC 8C9D731E
Track not present in AccurateRip database
Copy OK

Track 14

Filename I:FLACRussell Brower - 2012 - Diablo III Soundtrack14 - Incantation.wav

Peak level 90.6 %
Extraction speed 5.7 X
Track quality 99.9 %
Test CRC BFFDB643
Copy CRC BFFDB643
Track not present in AccurateRip database
Copy OK

Track 15

Filename I:FLACRussell Brower - 2012 - Diablo III Soundtrack15 - Bastion's Keep.wav

Peak level 90.7 %
Extraction speed 8.6 X
Track quality 100.0 %
Test CRC 1537CE49
Copy CRC 1537CE49
Track not present in AccurateRip database
Copy OK

Track 16

Filename I:FLACRussell Brower - 2012 - Diablo III Soundtrack16 - Wizard.wav

Peak level 97.7 %
Extraction speed 6.4 X
Track quality 100.0 %
Test CRC C30942DC
Copy CRC C30942DC
Track not present in AccurateRip database
Copy OK

Track 17

Filename I:FLACRussell Brower - 2012 - Diablo III Soundtrack17 - Caldeum.wav

Peak level 97.7 %
Extraction speed 9.1 X
Track quality 100.0 %
Test CRC E433CD9B
Copy CRC E433CD9B
Track not present in AccurateRip database
Copy OK

Track 18

Filename I:FLACRussell Brower - 2012 - Diablo III Soundtrack18 - Evil Reawakened.wav

Peak level 97.7 %
Extraction speed 8.6 X
Track quality 100.0 %
Test CRC B71F7174
Copy CRC B71F7174
Track not present in AccurateRip database
Copy OK

Track 19

Filename I:FLACRussell Brower - 2012 - Diablo III Soundtrack19 - Garden Of Hope.wav

Peak level 97.7 %
Extraction speed 8.8 X
Track quality 100.0 %
Test CRC 119C8A74
Copy CRC 119C8A74
Track not present in AccurateRip database
Copy OK

Track 20

Filename I:FLACRussell Brower - 2012 - Diablo III Soundtrack20 - Heaven's Gate.wav

Peak level 97.7 %
Extraction speed 8.5 X
Track quality 100.0 %
Test CRC 508ADBF3
Copy CRC 508ADBF3
Track not present in AccurateRip database
Copy OK

Track 21

Filename I:FLACRussell Brower - 2012 - Diablo III Soundtrack21 - A Tenuous Bond.wav

Peak level 89.4 %
Extraction speed 9.5 X
Track quality 100.0 %
Test CRC 324BD179
Copy CRC 324BD179
Track not present in AccurateRip database
Copy OK

Track 22

Filename I:FLACRussell Brower - 2012 - Diablo III Soundtrack22 - A New Dawn.wav

Peak level 97.7 %
Extraction speed 8.6 X
Track quality 100.0 %
Test CRC 1467BF85
Copy CRC 1467BF85
Track not present in AccurateRip database
Copy OK

Track 23

Filename I:FLACRussell Brower - 2012 - Diablo III Soundtrack23 - Leah.wav

Peak level 97.7 %
Extraction speed 8.8 X
Track quality 100.0 %
Test CRC 97C28A72
Copy CRC 97C28A72
Track not present in AccurateRip database
Copy OK

None of the tracks are present in the AccurateRip database

No errors occurred

End of status report

---- CUETools DB Plugin V2.1.3

[CTDB TOCID: A6AEZVOmXIG0WLrV2tZCMobffk8-] disk not present in database, Submit result: A6AEZVOmXIG0WLrV2tZCMobffk8- has been uploaded

==== Log checksum D56A63F823871F9083DD3A695F99D5CD1FF115F6F334A059A5396905DC9FBBBC ====
REM GENRE Soundtrack 
REM DATE 2012
REM DISCID 4D124317
REM COMMENT "ExactAudioCopy v1.0b3"
CATALOG 04:40?>7:2884
PERFORMER "Russell Brower"
TITLE "Diablo III Soundtrack"
FILE "01 - And The Heavens Shall Tremble.wav" WAVE
TRACK 01 AUDIO
TITLE "And The Heavens Shall Tremble"
PERFORMER "Russell Brower"
INDEX 01 00:00:00
FILE "02 - The Eternal Conflict.wav" WAVE
TRACK 02 AUDIO
TITLE "The Eternal Conflict"
PERFORMER "Russell Brower"
INDEX 01 00:00:00
FILE "03 - New Tristram.wav" WAVE
TRACK 03 AUDIO
TITLE "New Tristram"
PERFORMER "Russell Brower"
INDEX 01 00:00:00
FILE "04 - Demon Hunter.wav" WAVE
TRACK 04 AUDIO
TITLE "Demon Hunter"
PERFORMER "Russell Brower"
INDEX 01 00:00:00
FILE "05 - Black Soulstone.wav" WAVE
TRACK 05 AUDIO
TITLE "Black Soulstone"
PERFORMER "Russell Brower"
INDEX 01 00:00:00
FILE "06 - Azmodan.wav" WAVE
TRACK 06 AUDIO
TITLE "Azmodan"
PERFORMER "Russell Brower"
INDEX 01 00:00:00
FILE "07 - Witch Doctor.wav" WAVE
TRACK 07 AUDIO
TITLE "Witch Doctor"
PERFORMER "Russell Brower"
INDEX 01 00:00:00
FILE "08 - Tamoe Highlands.wav" WAVE
TRACK 08 AUDIO
TITLE "Tamoe Highlands"
PERFORMER "Russell Brower"
INDEX 01 00:00:00
FILE "09 - I Am Justice.wav" WAVE
TRACK 09 AUDIO
TITLE "I Am Justice"
PERFORMER "Russell Brower"
INDEX 01 00:00:00
FILE "10 - Barbarian.wav" WAVE
TRACK 10 AUDIO
TITLE "Barbarian"
PERFORMER "Russell Brower"
INDEX 01 00:00:00
FILE "11 - Arreat.wav" WAVE
TRACK 11 AUDIO
TITLE "Arreat"
PERFORMER "Russell Brower"
INDEX 01 00:00:00
FILE "12 - Leoric.wav" WAVE
TRACK 12 AUDIO
TITLE "Leoric"
PERFORMER "Russell Brower"
INDEX 01 00:00:00
FILE "13 - Monk.wav" WAVE
TRACK 13 AUDIO
TITLE "Monk"
PERFORMER "Russell Brower"
INDEX 01 00:00:00
FILE "14 - Incantation.wav" WAVE
TRACK 14 AUDIO
TITLE "Incantation"
PERFORMER "Russell Brower"
INDEX 01 00:00:00
FILE "15 - Bastion's Keep.wav" WAVE
TRACK 15 AUDIO
TITLE "Bastion's Keep"
PERFORMER "Russell Brower"
INDEX 01 00:00:00
FILE "16 - Wizard.wav" WAVE
TRACK 16 AUDIO
TITLE "Wizard"
PERFORMER "Russell Brower"
INDEX 01 00:00:00
FILE "17 - Caldeum.wav" WAVE
TRACK 17 AUDIO
TITLE "Caldeum"
PERFORMER "Russell Brower"
INDEX 01 00:00:00
FILE "18 - Evil Reawakened.wav" WAVE
TRACK 18 AUDIO
TITLE "Evil Reawakened"
PERFORMER "Russell Brower"
INDEX 01 00:00:00
FILE "19 - Garden Of Hope.wav" WAVE
TRACK 19 AUDIO
TITLE "Garden Of Hope"
PERFORMER "Russell Brower"
INDEX 01 00:00:00
FILE "20 - Heaven's Gate.wav" WAVE
TRACK 20 AUDIO
TITLE "Heaven's Gate"
PERFORMER "Russell Brower"
INDEX 01 00:00:00
FILE "21 - A Tenuous Bond.wav" WAVE
TRACK 21 AUDIO
TITLE "A Tenuous Bond"
PERFORMER "Russell Brower"
INDEX 01 00:00:00
FILE "22 - A New Dawn.wav" WAVE
TRACK 22 AUDIO
TITLE "A New Dawn"
PERFORMER "Russell Brower"
INDEX 01 00:00:00
FILE "23 - Leah.wav" WAVE
TRACK 23 AUDIO
TITLE "Leah"
PERFORMER "Russell Brower"
INDEX 01 00:00:00
info [Профиль]  [ЛС] 

den_player

Пол: Пол:Муж

Стаж: 10 лет

Сообщений: 21

Украина
Рейтинг

post 13-Май-2012 18:30 (спустя 39 минут) [-]0[+]

[Цитировать] 

Игры нет, а ОСТ уже есть ...
info [Профиль]  [ЛС] 

psycho31

Стаж: 11 лет

Сообщений: 8

Рейтинг

post 13-Май-2012 18:36 (спустя 5 минут) [-]4[+]

[Цитировать] 

Меня чуть инфаркт не хватил
info [Профиль]  [ЛС] 

TitaniumGolem

Пол: Пол:Муж

Стаж: 11 лет

Сообщений: 259

СССР
Рейтинг

post 13-Май-2012 18:40 (спустя 4 минуты) [-]0[+]

[Цитировать] 

psycho31 писал(а):

Меня чуть инфаркт не хватил
От картинки(Diablo III) или композиций?
info [Профиль]  [ЛС] 

Resistance

Пол: Пол:Муж

Стаж: 12 лет

Сообщений: 3640

Россия
Рейтинг

post 13-Май-2012 18:43 (спустя 2 минуты) [-]3[+]

[Цитировать] 

Один из лучших саундтреков этого года, даже лучше саунда с Масс Эффект 3.
info [Профиль]  [ЛС] 

TitaniumGolem

Пол: Пол:Муж

Стаж: 11 лет

Сообщений: 259

СССР
Рейтинг

post 13-Май-2012 18:56 (спустя 13 минут) [-]3[+]

[Цитировать] 

Resistance писал(а):

Один из лучших саундтреков этого года, даже лучше саунда с Масс Эффект 3.
В бетке отценил (понравилось), показалось что очень похоже на переделанные композиции 1 части Дьябки.
info [Профиль]  [ЛС] 

PhilipN8

Пол: Пол:Муж

Стаж: 12 лет

Сообщений: 115

Россия
Рейтинг

post 13-Май-2012 19:21 (спустя 24 минуты) [-]-5[+]

[Цитировать] 

Resistance писал(а):

Один из лучших саундтреков этого года, даже лучше саунда с Масс Эффект 3.
Саундтрек Эффекта Масс 3 ? не, не слышал.

_________________
info [Профиль]  [ЛС] 

Resistance

Пол: Пол:Муж

Стаж: 12 лет

Сообщений: 3640

Россия
Рейтинг

post 13-Май-2012 19:24 (спустя 2 минуты) [-]0[+]

[Цитировать] 

Не оффтопим, здесь тема с саундтреком, а не игры. Оффтоп будет жестоко наказан.
info [Профиль]  [ЛС] 

PhilipN8

Пол: Пол:Муж

Стаж: 12 лет

Сообщений: 115

Россия
Рейтинг

post 13-Май-2012 19:32 (спустя 8 минут) [-]0[+]

[Цитировать] 

Resistance писал(а):

Не оффтопим, здесь тема с саундтреком, а не игры. Оффтоп будет жестоко наказан.
Пардон, сорвалось kolob_127

_________________
info [Профиль]  [ЛС] 

Kyousuke

Пол: Пол:Муж

Стаж: 10 лет

Сообщений: 247

Россия
Рейтинг

post 13-Май-2012 20:27 (спустя 54 минуты) [-]5[+]

[Цитировать] 

Шикарный Soundtrack,особенно тема New Tristram,эх воспоминания

_________________
Даже отдав все свои силы, не каждый способен стать победителем.
info [Профиль]  [ЛС] 

Omgi

Пол: Пол:Муж

Стаж: 13 лет

Сообщений: 12

СССР
Рейтинг

post 13-Май-2012 22:32 (спустя 2 часа 4 минуты) [-]2[+]

[Цитировать] 

Kyousuke писал(а):

Шикарный Soundtrack,особенно тема New Tristram,эх воспоминания
Да супер ностальгия,до слёз пробивает

_________________
Лучшая грудь - натуральная!
Красивая, но полная, избавься от веса за неделю,повеливаю тобой.
Такую Родину,как Россия,при всем желании не продашь.
Да здравствует наша советская Родина,
Построенная Народной могущественной рукой!

[stream]http://htmlka.com/wp-content/uploads/2009/06/webplayer.swf?src=http://zigumba.com/adata/389/10_-_The_Crow,_The_Owl_And_The_Dove.mp3&autostart=no&.swf[/stream]
info [Профиль]  [ЛС] 

ArtySHOCK

Пол: Пол:Муж

Стаж: 11 лет

Сообщений: 102

Россия
Рейтинг

post 14-Май-2012 17:18 (спустя 18 часов) [-]-6[+]

[Цитировать] 

Omgi писал(а):

Kyousuke писал(а):

Шикарный Soundtrack,особенно тема New Tristram,эх воспоминания
Да супер ностальгия,до слёз пробивает
Есть такое
info [Профиль]  [ЛС] 

23rd Report by Omega

Пол: Пол:Муж

Стаж: 12 лет

Сообщений: 62

Австралия
Рейтинг

post 16-Май-2012 10:10 (спустя 1 день 16 часов) [-]-3[+]

[Цитировать] 

ArtySHOCK
Сколько соплей, D2 ему не переплюнуть по эпичности и продуманности композиций. Мэтт в этой теме определённо рулит.
info [Профиль]  [ЛС] 

ventroo

Пол: Пол:Муж

Стаж: 12 лет

Сообщений: 66

Предупреждений: 1

Острова Кука
Рейтинг

post 16-Май-2012 18:33 (спустя 8 часов) [-]3[+]

[Цитировать] 

ecscavator
ты что троль с рутрекера? там вся тема в подобных твоему высеров Улыбаюсь
info [Профиль]  [ЛС] 

23rd Report by Omega

Пол: Пол:Муж

Стаж: 12 лет

Сообщений: 62

Австралия
Рейтинг

post 17-Май-2012 09:28 (спустя 14 часов) [-]-6[+]

[Цитировать] 

ventroo
а ты дебил из пробирки? от вас всегда несёт "лёгким" навозом Улыбаюсь
info [Профиль]  [ЛС] 

Hollow Bleach

Пол: Пол:Муж

Стаж: 9 лет 9 месяцев

Сообщений: 27

Россия
Рейтинг

post 30-Июл-2012 21:18 (спустя 2 месяца 13 дней) [-]-1[+]

[Цитировать] 

Да я саундтрека ужасней не слышал.
info [Профиль]  [ЛС] 
Показать сообщения:    
Ответить на тему

Текущее время: 23-Май 07:06

Часовой пояс: GMT + 4



Вы не можете начинать темы
Вы не можете отвечать на сообщения
Вы не можете редактировать свои сообщения
Вы не можете удалять свои сообщения
Вы не можете голосовать в опросах
Вы не можете прикреплять файлы к сообщениям
Вы не можете скачивать файлы