Ошибка

(Alternative Rock / Post-Grunge) Three Days Grace - Дискография (3 альбома) 2003 - 2009, FLAC (tracks+.cue), lossless

Ответить на тему
 
Автор Сообщение

Derik

Пол: Пол:Муж

Стаж: 13 лет

Сообщений: 746

Антарктида
Рейтинг

post 06-Янв-2010 16:29 0[+]

[Цитировать] 

Three Days Grace - Дискография (3 альбома)

Страна: США
Жанр: Alternative Rock; Post-Grunge
Год выпуска: 2003 - 2009
Формат: FLAC (tracks)
Продолжительность: 2:25:58
Битрейт аудио: lossless
Доп. информация: Релиз потрековый, к каждому альбому прилагается .CUE
2003 - Three Days Grace (Japanese Edition)
01. Burn (4:28)
02. Just Like You (3:08)
03. I Hate Everything About You (3:51)
04. Home (4:22)
05. Scared (3:13)
06. Let You Down (3:46)
07. Now Or Never (3:01)
08. Born Like This (3:33)
09. Drown (3:28)
10. Wake Up (3:26)
11. Take Me Under (4:20)
12. Overrated (3:33)
13. Are You Ready (2:46)

Код:

REM GENRE Rock
REM DATE 2003
REM DISCID D70DB90E
REM COMMENT "ExactAudioCopy v0.95b3"
PERFORMER "Three Days Grace"
TITLE "Three Days Grace"
FILE "01 - Burn.wav" WAVE
  TRACK 01 AUDIO
    TITLE "Burn"
    PERFORMER "Three Days Grace"
    INDEX 01 00:00:00
FILE "02 - Just Like You.wav" WAVE
  TRACK 02 AUDIO
    TITLE "Just Like You"
    PERFORMER "Three Days Grace"
    INDEX 01 00:00:00
  TRACK 03 AUDIO
    TITLE "I Hate Everything About You"
    PERFORMER "Three Days Grace"
    INDEX 00 03:07:17
FILE "03 - I Hate Everything About You.wav" WAVE
    INDEX 01 00:00:00
FILE "04 - Home.wav" WAVE
  TRACK 04 AUDIO
    TITLE "Home"
    PERFORMER "Three Days Grace"
    INDEX 01 00:00:00
  TRACK 05 AUDIO
    TITLE "Scared"
    PERFORMER "Three Days Grace"
    INDEX 00 04:20:67
FILE "05 - Scared.wav" WAVE
    INDEX 01 00:00:00
FILE "06 - Let You Down.wav" WAVE
  TRACK 06 AUDIO
    TITLE "Let You Down"
    PERFORMER "Three Days Grace"
    INDEX 01 00:00:00
  TRACK 07 AUDIO
    TITLE "Now Or Never"
    PERFORMER "Three Days Grace"
    INDEX 00 03:44:72
FILE "07 - Now Or Never.wav" WAVE
    INDEX 01 00:00:00
FILE "08 - Born Like This.wav" WAVE
  TRACK 08 AUDIO
    TITLE "Born Like This"
    PERFORMER "Three Days Grace"
    INDEX 01 00:00:00
  TRACK 09 AUDIO
    TITLE "Drown"
    PERFORMER "Three Days Grace"
    INDEX 00 03:32:32
FILE "09 - Drown.wav" WAVE
    INDEX 01 00:00:00
FILE "10 - Wake Up.wav" WAVE
  TRACK 10 AUDIO
    TITLE "Wake Up"
    PERFORMER "Three Days Grace"
    INDEX 01 00:00:00
  TRACK 11 AUDIO
    TITLE "Take Me Under"
    PERFORMER "Three Days Grace"
    INDEX 00 03:24:67
FILE "11 - Take Me Under.wav" WAVE
    INDEX 01 00:00:00
  TRACK 12 AUDIO
    TITLE "Overrated"
    PERFORMER "Three Days Grace"
    INDEX 00 04:18:62
FILE "12 - Overrated.wav" WAVE
    INDEX 01 00:00:00
  TRACK 13 AUDIO
    TITLE "Are You Ready"
    PERFORMER "Three Days Grace"
    INDEX 00 03:30:18
FILE "13 - Are You Ready.wav" WAVE
    INDEX 01 00:00:00

Код:

Exact Audio Copy V0.99 prebeta 4 from 23. January 2008

EAC extraction logfile from 6. September 2008, 19:16

Three Days Grace / Three Days Grace

Used drive  : SONY    DVD RW DW-Q30A   Adapter: 2  ID: 0

Read mode               : Secure
Utilize accurate stream : Yes
Defeat audio cache      : Yes
Make use of C2 pointers : No

Read offset correction                      : 6
Overread into Lead-In and Lead-Out          : No
Fill up missing offset samples with silence : Yes
Delete leading and trailing silent blocks   : No
Null samples used in CRC calculations       : Yes
Used interface                              : Native Win32 interface for Win NT & 2000
Gap handling                                : Appended to previous track

Used output format              : User Defined Encoder
Selected bitrate                : 128 kBit/s
Quality                         : High
Add ID3 tag                     : No
Command line compressor         : C:\Program Files\FLAC\flac.exe
Additional command line options :  -8 -V -T "ARTIST=%a" -T "TITLE=%t" -T "ALBUM=%g" -T "DATE=%y" -T "TRACKNUMBER=%n" -T "GENRE=%m" -T "COMMENT=EAC FLAC -8" %s

TOC of the extracted CD

     Track |   Start  |  Length  | Start sector | End sector
    ---------------------------------------------------------
        1  |  0:00.00 |  4:27.55 |         0    |    20079   
        2  |  4:27.55 |  3:08.25 |     20080    |    34204   
        3  |  7:36.05 |  3:51.30 |     34205    |    51559   
        4  | 11:27.35 |  4:21.67 |     51560    |    71201   
        5  | 15:49.27 |  3:13.03 |     71202    |    85679   
        6  | 19:02.30 |  3:46.35 |     85680    |   102664   
        7  | 22:48.65 |  3:00.60 |    102665    |   116224   
        8  | 25:49.50 |  3:33.05 |    116225    |   132204   
        9  | 29:22.55 |  3:28.35 |    132205    |   147839   
       10  | 32:51.15 |  3:26.00 |    147840    |   163289   
       11  | 36:17.15 |  4:20.07 |    163290    |   182796   
       12  | 40:37.22 |  3:32.68 |    182797    |   198764   
       13  | 44:10.15 |  2:46.17 |    198765    |   211231   
       14  | 49:28.32 |  9:05.41 |    222632    |   263547   

Track  1

     Filename Z:\eac\01 - Burn.wav

     Pre-gap length  0:00:02.00

     Peak level 100.0 %
     Track quality 100.0 %
     Test CRC E297F16E
     Copy CRC E297F16E
     Track not present in AccurateRip database
     Copy OK

Track  2

     Filename Z:\eac\02 - Just Like You.wav

     Peak level 95.1 %
     Track quality 100.0 %
     Test CRC 18562B9A
     Copy CRC 18562B9A
     Track not present in AccurateRip database
     Copy OK

Track  3

     Filename Z:\eac\03 - I Hate Everything About You.wav

     Pre-gap length  0:00:01.10

     Peak level 96.2 %
     Track quality 100.0 %
     Test CRC 61A9FE68
     Copy CRC 61A9FE68
     Track not present in AccurateRip database
     Copy OK

Track  4

     Filename Z:\eac\04 - Home.wav

     Peak level 100.0 %
     Track quality 100.0 %
     Test CRC 73947EF8
     Copy CRC 73947EF8
     Track not present in AccurateRip database
     Copy OK

Track  5

     Filename Z:\eac\05 - Scared.wav

     Pre-gap length  0:00:01.00

     Peak level 100.0 %
     Track quality 100.0 %
     Test CRC 3FA0D482
     Copy CRC 3FA0D482
     Track not present in AccurateRip database
     Copy OK

Track  6

     Filename Z:\eac\06 - Let You Down.wav

     Peak level 100.0 %
     Track quality 99.9 %
     Test CRC 6F8FC74A
     Copy CRC 6F8FC74A
     Track not present in AccurateRip database
     Copy OK

Track  7

     Filename Z:\eac\07 - Now Or Never.wav

     Pre-gap length  0:00:01.50

     Peak level 100.0 %
     Track quality 100.0 %
     Test CRC 7AA90DFE
     Copy CRC 7AA90DFE
     Track not present in AccurateRip database
     Copy OK

Track  8

     Filename Z:\eac\08 - Born Like This.wav

     Peak level 100.0 %
     Track quality 100.0 %
     Test CRC B4CAC793
     Copy CRC B4CAC793
     Track not present in AccurateRip database
     Copy OK

Track  9

     Filename Z:\eac\09 - Drown.wav

     Pre-gap length  0:00:00.64

     Peak level 100.0 %
     Track quality 100.0 %
     Test CRC 32975725
     Copy CRC 32975725
     Track not present in AccurateRip database
     Copy OK

Track 10

     Filename Z:\eac\10 - Wake Up.wav

     Peak level 100.0 %
     Track quality 100.0 %
     Test CRC 8514CFA7
     Copy CRC 8514CFA7
     Track not present in AccurateRip database
     Copy OK

Track 11

     Filename Z:\eac\11 - Take Me Under.wav

     Pre-gap length  0:00:01.10

     Peak level 100.0 %
     Track quality 100.0 %
     Test CRC 65F90FB0
     Copy CRC 65F90FB0
     Track not present in AccurateRip database
     Copy OK

Track 12

     Filename Z:\eac\12 - Overrated.wav

     Pre-gap length  0:00:01.26

     Peak level 100.0 %
     Track quality 100.0 %
     Test CRC C9DD136C
     Copy CRC C9DD136C
     Track not present in AccurateRip database
     Copy OK

Track 13

     Filename Z:\eac\13 - Are You Ready.wav

     Pre-gap length  0:00:02.66

     Peak level 100.0 %
     Track quality 100.0 %
     Test CRC 14C73BDD
     Copy CRC 14C73BDD
     Track not present in AccurateRip database
     Copy OK

None of the tracks are present in the AccurateRip database

No errors occurred

End of status report

2006 - One-X (Japanese Edition)
01. It's All Over (4:09)
02. Pain (3:23)
03. Animal I Have Become (3:51)
04. Never Too Late (3:29)
05. On My Own (3:06)
06. Riot (3:28)
07. Get Out Alive (4:22)
08. Let It Die (3:09)
09. Over and Over (3:12)
10. Time of Dying (3:09)
11. Gone Forever (3:41)
12. One X (4:47)
13. Running Away (4:03)
14. Animal I Have Become (Stripped Acoustic Version) (3:45)
15. I Hate Everything About You (Acoustic Version) (3:53)

Код:

REM GENRE Rock
REM DATE 2006
REM DISCID D7123910
REM COMMENT "ExactAudioCopy v0.99pb4"
PERFORMER "Three Days Grace"
TITLE "One-X (Japanese Edition)"
FILE "01 - It's All Over.wav" WAVE
  TRACK 01 AUDIO
    TITLE "It's All Over"
    PERFORMER "Three Days Grace"
    INDEX 01 00:00:00
FILE "02 - Pain.wav" WAVE
  TRACK 02 AUDIO
    TITLE "Pain"
    PERFORMER "Three Days Grace"
    INDEX 01 00:00:00
FILE "03 - Animal I Have Become.wav" WAVE
  TRACK 03 AUDIO
    TITLE "Animal I Have Become"
    PERFORMER "Three Days Grace"
    INDEX 01 00:00:00
FILE "04 - Never Too Late.wav" WAVE
  TRACK 04 AUDIO
    TITLE "Never Too Late"
    PERFORMER "Three Days Grace"
    INDEX 01 00:00:00
FILE "05 - On My Own.wav" WAVE
  TRACK 05 AUDIO
    TITLE "On My Own"
    PERFORMER "Three Days Grace"
    INDEX 01 00:00:00
FILE "06 - Riot.wav" WAVE
  TRACK 06 AUDIO
    TITLE "Riot"
    PERFORMER "Three Days Grace"
    INDEX 01 00:00:00
FILE "07 - Get Out Alive.wav" WAVE
  TRACK 07 AUDIO
    TITLE "Get Out Alive"
    PERFORMER "Three Days Grace"
    INDEX 01 00:00:00
FILE "08 - Let It Die.wav" WAVE
  TRACK 08 AUDIO
    TITLE "Let It Die"
    PERFORMER "Three Days Grace"
    INDEX 01 00:00:00
FILE "09 - Over and Over.wav" WAVE
  TRACK 09 AUDIO
    TITLE "Over and Over"
    PERFORMER "Three Days Grace"
    INDEX 01 00:00:00
FILE "10 - Time of Dying.wav" WAVE
  TRACK 10 AUDIO
    TITLE "Time of Dying"
    PERFORMER "Three Days Grace"
    INDEX 01 00:00:00
  TRACK 11 AUDIO
    TITLE "Gone Forever"
    PERFORMER "Three Days Grace"
    INDEX 00 03:06:28
FILE "11 - Gone Forever.wav" WAVE
    INDEX 01 00:00:00
FILE "12 - One X.wav" WAVE
  TRACK 12 AUDIO
    TITLE "One X"
    PERFORMER "Three Days Grace"
    INDEX 01 00:00:00
  TRACK 13 AUDIO
    TITLE "Running Away"
    PERFORMER "Three Days Grace"
    INDEX 00 04:45:21
FILE "13 - Running Away.wav" WAVE
    INDEX 01 00:00:00
  TRACK 14 AUDIO
    TITLE "Animal I Have Become (Stripped Acoustic Version)"
    PERFORMER "Three Days Grace"
    INDEX 00 04:00:69
FILE "14 - Animal I Have Become (Stripped Acoustic Version).wav" WAVE
    INDEX 01 00:00:00
  TRACK 15 AUDIO
    TITLE "I Hate Everything About You (Acoustic Version)"
    PERFORMER "Three Days Grace"
    INDEX 00 03:41:34
FILE "15 - I Hate Everything About You (Acoustic Version).wav" WAVE
    INDEX 01 00:00:00
  TRACK 16 MODEx/2xxx
    TITLE "Three Days Grace Behind THe Band"
    PERFORMER "Three Days Grace"
    INDEX 00 03:53:15

Код:

Exact Audio Copy V0.99 prebeta 4 from 23. January 2008

EAC extraction logfile from 9. May 2008, 7:17

Three Days Grace / One-X (Japanese Edition)

Used drive  : SONY    DVD RW DW-Q30A   Adapter: 2  ID: 0

Read mode               : Secure
Utilize accurate stream : Yes
Defeat audio cache      : Yes
Make use of C2 pointers : No

Read offset correction                      : 6
Overread into Lead-In and Lead-Out          : No
Fill up missing offset samples with silence : Yes
Delete leading and trailing silent blocks   : No
Null samples used in CRC calculations       : Yes
Used interface                              : Native Win32 interface for Win NT & 2000
Gap handling                                : Appended to previous track

Used output format              : User Defined Encoder
Selected bitrate                : 128 kBit/s
Quality                         : High
Add ID3 tag                     : No
Command line compressor         : C:\Program Files\FLAC\flac.exe
Additional command line options :  -8 -V -T "ARTIST=%a" -T "TITLE=%t" -T "ALBUM=%g" -T "DATE=%y" -T "TRACKNUMBER=%n" -T "GENRE=%m" -T "COMMENT=EAC FLAC -8" %s

TOC of the extracted CD

     Track |   Start  |  Length  | Start sector | End sector
    ---------------------------------------------------------
        1  |  0:00.00 |  4:09.24 |         0    |    18698   
        2  |  4:09.24 |  3:22.73 |     18699    |    33921   
        3  |  7:32.22 |  3:51.30 |     33922    |    51276   
        4  | 11:23.52 |  3:29.25 |     51277    |    66976   
        5  | 14:53.02 |  3:05.57 |     66977    |    80908   
        6  | 17:58.59 |  3:27.43 |     80909    |    96476   
        7  | 21:26.27 |  4:22.37 |     96477    |   116163   
        8  | 25:48.64 |  3:09.24 |    116164    |   130362   
        9  | 28:58.13 |  3:11.68 |    130363    |   144755   
       10  | 32:10.06 |  3:08.38 |    144756    |   158893   
       11  | 35:18.44 |  3:41.07 |    158894    |   175475   
       12  | 38:59.51 |  4:47.03 |    175476    |   197003   
       13  | 43:46.54 |  4:02.74 |    197004    |   215227   
       14  | 47:49.53 |  3:44.45 |    215228    |   232072   
       15  | 51:34.23 |  3:53.15 |    232073    |   249562   
       16  | 57:59.38 | 19:45.50 |    260963    |   349887   

Track  1

     Filename Z:\temp\01 - It's All Over.wav

     Pre-gap length  0:00:02.00

     Peak level 96.6 %
     Track quality 100.0 %
     Test CRC 6F969474
     Copy CRC 6F969474
     Track not present in AccurateRip database
     Copy OK

Track  2

     Filename Z:\temp\02 - Pain.wav

     Peak level 96.6 %
     Track quality 100.0 %
     Test CRC 8EA7023E
     Copy CRC 8EA7023E
     Track not present in AccurateRip database
     Copy OK

Track  3

     Filename Z:\temp\03 - Animal I Have Become.wav

     Peak level 96.6 %
     Track quality 100.0 %
     Test CRC 7A1FEEC8
     Copy CRC 7A1FEEC8
     Track not present in AccurateRip database
     Copy OK

Track  4

     Filename Z:\temp\04 - Never Too Late.wav

     Peak level 96.6 %
     Track quality 100.0 %
     Test CRC 8C404B79
     Copy CRC 8C404B79
     Track not present in AccurateRip database
     Copy OK

Track  5

     Filename Z:\temp\05 - On My Own.wav

     Peak level 96.6 %
     Track quality 100.0 %
     Test CRC 9217DC81
     Copy CRC 9217DC81
     Track not present in AccurateRip database
     Copy OK

Track  6

     Filename Z:\temp\06 - Riot.wav

     Peak level 96.6 %
     Track quality 100.0 %
     Test CRC 5EF2E89D
     Copy CRC 5EF2E89D
     Track not present in AccurateRip database
     Copy OK

Track  7

     Filename Z:\temp\07 - Get Out Alive.wav

     Peak level 96.6 %
     Track quality 100.0 %
     Test CRC A53A1CA8
     Copy CRC A53A1CA8
     Track not present in AccurateRip database
     Copy OK

Track  8

     Filename Z:\temp\08 - Let It Die.wav

     Peak level 96.6 %
     Track quality 100.0 %
     Test CRC 8E78299A
     Copy CRC 8E78299A
     Track not present in AccurateRip database
     Copy OK

Track  9

     Filename Z:\temp\09 - Over and Over.wav

     Peak level 96.6 %
     Track quality 99.9 %
     Test CRC 82AB3326
     Copy CRC 82AB3326
     Track not present in AccurateRip database
     Copy OK

Track 10

     Filename Z:\temp\10 - Time of Dying.wav

     Peak level 96.6 %
     Track quality 100.0 %
     Test CRC C8BFADC2
     Copy CRC C8BFADC2
     Track not present in AccurateRip database
     Copy OK

Track 11

     Filename Z:\temp\11 - Gone Forever.wav

     Pre-gap length  0:00:02.13

     Peak level 96.6 %
     Track quality 100.0 %
     Test CRC 73FA2530
     Copy CRC 73FA2530
     Track not present in AccurateRip database
     Copy OK

Track 12

     Filename Z:\temp\12 - One X.wav

     Peak level 96.6 %
     Track quality 100.0 %
     Test CRC A2D322CB
     Copy CRC A2D322CB
     Track not present in AccurateRip database
     Copy OK

Track 13

     Filename Z:\temp\13 - Running Away.wav

     Pre-gap length  0:00:01.76

     Peak level 96.6 %
     Track quality 100.0 %
     Test CRC DE632BCE
     Copy CRC DE632BCE
     Track not present in AccurateRip database
     Copy OK

Track 14

     Filename Z:\temp\14 - Animal I Have Become (Stripped Acoustic Version).wav

     Pre-gap length  0:00:02.06

     Peak level 100.0 %
     Track quality 100.0 %
     Test CRC 7FC0D194
     Copy CRC 7FC0D194
     Track not present in AccurateRip database
     Copy OK

Track 15

     Filename Z:\temp\15 - I Hate Everything About You (Acoustic Version).wav

     Pre-gap length  0:00:03.14

     Peak level 98.8 %
     Track quality 100.0 %
     Test CRC 7C8BF6E9
     Copy CRC 7C8BF6E9
     Track not present in AccurateRip database
     Copy OK

None of the tracks are present in the AccurateRip database

No errors occurred

End of status report

2009 - Life Starts Now
01. Bitter Taste (4:01)
02. Break (3:13)
03. World So Cold (4:03)
04. Lost In You (3:53)
05. The Good Life (2:53)
06. No More (3:45)
07. Last To Know (3:27)
08. Someone Who Cares (4:52)
09. Bully (3:39)
10. Without You (3:34)
11. Goin' Down (3:06)
12. Life Starts Now (3:08)

Код:

REM GENRE "Alternative Rock / Post-Grunge"
REM DATE 2009
REM DISCID 8E0A360C
REM COMMENT "ExactAudioCopy v0.99pb5"
PERFORMER "Three Days Grace"
TITLE "Life Starts Now"
FILE "01. Three Days Grace - Bitter Taste.wav" WAVE
  TRACK 01 AUDIO
    TITLE "Bitter Taste"
    PERFORMER "Three Days Grace"
    INDEX 01 00:00:00
FILE "02. Three Days Grace - Break.wav" WAVE
  TRACK 02 AUDIO
    TITLE "Break"
    PERFORMER "Three Days Grace"
    INDEX 01 00:00:00
FILE "03. Three Days Grace - World So Cold.wav" WAVE
  TRACK 03 AUDIO
    TITLE "World So Cold"
    PERFORMER "Three Days Grace"
    INDEX 01 00:00:00
FILE "04. Three Days Grace - Lost In You.wav" WAVE
  TRACK 04 AUDIO
    TITLE "Lost In You"
    PERFORMER "Three Days Grace"
    INDEX 01 00:00:00
FILE "05. Three Days Grace - The Good Life.wav" WAVE
  TRACK 05 AUDIO
    TITLE "The Good Life"
    PERFORMER "Three Days Grace"
    INDEX 01 00:00:00
FILE "06. Three Days Grace - No More.wav" WAVE
  TRACK 06 AUDIO
    TITLE "No More"
    PERFORMER "Three Days Grace"
    INDEX 01 00:00:00
FILE "07. Three Days Grace - Last To Know.wav" WAVE
  TRACK 07 AUDIO
    TITLE "Last To Know"
    PERFORMER "Three Days Grace"
    INDEX 01 00:00:00
FILE "08. Three Days Grace - Someone Who Cares.wav" WAVE
  TRACK 08 AUDIO
    TITLE "Someone Who Cares"
    PERFORMER "Three Days Grace"
    INDEX 01 00:00:00
FILE "09. Three Days Grace - Bully.wav" WAVE
  TRACK 09 AUDIO
    TITLE "Bully"
    PERFORMER "Three Days Grace"
    INDEX 01 00:00:00
FILE "10. Three Days Grace - Without You.wav" WAVE
  TRACK 10 AUDIO
    TITLE "Without You"
    PERFORMER "Three Days Grace"
    INDEX 01 00:00:00
FILE "11. Three Days Grace - Goin' Down.wav" WAVE
  TRACK 11 AUDIO
    TITLE "Goin' Down"
    PERFORMER "Three Days Grace"
    INDEX 01 00:00:00
FILE "12. Three Days Grace - Life Starts Now.wav" WAVE
  TRACK 12 AUDIO
    TITLE "Life Starts Now"
    PERFORMER "Three Days Grace"
    INDEX 01 00:00:00

Код:

Exact Audio Copy V0.99 prebeta 5 from 4. May 2009

EAC extraction logfile from 25. September 2009, 23:14

Three Days Grace / Life Starts Now

Used drive  : Optiarc DVD RW AD-7173A   Adapter: 0  ID: 1

Read mode               : Secure
Utilize accurate stream : Yes
Defeat audio cache      : Yes
Make use of C2 pointers : No

Read offset correction                      : 48
Overread into Lead-In and Lead-Out          : No
Fill up missing offset samples with silence : Yes
Delete leading and trailing silent blocks   : No
Null samples used in CRC calculations       : Yes
Used interface                              : Installed external ASPI interface
Gap handling                                : Appended to previous track

Used output format              : User Defined Encoder
Selected bitrate                : 128 kBit/s
Quality                         : High
Add ID3 tag                     : No
Command line compressor         : C:\Program Files\foobar2000\encoders\flac.exe
Additional command line options : -V -8 -T "artist=%a" -T "title=%t" -T "album=%g" -T "date=%y" -T "tracknumber=%n" -T "genre=%m" %s 

TOC of the extracted CD

     Track |   Start  |  Length  | Start sector | End sector
    ---------------------------------------------------------
        1  |  0:00.00 |  4:00.58 |         0    |    18057   
        2  |  4:00.58 |  3:13.08 |     18058    |    32540   
        3  |  7:13.66 |  4:03.00 |     32541    |    50765   
        4  | 11:16.66 |  3:52.61 |     50766    |    68226   
        5  | 15:09.52 |  2:53.13 |     68227    |    81214   
        6  | 18:02.65 |  3:45.37 |     81215    |    98126   
        7  | 21:48.27 |  3:27.35 |     98127    |   113686   
        8  | 25:15.62 |  4:52.01 |    113687    |   135587   
        9  | 30:07.63 |  3:38.50 |    135588    |   151987   
       10  | 33:46.38 |  3:33.58 |    151988    |   168020   
       11  | 37:20.21 |  3:05.60 |    168021    |   181955   
       12  | 40:26.06 |  3:08.06 |    181956    |   196061   

Track  1

     Filename C:\01. Three Days Grace - Bitter Taste.wav

     Pre-gap length  0:00:02.00

     Peak level 100.0 %
     Track quality 100.0 %
     Test CRC D88748CF
     Copy CRC D88748CF
     Track not present in AccurateRip database
     Copy OK

Track  2

     Filename C:\02. Three Days Grace - Break.wav

     Peak level 100.0 %
     Track quality 100.0 %
     Test CRC B996C8DA
     Copy CRC B996C8DA
     Track not present in AccurateRip database
     Copy OK

Track  3

     Filename C:\03. Three Days Grace - World So Cold.wav

     Peak level 100.0 %
     Track quality 100.0 %
     Test CRC 2F3460B6
     Copy CRC 2F3460B6
     Track not present in AccurateRip database
     Copy OK

Track  4

     Filename C:\04. Three Days Grace - Lost In You.wav

     Peak level 100.0 %
     Track quality 100.0 %
     Test CRC E87D5934
     Copy CRC E87D5934
     Track not present in AccurateRip database
     Copy OK

Track  5

     Filename C:\05. Three Days Grace - The Good Life.wav

     Peak level 100.0 %
     Track quality 100.0 %
     Test CRC 0BD76E4C
     Copy CRC 0BD76E4C
     Track not present in AccurateRip database
     Copy OK

Track  6

     Filename C:\06. Three Days Grace - No More.wav

     Peak level 100.0 %
     Track quality 100.0 %
     Test CRC 75A834E5
     Copy CRC 75A834E5
     Track not present in AccurateRip database
     Copy OK

Track  7

     Filename C:\07. Three Days Grace - Last To Know.wav

     Peak level 100.0 %
     Track quality 100.0 %
     Test CRC D76ED7C2
     Copy CRC D76ED7C2
     Track not present in AccurateRip database
     Copy OK

Track  8

     Filename C:\08. Three Days Grace - Someone Who Cares.wav

     Peak level 100.0 %
     Track quality 100.0 %
     Test CRC 72BB2C52
     Copy CRC 72BB2C52
     Track not present in AccurateRip database
     Copy OK

Track  9

     Filename C:\09. Three Days Grace - Bully.wav

     Peak level 100.0 %
     Track quality 100.0 %
     Test CRC CC0335EF
     Copy CRC CC0335EF
     Track not present in AccurateRip database
     Copy OK

Track 10

     Filename C:\10. Three Days Grace - Without You.wav

     Peak level 100.0 %
     Track quality 100.0 %
     Test CRC 65095C5E
     Copy CRC 65095C5E
     Track not present in AccurateRip database
     Copy OK

Track 11

     Filename C:\11. Three Days Grace - Goin' Down.wav

     Peak level 100.0 %
     Track quality 100.0 %
     Test CRC DD0FAEC6
     Copy CRC DD0FAEC6
     Track not present in AccurateRip database
     Copy OK

Track 12

     Filename C:\12. Three Days Grace - Life Starts Now.wav

     Peak level 100.0 %
     Track quality 100.0 %
     Test CRC C02A0710
     Copy CRC C02A0710
     Track not present in AccurateRip database
     Copy OK

None of the tracks are present in the AccurateRip database

No errors occurred

End of status report

pic="http://s45.radikal.ru/i109/1001/46/5e6207e2ffcf.jpg"
info [Профиль]  [ЛС] 

FantasticMrFox

Пол: Пол:Муж

Стаж: 13 лет

Сообщений: 711

Россия
Рейтинг

post 06-Янв-2010 16:47 (спустя 18 минут) [-]0[+]

[Цитировать] 

Добавьте .cue файлы в оформление, пожалуйста.
info [Профиль]  [ЛС] 

Derik

Пол: Пол:Муж

Стаж: 13 лет

Сообщений: 746

Антарктида
Рейтинг

post 06-Янв-2010 16:56 (спустя 8 минут) [-]0[+]

[Цитировать] 

FantasticMrFox
Так?

_________________
info [Профиль]  [ЛС] 

post 07-Янв-2010 02:08 (спустя 9 часов) [-]0[+]

Топик был перенесен из форума Анонсы в форум Аltеrnаtivе, Рunk, Indереndеnt (lоsslеss)

FantasticMrFox
 

Shinobi

Пол: Пол:Муж

Стаж: 12 лет

Сообщений: 17

Россия
Рейтинг

post 13-Янв-2010 10:51 (спустя 6 дней) [-]0[+]

[Цитировать] 

але раздавать будет кто нибудь или нет 30% осталось - дайте скорости!!!!!!!

_________________
info [Профиль]  [ЛС] 

stan2099

Стаж: 12 лет

Сообщений: 45

Россия
Рейтинг

post 26-Фев-2010 22:28 (спустя 1 месяц 13 дней) [-]0[+]

[Цитировать] 

Лучшая группа в мире!!!
info [Профиль]  [ЛС] 

AlexR16

Пол: Пол:Муж

Стаж: 12 лет

Сообщений: 18

Предупреждений: 1

Россия
Рейтинг

post 10-Май-2010 20:14 (спустя 2 месяца 11 дней) [-]0[+]

[Цитировать] 

Народ! станьте на раздачу пожалуйста на раздачу!!!
info [Профиль]  [ЛС] 

AlexR16

Пол: Пол:Муж

Стаж: 12 лет

Сообщений: 18

Предупреждений: 1

Россия
Рейтинг

post 14-Май-2010 22:10 (спустя 4 дня) [-]0[+]

[Цитировать] 

АУУУУУУУУУУУУУУууууууууууууууууу СИИДЫЫЫЫЫЫЫЫыыыыыыыыыыы!!!
info [Профиль]  [ЛС] 

Dead Shit

Пол: Пол:Муж

Стаж: 12 лет

Сообщений: 16

Украина
Рейтинг

post 18-Июл-2010 01:33 (спустя 2 месяца 3 дня) [-]0[+]

[Цитировать] 

Станьте кто нибудь на раздачу,очень надо.
info [Профиль]  [ЛС] 

МЕТАЛИСТ

Пол: Пол:Муж

Стаж: 11 лет

Сообщений: 2

Предупреждений: 1

Украина
Рейтинг

post 25-Окт-2010 15:46 (спустя 3 месяца 7 дней) [-]0[+]

[Цитировать] 

Дров в печку!Хочется скачать,очень
info [Профиль]  [ЛС] 

post 29-Июл-2011 22:19 (спустя 9 месяцев 4 дня) [-]0[+]

Топик был перенесен из форума Аltеrnаtivе, Рunk, Indереndеnt (lоsslеss) в форум Архив (Зарубежный Rock)

pexxer
 

packman11

Пол: Пол:Муж

Стаж: 6 лет 11 месяцев

Сообщений: 5

Россия
Рейтинг

post 03-Авг-2021 16:05 (спустя 10 лет) [-]0[+]

[Цитировать] 

Ссылка на торрент не фурычит
info [Профиль]  [ЛС] 
Показать сообщения:    
Ответить на тему

Текущее время: 27-Май 06:09

Часовой пояс: GMT + 4



Вы не можете начинать темы
Вы не можете отвечать на сообщения
Вы не можете редактировать свои сообщения
Вы не можете удалять свои сообщения
Вы не можете голосовать в опросах
Вы не можете прикреплять файлы к сообщениям
Вы не можете скачивать файлы