Ошибка

(Soundtrack) NieR: Automata - Original Soundtrack (3xCD + bonus CD) - 2017, FLAC (tracks+.cue), lossless

Ответить на тему
 
Автор Сообщение

Pray

Пол: Пол:Муж

Стаж: 10 лет

Сообщений: 1411

Украина
Рейтинг

post 12-Май-2017 12:38 1[+]

[Цитировать] 

pic="http://picsee.net/upload/2017-03-28/67e08854187d.jpg"

NieR: Automata Original Soundtrack (3xCD + bonus CD)


Год выпуска: 2017
Страна производитель диска: Japan
Жанр: Soundtrack
Лейбл: Square Enix Music
Каталоговый номер: SQEX-10589-91 + SQEX-10593
Композитор: Keiichi Okabe, Keigo Hoashi, Kuniyuki Takahashi...
Аудиокодек: FLAC (*.flac)
Тип рипа: tracks+.cue
Битрейт аудио: lossless
Продолжительность: 04:20:14
Источник: redacted.ch
CD1:
01. Significance - Nothing [02:40]
02. City Ruins - Rays of Light [06:23]
03. Peaceful Sleep [06:51]
04. Memories of Dust [05:29]
05. Birth of a Wish [04:40]
06. The Color of Depression [03:17]
07. Amusement Park [06:19]
08. A Beautiful Song [04:06]
09. Voice of no Return - Guitar [03:52]
10. Grandma - Destruction [05:32]
11. Faltering Prayer - Dawn Breeze [03:12]
12. Emil's Shop [05:29]
13. Treasured Times [03:47]
14. Vague Hope - Cold Rain [03:36]
15. Weight of the World English Version [05:45]

CD2:
01. Significance [02:40]
02. City Ruins - Shade [06:02]
03. End of the Unknown [04:31]
04. Voice of no Return - Normal [02:54]
05. Pascal [04:47]
06. Forest Kingdom [05:52]
07. Dark Colossus - Kaiju [06:07]
08. Copied City [04:00]
09. Wretched Weaponry MediumDynamic [07:05]
10. Possessed by Disease [05:03]
11. Broken Heart [03:31]
12. Wretched Weaponry Quiet [03:08]
13. Mourning [04:51]
14. Dependent Weakling [05:07]
15. Weight of the World Kowaretasekainouta [05:45]

CD3:
01. Rebirth & Hope [00:37]
02. War & War [04:33]
03. Crumbling Lies - Front [03:27]
04. Widespread Illness [03:19]
05. Fortress of Lies [02:49]
06. Vague Hope - Spring Rain [04:41]
07. Song of the Ancients - Atonement [05:10]
08. Blissful Death [02:36]
09. Emil - Despair [04:47]
10. Faltering Prayer - Starry Sky [03:45]
11. Alien Manifestation [06:28]
12. The Tower [07:44]
13. Bipolar Nightmare [05:00]
14. The Sound of the End [05:27]
15. Weight of the World Nouveau - FR Version [05:48]
16. Weight of the World the End of YoRHa [05:39]

Bonus CD – Hacking Tracks:
01. City Ruins - Ding [2:12]
02. Memories of Dust - Ding [2:32]
03. Birth of a Wish - Ding [3:02]
04. Amusement Park - Ding [2:24]
05. A Beautiful Song - Ding [2:33]
06. End of the Unknown - Ding [2:53]
07. Forest Kingdom - Ding [2:26]
08. Dark Colossus - Kaiju/Ding [2:16]
09. Wretched Weaponry - Ding [3:04]
10. Possessed by Disease - Ding [4:16]
11. Dependent Weakling - Ding [2:40]
12. War & War - Ding [2:28]
13. Song of the Ancients - Atonement/Ding [3:09]
14. The Tower - Ding [3:38]
15. The Sound of the End - Ding [2:40]
16. Weight of the World - Ding [4:02]

Exact Audio Copy V1.3 from 2. September 2016 

EAC extraction logfile from 28. March 2017, 16:58

岡部啓一 / NieR:Automata Original Soundtrack

Used drive : ASUS BW-12B1ST a Adapter: 1 ID: 0

Read mode : Secure
Utilize accurate stream : Yes
Defeat audio cache : Yes
Make use of C2 pointers : No

Read offset correction : 6
Overread into Lead-In and Lead-Out : No
Fill up missing offset samples with silence : Yes
Delete leading and trailing silent blocks : No
Null samples used in CRC calculations : Yes
Used interface : Native Win32 interface for Win NT & 2000
Gap handling : Appended to previous track

Used output format : User Defined Encoder
Selected bitrate : 128 kBit/s
Quality : High
Add ID3 tag : No
Command line compressor : C:\Users\Koda\Documents\flac\win64\flac.exe
Additional command line options : -8 -e -p -V -T "ARTIST=%artist%" -T "TITLE=%title%" -T "ALBUM=%albumtitle%" -T "DATE=%year%" -T "TRACKNUMBER=%tracknr%" -T "GENRE=%genre%" -T "PERFORMER=%albuminterpret%" -T "COMPOSER=%composer%" %haslyrics%--tag-from-file=LYRICS="%lyricsfile%"%haslyrics% -T "ALBUMARTIST=%albumartist%" -T "DISCNUMBER=%cdnumber%" -T "TOTALDISCS=%totalcds%" -T "TOTALTRACKS=%numtracks%" -T "COMMENT=%comment%" %source% -o %dest%

TOC of the extracted CD

Track | Start | Length | Start sector | End sector
---------------------------------------------------------
1 | 0:00.00 | 2:39.48 | 0 | 11972
2 | 2:39.48 | 6:22.60 | 11973 | 40682
3 | 9:02.33 | 6:50.39 | 40683 | 71471
4 | 15:52.72 | 5:29.05 | 71472 | 96151
5 | 21:22.02 | 4:40.11 | 96152 | 117162
6 | 26:02.13 | 3:17.00 | 117163 | 131937
7 | 29:19.13 | 6:19.06 | 131938 | 160368
8 | 35:38.19 | 4:06.02 | 160369 | 178820
9 | 39:44.21 | 3:51.63 | 178821 | 196208
10 | 43:36.09 | 5:31.26 | 196209 | 221059
11 | 49:07.35 | 3:12.10 | 221060 | 235469
12 | 52:19.45 | 5:28.27 | 235470 | 260096
13 | 57:47.72 | 3:46.39 | 260097 | 277085
14 | 61:34.36 | 3:36.10 | 277086 | 293295
15 | 65:10.46 | 5:44.39 | 293296 | 319134

Track 1

Filename G:\EAC Rips\NieR-Automata Original Soundtrack\Disc 1\01 - 意味,無.wav

Pre-gap length 0:00:02.00

Peak level 84.7 %
Extraction speed 3.2 X
Track quality 100.0 %
Test CRC 80A4DF19
Copy CRC 80A4DF19
Track not present in AccurateRip database
Copy OK

Track 2

Filename G:\EAC Rips\NieR-Automata Original Soundtrack\Disc 1\02 - 遺サレタ場所,斜光.wav

Pre-gap length 0:00:00.74

Peak level 99.0 %
Extraction speed 2.2 X
Track quality 99.9 %
Test CRC EAE12D1D
Copy CRC EAE12D1D
Track not present in AccurateRip database
Copy OK

Track 3

Filename G:\EAC Rips\NieR-Automata Original Soundtrack\Disc 1\03 - 穏ヤカナ眠リ.wav

Pre-gap length 0:00:00.74

Peak level 76.0 %
Extraction speed 1.5 X
Track quality 100.0 %
Test CRC F8940CB2
Copy CRC F8940CB2
Track not present in AccurateRip database
Copy OK

Track 4

Filename G:\EAC Rips\NieR-Automata Original Soundtrack\Disc 1\04 - 砂塵ノ記憶.wav

Pre-gap length 0:00:00.74

Peak level 99.0 %
Extraction speed 1.7 X
Track quality 100.0 %
Test CRC 610D12AF
Copy CRC 610D12AF
Track not present in AccurateRip database
Copy OK

Track 5

Filename G:\EAC Rips\NieR-Automata Original Soundtrack\Disc 1\05 - 生マレ出ヅル意思.wav

Pre-gap length 0:00:00.74

Peak level 98.6 %
Extraction speed 1.7 X
Track quality 100.0 %
Test CRC 5A55E6F3
Copy CRC 5A55E6F3
Track not present in AccurateRip database
Copy OK

Track 6

Filename G:\EAC Rips\NieR-Automata Original Soundtrack\Disc 1\06 - 沈痛ノ色.wav

Pre-gap length 0:00:00.74

Peak level 90.7 %
Extraction speed 1.7 X
Track quality 100.0 %
Test CRC C73090AA
Copy CRC C73090AA
Track not present in AccurateRip database
Copy OK

Track 7

Filename G:\EAC Rips\NieR-Automata Original Soundtrack\Disc 1\07 - 遊園施設.wav

Pre-gap length 0:00:00.74

Peak level 96.5 %
Extraction speed 2.0 X
Track quality 100.0 %
Test CRC C959DD60
Copy CRC C959DD60
Track not present in AccurateRip database
Copy OK

Track 8

Filename G:\EAC Rips\NieR-Automata Original Soundtrack\Disc 1\08 - 美シキ歌.wav

Pre-gap length 0:00:00.74

Peak level 98.7 %
Extraction speed 1.8 X
Track quality 99.9 %
Test CRC 45B096EB
Copy CRC 45B096EB
Track not present in AccurateRip database
Copy OK

Track 9

Filename G:\EAC Rips\NieR-Automata Original Soundtrack\Disc 1\09 - 還ラナイ声,ギター.wav

Pre-gap length 0:00:01.37

Peak level 67.4 %
Extraction speed 2.0 X
Track quality 100.0 %
Test CRC B6FE4E97
Copy CRC B6FE4E97
Track not present in AccurateRip database
Copy OK

Track 10

Filename G:\EAC Rips\NieR-Automata Original Soundtrack\Disc 1\10 - オバアチャン,破壊.wav

Pre-gap length 0:00:00.74

Peak level 98.9 %
Extraction speed 2.0 X
Track quality 99.9 %
Test CRC 2EDDBA5B
Copy CRC 2EDDBA5B
Track not present in AccurateRip database
Copy OK

Track 11

Filename G:\EAC Rips\NieR-Automata Original Soundtrack\Disc 1\11 - 澱ンダ祈リ,暁風.wav

Pre-gap length 0:00:02.37

Peak level 64.0 %
Extraction speed 2.1 X
Track quality 100.0 %
Test CRC A49619F2
Copy CRC A49619F2
Track not present in AccurateRip database
Copy OK

Track 12

Filename G:\EAC Rips\NieR-Automata Original Soundtrack\Disc 1\12 - エミール,ショップ.wav

Pre-gap length 0:00:01.36

Peak level 79.5 %
Extraction speed 2.1 X
Track quality 99.9 %
Test CRC CB842686
Copy CRC CB842686
Track not present in AccurateRip database
Copy OK

Track 13

Filename G:\EAC Rips\NieR-Automata Original Soundtrack\Disc 1\13 - 大切ナ時間.wav

Pre-gap length 0:00:00.74

Peak level 53.8 %
Extraction speed 2.3 X
Track quality 100.0 %
Test CRC 7B8103E9
Copy CRC 7B8103E9
Track not present in AccurateRip database
Copy OK

Track 14

Filename G:\EAC Rips\NieR-Automata Original Soundtrack\Disc 1\14 - 曖昧ナ希望,氷雨.wav

Pre-gap length 0:00:02.37

Peak level 89.2 %
Extraction speed 2.0 X
Track quality 99.9 %
Test CRC 0F7B29F8
Copy CRC 0F7B29F8
Track not present in AccurateRip database
Copy OK

Track 15

Filename G:\EAC Rips\NieR-Automata Original Soundtrack\Disc 1\15 - Weight of the World (English Version).wav

Pre-gap length 0:00:01.37

Peak level 99.0 %
Extraction speed 2.5 X
Track quality 100.0 %
Test CRC 0F2E3A13
Copy CRC 0F2E3A13
Track not present in AccurateRip database
Copy OK

None of the tracks are present in the AccurateRip database

No errors occurred

End of status report

---- CUETools DB Plugin V2.1.6

[CTDB TOCID: zd4IyPm0XdJRUZ1diDQKKCNlTtA-] found
Submit result: zd4IyPm0XdJRUZ1diDQKKCNlTtA- has been confirmed
Track | CTDB Status
1 | (51/51) Accurately ripped
2 | (51/51) Accurately ripped
3 | (51/51) Accurately ripped
4 | (51/51) Accurately ripped
5 | (51/51) Accurately ripped
6 | (51/51) Accurately ripped
7 | (51/51) Accurately ripped
8 | (51/51) Accurately ripped
9 | (51/51) Accurately ripped
10 | (51/51) Accurately ripped
11 | (51/51) Accurately ripped
12 | (51/51) Accurately ripped
13 | (51/51) Accurately ripped
14 | (51/51) Accurately ripped
15 | (51/51) Accurately ripped

==== Log checksum 78D757A909D3D87BFBD9F44FD83728DB2FB75FF5F4D62CA2FE882A2776244407 ====
Exact Audio Copy V1.3 from 2. September 2016 

EAC extraction logfile from 28. March 2017, 18:26

岡部啓一 / NieR:Automata Original Soundtrack

Used drive : ASUS BW-12B1ST a Adapter: 1 ID: 0

Read mode : Secure
Utilize accurate stream : Yes
Defeat audio cache : Yes
Make use of C2 pointers : No

Read offset correction : 6
Overread into Lead-In and Lead-Out : No
Fill up missing offset samples with silence : Yes
Delete leading and trailing silent blocks : No
Null samples used in CRC calculations : Yes
Used interface : Native Win32 interface for Win NT & 2000
Gap handling : Appended to previous track

Used output format : User Defined Encoder
Selected bitrate : 128 kBit/s
Quality : High
Add ID3 tag : No
Command line compressor : C:\Users\Koda\Documents\flac\win64\flac.exe
Additional command line options : -8 -e -p -V -T "ARTIST=%artist%" -T "TITLE=%title%" -T "ALBUM=%albumtitle%" -T "DATE=%year%" -T "TRACKNUMBER=%tracknr%" -T "GENRE=%genre%" -T "PERFORMER=%albuminterpret%" -T "COMPOSER=%composer%" %haslyrics%--tag-from-file=LYRICS="%lyricsfile%"%haslyrics% -T "ALBUMARTIST=%albumartist%" -T "DISCNUMBER=%cdnumber%" -T "TOTALDISCS=%totalcds%" -T "TOTALTRACKS=%numtracks%" -T "COMMENT=%comment%" %source% -o %dest%

TOC of the extracted CD

Track | Start | Length | Start sector | End sector
---------------------------------------------------------
1 | 0:00.00 | 2:39.48 | 0 | 11972
2 | 2:39.48 | 6:01.26 | 11973 | 39073
3 | 8:40.74 | 4:31.06 | 39074 | 59404
4 | 13:12.05 | 2:53.36 | 59405 | 72415
5 | 16:05.41 | 4:47.01 | 72416 | 93941
6 | 20:52.42 | 5:52.03 | 93942 | 120344
7 | 26:44.45 | 6:06.31 | 120345 | 147825
8 | 32:51.01 | 3:59.43 | 147826 | 165793
9 | 36:50.44 | 7:04.41 | 165794 | 197634
10 | 43:55.10 | 5:02.58 | 197635 | 220342
11 | 48:57.68 | 3:30.73 | 220343 | 236165
12 | 52:28.66 | 3:07.27 | 236166 | 250217
13 | 55:36.18 | 4:51.11 | 250218 | 272053
14 | 60:27.29 | 5:06.51 | 272054 | 295054
15 | 65:34.05 | 5:44.11 | 295055 | 320865

Track 1

Filename G:\EAC Rips\NieR-Automata Original Soundtrack\Disc 2\01 - 意味.wav

Pre-gap length 0:00:02.00

Peak level 84.8 %
Extraction speed 3.2 X
Track quality 100.0 %
Test CRC A95D9B61
Copy CRC A95D9B61
Track not present in AccurateRip database
Copy OK

Track 2

Filename G:\EAC Rips\NieR-Automata Original Soundtrack\Disc 2\02 - 遺サレタ場所,遮光.wav

Pre-gap length 0:00:00.74

Peak level 98.2 %
Extraction speed 1.3 X
Track quality 100.0 %
Test CRC A19BE80F
Copy CRC A19BE80F
Track not present in AccurateRip database
Copy OK

Track 3

Filename G:\EAC Rips\NieR-Automata Original Soundtrack\Disc 2\03 - 異形ノ末路.wav

Pre-gap length 0:00:00.74

Peak level 100.0 %
Extraction speed 1.4 X
Track quality 100.0 %
Test CRC B63E90C9
Copy CRC B63E90C9
Track not present in AccurateRip database
Copy OK

Track 4

Filename G:\EAC Rips\NieR-Automata Original Soundtrack\Disc 2\04 - 還ラナイ声,通常.wav

Pre-gap length 0:00:01.37

Peak level 82.5 %
Extraction speed 1.4 X
Track quality 100.0 %
Test CRC 386FC064
Copy CRC 386FC064
Track not present in AccurateRip database
Copy OK

Track 5

Filename G:\EAC Rips\NieR-Automata Original Soundtrack\Disc 2\05 - パスカル.wav

Pre-gap length 0:00:01.74

Peak level 98.1 %
Extraction speed 1.6 X
Track quality 100.0 %
Test CRC 884A6695
Copy CRC 884A6695
Track not present in AccurateRip database
Copy OK

Track 6

Filename G:\EAC Rips\NieR-Automata Original Soundtrack\Disc 2\06 - 森ノ王国.wav

Pre-gap length 0:00:01.37

Peak level 97.3 %
Extraction speed 1.8 X
Track quality 100.0 %
Test CRC D62EEA28
Copy CRC D62EEA28
Track not present in AccurateRip database
Copy OK

Track 7

Filename G:\EAC Rips\NieR-Automata Original Soundtrack\Disc 2\07 - 全テヲ破壊スル黒キ巨人,怪獣.wav

Pre-gap length 0:00:00.74

Peak level 98.7 %
Extraction speed 1.9 X
Track quality 100.0 %
Test CRC B27475D4
Copy CRC B27475D4
Track not present in AccurateRip database
Copy OK

Track 8

Filename G:\EAC Rips\NieR-Automata Original Soundtrack\Disc 2\08 - 複製サレタ街.wav

Pre-gap length 0:00:01.74

Peak level 94.1 %
Extraction speed 1.9 X
Track quality 100.0 %
Test CRC 79AE212A
Copy CRC 79AE212A
Track not present in AccurateRip database
Copy OK

Track 9

Filename G:\EAC Rips\NieR-Automata Original Soundtrack\Disc 2\09 - 愚カシイ兵器-乙-甲.wav

Pre-gap length 0:00:01.37

Peak level 97.9 %
Extraction speed 2.1 X
Track quality 100.0 %
Test CRC 89EEFF65
Copy CRC 89EEFF65
Track not present in AccurateRip database
Copy OK

Track 10

Filename G:\EAC Rips\NieR-Automata Original Soundtrack\Disc 2\10 - 取リ憑イタ業病.wav

Pre-gap length 0:00:01.36

Peak level 100.0 %
Extraction speed 1.9 X
Track quality 99.9 %
Test CRC 3FECF7B5
Copy CRC 3FECF7B5
Track not present in AccurateRip database
Copy OK

Track 11

Filename G:\EAC Rips\NieR-Automata Original Soundtrack\Disc 2\11 - 割レタ心.wav

Pre-gap length 0:00:01.74

Peak level 85.9 %
Extraction speed 2.2 X
Track quality 100.0 %
Test CRC 82458F13
Copy CRC 82458F13
Track not present in AccurateRip database
Copy OK

Track 12

Filename G:\EAC Rips\NieR-Automata Original Soundtrack\Disc 2\12 - 愚カシイ兵器-丙.wav

Pre-gap length 0:00:01.36

Peak level 73.6 %
Extraction speed 2.2 X
Track quality 100.0 %
Test CRC 68D1EA33
Copy CRC 68D1EA33
Track not present in AccurateRip database
Copy OK

Track 13

Filename G:\EAC Rips\NieR-Automata Original Soundtrack\Disc 2\13 - 追悼.wav

Pre-gap length 0:00:01.74

Peak level 90.9 %
Extraction speed 2.1 X
Track quality 99.9 %
Test CRC 2A8D3F2A
Copy CRC 2A8D3F2A
Track not present in AccurateRip database
Copy OK

Track 14

Filename G:\EAC Rips\NieR-Automata Original Soundtrack\Disc 2\14 - 依存スル弱者.wav

Pre-gap length 0:00:00.74

Peak level 100.0 %
Extraction speed 2.4 X
Track quality 100.0 %
Test CRC 41ACD3D5
Copy CRC 41ACD3D5
Track not present in AccurateRip database
Copy OK

Track 15

Filename G:\EAC Rips\NieR-Automata Original Soundtrack\Disc 2\15 - Weight of the World,壊レタ世界ノ歌.wav

Pre-gap length 0:00:02.74

Peak level 99.7 %
Extraction speed 2.6 X
Track quality 100.0 %
Test CRC 457AD08E
Copy CRC 457AD08E
Track not present in AccurateRip database
Copy OK

None of the tracks are present in the AccurateRip database

No errors occurred

End of status report

---- CUETools DB Plugin V2.1.6

[CTDB TOCID: YuhXGGnDs0d6QSP8BEWiThM4qYo-] found
Submit result: YuhXGGnDs0d6QSP8BEWiThM4qYo- has been confirmed
Track | CTDB Status
1 | (53/53) Accurately ripped
2 | (53/53) Accurately ripped
3 | (53/53) Accurately ripped
4 | (53/53) Accurately ripped
5 | (53/53) Accurately ripped
6 | (53/53) Accurately ripped
7 | (53/53) Accurately ripped
8 | (52/53) Accurately ripped
9 | (52/53) Accurately ripped
10 | (52/53) Accurately ripped
11 | (52/53) Accurately ripped
12 | (52/53) Accurately ripped
13 | (52/53) Accurately ripped
14 | (52/53) Accurately ripped
15 | (51/53) Accurately ripped

==== Log checksum 07BB5556A34FFE81089DC600C537974B54C0B9265B5BD5FEE2D780E6D2E49036 ====
Exact Audio Copy V1.3 from 2. September 2016 

EAC extraction logfile from 28. March 2017, 20:01

岡部啓一 / NieR:Automata Original Soundtrack

Used drive : ASUS BW-12B1ST a Adapter: 1 ID: 0

Read mode : Secure
Utilize accurate stream : Yes
Defeat audio cache : Yes
Make use of C2 pointers : No

Read offset correction : 6
Overread into Lead-In and Lead-Out : No
Fill up missing offset samples with silence : Yes
Delete leading and trailing silent blocks : No
Null samples used in CRC calculations : Yes
Used interface : Native Win32 interface for Win NT & 2000
Gap handling : Appended to previous track

Used output format : User Defined Encoder
Selected bitrate : 128 kBit/s
Quality : High
Add ID3 tag : No
Command line compressor : C:\Users\Koda\Documents\flac\win64\flac.exe
Additional command line options : -8 -e -p -V -T "ARTIST=%artist%" -T "TITLE=%title%" -T "ALBUM=%albumtitle%" -T "DATE=%year%" -T "TRACKNUMBER=%tracknr%" -T "GENRE=%genre%" -T "PERFORMER=%albuminterpret%" -T "COMPOSER=%composer%" %haslyrics%--tag-from-file=LYRICS="%lyricsfile%"%haslyrics% -T "ALBUMARTIST=%albumartist%" -T "DISCNUMBER=%cdnumber%" -T "TOTALDISCS=%totalcds%" -T "TOTALTRACKS=%numtracks%" -T "COMMENT=%comment%" %source% -o %dest%

TOC of the extracted CD

Track | Start | Length | Start sector | End sector
---------------------------------------------------------
1 | 0:00.00 | 0:37.07 | 0 | 2781
2 | 0:37.07 | 4:32.40 | 2782 | 23221
3 | 5:09.47 | 3:26.26 | 23222 | 38697
4 | 8:35.73 | 3:18.53 | 38698 | 53600
5 | 11:54.51 | 2:49.21 | 53601 | 66296
6 | 14:43.72 | 4:40.33 | 66297 | 87329
7 | 19:24.30 | 5:09.66 | 87330 | 110570
8 | 24:34.21 | 2:36.20 | 110571 | 122290
9 | 27:10.41 | 4:46.72 | 122291 | 143812
10 | 31:57.38 | 3:44.38 | 143813 | 160650
11 | 35:42.01 | 6:27.32 | 160651 | 189707
12 | 42:09.33 | 7:43.66 | 189708 | 224498
13 | 49:53.24 | 5:00.08 | 224499 | 247006
14 | 54:53.32 | 5:26.28 | 247007 | 271484
15 | 60:19.60 | 5:47.32 | 271485 | 297541
16 | 66:07.17 | 5:39.04 | 297542 | 322970

Track 1

Filename G:\EAC Rips\NieR-Automata Original Soundtrack\Disc 3\01 - 再生ト希望.wav

Pre-gap length 0:00:02.00

Peak level 79.9 %
Extraction speed 0.6 X
Track quality 100.0 %
Test CRC 27B0968F
Copy CRC 27B0968F
Track not present in AccurateRip database
Copy OK

Track 2

Filename G:\EAC Rips\NieR-Automata Original Soundtrack\Disc 3\02 - 戦争ト戦争.wav

Pre-gap length 0:00:00.74

Peak level 95.4 %
Extraction speed 1.2 X
Track quality 100.0 %
Test CRC 959542A9
Copy CRC 959542A9
Track not present in AccurateRip database
Copy OK

Track 3

Filename G:\EAC Rips\NieR-Automata Original Soundtrack\Disc 3\03 - 崩壊ノ虚妄.wav

Pre-gap length 0:00:00.74

Peak level 98.4 %
Extraction speed 1.3 X
Track quality 100.0 %
Test CRC CCD8D4F3
Copy CRC CCD8D4F3
Track not present in AccurateRip database
Copy OK

Track 4

Filename G:\EAC Rips\NieR-Automata Original Soundtrack\Disc 3\04 - 茫洋タル病.wav

Pre-gap length 0:00:00.74

Peak level 56.6 %
Extraction speed 1.4 X
Track quality 100.0 %
Test CRC 68C75165
Copy CRC 68C75165
Track not present in AccurateRip database
Copy OK

Track 5

Filename G:\EAC Rips\NieR-Automata Original Soundtrack\Disc 3\05 - 偽リノ城塞.wav

Pre-gap length 0:00:00.74

Peak level 69.1 %
Extraction speed 1.1 X
Track quality 99.9 %
Test CRC 4185C4FA
Copy CRC 4185C4FA
Track not present in AccurateRip database
Copy OK

Track 6

Filename G:\EAC Rips\NieR-Automata Original Soundtrack\Disc 3\06 - 曖昧ナ希望,翠雨.wav

Pre-gap length 0:00:01.37

Peak level 83.7 %
Extraction speed 1.6 X
Track quality 100.0 %
Test CRC 7A389E58
Copy CRC 7A389E58
Track not present in AccurateRip database
Copy OK

Track 7

Filename G:\EAC Rips\NieR-Automata Original Soundtrack\Disc 3\07 - イニシエノウタ,贖罪.wav

Pre-gap length 0:00:01.37

Peak level 98.2 %
Extraction speed 1.7 X
Track quality 100.0 %
Test CRC 9BB85048
Copy CRC 9BB85048
Track not present in AccurateRip database
Copy OK

Track 8

Filename G:\EAC Rips\NieR-Automata Original Soundtrack\Disc 3\08 - 幸セナ死.wav

Pre-gap length 0:00:01.36

Peak level 65.2 %
Extraction speed 1.6 X
Track quality 100.0 %
Test CRC 47C2B95C
Copy CRC 47C2B95C
Track not present in AccurateRip database
Copy OK

Track 9

Filename G:\EAC Rips\NieR-Automata Original Soundtrack\Disc 3\09 - エミール,絶望.wav

Pre-gap length 0:00:00.74

Peak level 99.4 %
Extraction speed 1.9 X
Track quality 100.0 %
Test CRC 29C035CC
Copy CRC 29C035CC
Track not present in AccurateRip database
Copy OK

Track 10

Filename G:\EAC Rips\NieR-Automata Original Soundtrack\Disc 3\10 - 澱ンダ祈リ,星空.wav

Pre-gap length 0:00:01.74

Peak level 30.6 %
Extraction speed 1.9 X
Track quality 100.0 %
Test CRC 68B2C642
Copy CRC 68B2C642
Track not present in AccurateRip database
Copy OK

Track 11

Filename G:\EAC Rips\NieR-Automata Original Soundtrack\Disc 3\11 - 顕現シタ異物.wav

Pre-gap length 0:00:00.74

Peak level 96.4 %
Extraction speed 1.9 X
Track quality 99.9 %
Test CRC F2750B22
Copy CRC F2750B22
Track not present in AccurateRip database
Copy OK

Track 12

Filename G:\EAC Rips\NieR-Automata Original Soundtrack\Disc 3\12 - 「塔」.wav

Pre-gap length 0:00:00.74

Peak level 95.7 %
Extraction speed 2.3 X
Track quality 100.0 %
Test CRC C2AAB95F
Copy CRC C2AAB95F
Track not present in AccurateRip database
Copy OK

Track 13

Filename G:\EAC Rips\NieR-Automata Original Soundtrack\Disc 3\13 - 双極ノ悪夢.wav

Pre-gap length 0:00:00.74

Peak level 99.5 %
Extraction speed 2.0 X
Track quality 99.9 %
Test CRC 438C6C6A
Copy CRC 438C6C6A
Track not present in AccurateRip database
Copy OK

Track 14

Filename G:\EAC Rips\NieR-Automata Original Soundtrack\Disc 3\14 - 終ワリノ音.wav

Pre-gap length 0:00:02.37

Peak level 98.3 %
Extraction speed 2.4 X
Track quality 100.0 %
Test CRC A0F3A45B
Copy CRC A0F3A45B
Track not present in AccurateRip database
Copy OK

Track 15

Filename G:\EAC Rips\NieR-Automata Original Soundtrack\Disc 3\15 - Weight of the World (Nouveau-FR Version).wav

Pre-gap length 0:00:02.37

Peak level 99.5 %
Extraction speed 2.5 X
Track quality 100.0 %
Test CRC 27515114
Copy CRC 27515114
Track not present in AccurateRip database
Copy OK

Track 16

Filename G:\EAC Rips\NieR-Automata Original Soundtrack\Disc 3\16 - Weight of the World,the End of YoRHa.wav

Pre-gap length 0:00:03.37

Peak level 100.0 %
Extraction speed 2.5 X
Track quality 100.0 %
Test CRC 44850B9F
Copy CRC 44850B9F
Track not present in AccurateRip database
Copy OK

None of the tracks are present in the AccurateRip database

No errors occurred

End of status report

---- CUETools DB Plugin V2.1.6

[CTDB TOCID: fbNdzlwVeTN2Wsj7_WFLktUQVzU-] found
Submit result: fbNdzlwVeTN2Wsj7_WFLktUQVzU- has been confirmed
Track | CTDB Status
1 | (51/51) Accurately ripped
2 | (51/51) Accurately ripped
3 | (51/51) Accurately ripped
4 | (51/51) Accurately ripped
5 | (51/51) Accurately ripped
6 | (51/51) Accurately ripped
7 | (51/51) Accurately ripped
8 | (51/51) Accurately ripped
9 | (51/51) Accurately ripped
10 | (51/51) Accurately ripped
11 | (51/51) Accurately ripped
12 | (51/51) Accurately ripped
13 | (51/51) Accurately ripped
14 | (51/51) Accurately ripped
15 | (51/51) Accurately ripped
16 | (51/51) Accurately ripped

==== Log checksum 0E05FD7E854879997C2F0E77542E7DCB258CA8C8C762A5CAAFBA5500F783050E ====
Exact Audio Copy V1.3 from 2. September 2016 

EAC extraction logfile from 29. March 2017, 0:36

岡部啓一 / NieR:Automata Original Soundtrack HACKING TRACKS

Used drive : ASUS BW-12B1ST a Adapter: 1 ID: 0

Read mode : Secure
Utilize accurate stream : Yes
Defeat audio cache : Yes
Make use of C2 pointers : No

Read offset correction : 6
Overread into Lead-In and Lead-Out : No
Fill up missing offset samples with silence : Yes
Delete leading and trailing silent blocks : No
Null samples used in CRC calculations : Yes
Used interface : Native Win32 interface for Win NT & 2000
Gap handling : Appended to previous track

Used output format : User Defined Encoder
Selected bitrate : 128 kBit/s
Quality : High
Add ID3 tag : No
Command line compressor : C:\Users\Koda\Documents\flac\win64\flac.exe
Additional command line options : -8 -e -p -V -T "ARTIST=%artist%" -T "TITLE=%title%" -T "ALBUM=%albumtitle%" -T "DATE=%year%" -T "TRACKNUMBER=%tracknr%" -T "GENRE=%genre%" -T "PERFORMER=%albuminterpret%" -T "COMPOSER=%composer%" %haslyrics%--tag-from-file=LYRICS="%lyricsfile%"%haslyrics% -T "ALBUMARTIST=%albumartist%" -T "DISCNUMBER=%cdnumber%" -T "TOTALDISCS=%totalcds%" -T "TOTALTRACKS=%numtracks%" -T "COMMENT=%comment%" %source% -o %dest%

TOC of the extracted CD

Track | Start | Length | Start sector | End sector
---------------------------------------------------------
1 | 0:00.00 | 2:12.61 | 0 | 9960
2 | 2:12.61 | 2:31.70 | 9961 | 21355
3 | 4:44.56 | 3:02.08 | 21356 | 35013
4 | 7:46.64 | 2:23.55 | 35014 | 45793
5 | 10:10.44 | 2:33.04 | 45794 | 57272
6 | 12:43.48 | 2:52.49 | 57273 | 70221
7 | 15:36.22 | 2:26.00 | 70222 | 81171
8 | 18:02.22 | 2:15.68 | 81172 | 91364
9 | 20:18.15 | 3:03.43 | 91365 | 105132
10 | 23:21.58 | 4:15.49 | 105133 | 124306
11 | 27:37.32 | 2:40.07 | 124307 | 136313
12 | 30:17.39 | 2:27.62 | 136314 | 147400
13 | 32:45.26 | 3:08.44 | 147401 | 161544
14 | 35:53.70 | 3:38.00 | 161545 | 177894
15 | 39:31.70 | 2:40.12 | 177895 | 189906
16 | 42:12.07 | 4:02.17 | 189907 | 208073

Track 1

Filename G:\EAC Rips\NieR-Automata Original Soundtrack\BONUS - Hacking Tracks\01 - 遺サレタ場所:丁.wav

Pre-gap length 0:00:02.00

Peak level 98.8 %
Extraction speed 1.8 X
Track quality 99.9 %
Test CRC E9237A12
Copy CRC E9237A12
Track not present in AccurateRip database
Copy OK

Track 2

Filename G:\EAC Rips\NieR-Automata Original Soundtrack\BONUS - Hacking Tracks\02 - 砂塵ノ記憶:丁.wav

Pre-gap length 0:00:00.74

Peak level 100.0 %
Extraction speed 1.0 X
Track quality 100.0 %
Test CRC 900E003B
Copy CRC 900E003B
Track not present in AccurateRip database
Copy OK

Track 3

Filename G:\EAC Rips\NieR-Automata Original Soundtrack\BONUS - Hacking Tracks\03 - 生マレ出ヅル意思:丁.wav

Pre-gap length 0:00:00.74

Peak level 100.0 %
Extraction speed 1.1 X
Track quality 100.0 %
Test CRC C86D1E59
Copy CRC C86D1E59
Track not present in AccurateRip database
Copy OK

Track 4

Filename G:\EAC Rips\NieR-Automata Original Soundtrack\BONUS - Hacking Tracks\04 - 遊園施設:丁.wav

Pre-gap length 0:00:00.74

Peak level 98.8 %
Extraction speed 0.9 X
Track quality 99.9 %
Test CRC C348DB8E
Copy CRC C348DB8E
Track not present in AccurateRip database
Copy OK

Track 5

Filename G:\EAC Rips\NieR-Automata Original Soundtrack\BONUS - Hacking Tracks\05 - 美シキ歌:丁.wav

Pre-gap length 0:00:00.74

Peak level 98.5 %
Extraction speed 1.1 X
Track quality 99.9 %
Test CRC 6D894E0D
Copy CRC 6D894E0D
Track not present in AccurateRip database
Copy OK

Track 6

Filename G:\EAC Rips\NieR-Automata Original Soundtrack\BONUS - Hacking Tracks\06 - 異形ノ末路:丁.wav

Pre-gap length 0:00:01.74

Peak level 100.0 %
Extraction speed 1.0 X
Track quality 99.9 %
Test CRC 50357B35
Copy CRC 50357B35
Track not present in AccurateRip database
Copy OK

Track 7

Filename G:\EAC Rips\NieR-Automata Original Soundtrack\BONUS - Hacking Tracks\07 - 森ノ王国:丁.wav

Pre-gap length 0:00:00.74

Peak level 98.8 %
Extraction speed 1.3 X
Track quality 100.0 %
Test CRC D24EF71B
Copy CRC D24EF71B
Track not present in AccurateRip database
Copy OK

Track 8

Filename G:\EAC Rips\NieR-Automata Original Soundtrack\BONUS - Hacking Tracks\08 - 全テヲ破壊スル黒キ巨人/怪獣:丁.wav

Pre-gap length 0:00:01.74

Peak level 98.8 %
Extraction speed 1.3 X
Track quality 100.0 %
Test CRC E47B00D1
Copy CRC E47B00D1
Track not present in AccurateRip database
Copy OK

Track 9

Filename G:\EAC Rips\NieR-Automata Original Soundtrack\BONUS - Hacking Tracks\09 - 愚カシイ兵器:丁.wav

Pre-gap length 0:00:00.74

Peak level 95.7 %
Extraction speed 1.2 X
Track quality 99.9 %
Test CRC 107C894D
Copy CRC 107C894D
Track not present in AccurateRip database
Copy OK

Track 10

Filename G:\EAC Rips\NieR-Automata Original Soundtrack\BONUS - Hacking Tracks\10 - 取リ憑イタ業病:丁.wav

Pre-gap length 0:00:00.74

Peak level 99.3 %
Extraction speed 1.4 X
Track quality 99.9 %
Test CRC FB650487
Copy CRC FB650487
Track not present in AccurateRip database
Copy OK

Track 11

Filename G:\EAC Rips\NieR-Automata Original Soundtrack\BONUS - Hacking Tracks\11 - 依存スル弱者:丁.wav

Pre-gap length 0:00:00.74

Peak level 100.0 %
Extraction speed 1.5 X
Track quality 100.0 %
Test CRC 8584EBB3
Copy CRC 8584EBB3
Track not present in AccurateRip database
Copy OK

Track 12

Filename G:\EAC Rips\NieR-Automata Original Soundtrack\BONUS - Hacking Tracks\12 - 戦争ト戦争:丁.wav

Pre-gap length 0:00:00.74

Peak level 98.8 %
Extraction speed 1.6 X
Track quality 100.0 %
Test CRC 569A4774
Copy CRC 569A4774
Track not present in AccurateRip database
Copy OK

Track 13

Filename G:\EAC Rips\NieR-Automata Original Soundtrack\BONUS - Hacking Tracks\13 - イニシエノウタ/贖罪:丁.wav

Pre-gap length 0:00:00.74

Peak level 98.8 %
Extraction speed 1.4 X
Track quality 99.9 %
Test CRC BEE9889B
Copy CRC BEE9889B
Track not present in AccurateRip database
Copy OK

Track 14

Filename G:\EAC Rips\NieR-Automata Original Soundtrack\BONUS - Hacking Tracks\14 - 「塔」:丁.wav

Pre-gap length 0:00:00.08

Peak level 100.0 %
Extraction speed 1.8 X
Track quality 100.0 %
Test CRC 56BAC014
Copy CRC 56BAC014
Track not present in AccurateRip database
Copy OK

Track 15

Filename G:\EAC Rips\NieR-Automata Original Soundtrack\BONUS - Hacking Tracks\15 - 終ワリノ音:丁.wav

Pre-gap length 0:00:00.74

Peak level 95.6 %
Extraction speed 1.7 X
Track quality 100.0 %
Test CRC 86742220
Copy CRC 86742220
Track not present in AccurateRip database
Copy OK

Track 16

Filename G:\EAC Rips\NieR-Automata Original Soundtrack\BONUS - Hacking Tracks\16 - Weight of the World:丁.wav

Pre-gap length 0:00:01.74

Peak level 97.8 %
Extraction speed 1.9 X
Track quality 100.0 %
Test CRC 4616559B
Copy CRC 4616559B
Track not present in AccurateRip database
Copy OK

None of the tracks are present in the AccurateRip database

No errors occurred

End of status report

---- CUETools DB Plugin V2.1.6

[CTDB TOCID: V_j5SXzHBMu8DLlAXIG6KJ790Lw-] found
Submit result: V_j5SXzHBMu8DLlAXIG6KJ790Lw- has been confirmed
Track | CTDB Status
1 | (34/34) Accurately ripped
2 | (34/34) Accurately ripped
3 | (34/34) Accurately ripped
4 | (34/34) Accurately ripped
5 | (34/34) Accurately ripped
6 | (34/34) Accurately ripped
7 | (34/34) Accurately ripped
8 | (34/34) Accurately ripped
9 | (34/34) Accurately ripped
10 | (34/34) Accurately ripped
11 | (34/34) Accurately ripped
12 | (34/34) Accurately ripped
13 | (34/34) Accurately ripped
14 | (34/34) Accurately ripped
15 | (34/34) Accurately ripped
16 | (34/34) Accurately ripped

==== Log checksum 1330A56906B7D906FEE0F5AEEC11354494FFF3CADE028A32359AA5690E028741 ====
REM GENRE Soundtrack 
REM DATE 2017
REM DISCID E0109F0F
REM COMMENT "ExactAudioCopy v1.3"
PERFORMER "...."
TITLE "NieR:Automata Original Soundtrack"
REM COMPOSER ""
FILE "01 - ..,..wav" WAVE
TRACK 01 AUDIO
TITLE "../. "
PERFORMER "...."
REM COMPOSER ""
INDEX 01 00:00:00
TRACK 02 AUDIO
TITLE "....../.."
PERFORMER "...."
REM COMPOSER ""
INDEX 00 02:38:49
FILE "02 - ......,...wav" WAVE
INDEX 01 00:00:00
TRACK 03 AUDIO
TITLE "......"
PERFORMER "...."
REM COMPOSER ""
INDEX 00 06:21:61
FILE "03 - .......wav" WAVE
INDEX 01 00:00:00
TRACK 04 AUDIO
TITLE "....."
PERFORMER "...."
REM COMPOSER ""
INDEX 00 06:49:40
FILE "04 - ......wav" WAVE
INDEX 01 00:00:00
TRACK 05 AUDIO
TITLE "........"
PERFORMER "...."
REM COMPOSER ""
INDEX 00 05:28:06
FILE "05 - .........wav" WAVE
INDEX 01 00:00:00
TRACK 06 AUDIO
TITLE "...."
PERFORMER "...."
REM COMPOSER ""
INDEX 00 04:39:12
FILE "06 - .....wav" WAVE
INDEX 01 00:00:00
TRACK 07 AUDIO
TITLE ".... "
PERFORMER "...."
REM COMPOSER ""
INDEX 00 03:16:01
FILE "07 - .....wav" WAVE
INDEX 01 00:00:00
TRACK 08 AUDIO
TITLE "...."
PERFORMER "...."
REM COMPOSER ""
INDEX 00 06:18:07
FILE "08 - .....wav" WAVE
INDEX 01 00:00:00
TRACK 09 AUDIO
TITLE "...../... "
PERFORMER "...."
REM COMPOSER ""
INDEX 00 04:04:40
FILE "09 - .....,....wav" WAVE
INDEX 01 00:00:00
TRACK 10 AUDIO
TITLE "....../.."
PERFORMER "...."
REM COMPOSER ""
INDEX 00 03:50:64
FILE "10 - ......,...wav" WAVE
INDEX 01 00:00:00
TRACK 11 AUDIO
TITLE "...../.."
PERFORMER "...."
REM COMPOSER ""
INDEX 00 05:28:64
FILE "11 - .....,...wav" WAVE
INDEX 01 00:00:00
TRACK 12 AUDIO
TITLE "..../...."
PERFORMER "...."
REM COMPOSER ""
INDEX 00 03:10:49
FILE "12 - ....,.....wav" WAVE
INDEX 01 00:00:00
TRACK 13 AUDIO
TITLE "....."
PERFORMER "...."
REM COMPOSER ""
INDEX 00 05:27:28
FILE "13 - ......wav" WAVE
INDEX 01 00:00:00
TRACK 14 AUDIO
TITLE "...../.."
PERFORMER "...."
REM COMPOSER ""
INDEX 00 03:44:02
FILE "14 - .....,...wav" WAVE
INDEX 01 00:00:00
TRACK 15 AUDIO
TITLE "Weight of the World (English Version)"
PERFORMER "...."
REM COMPOSER ""
INDEX 00 03:34:48
FILE "15 - Weight of the World (English Version).wav" WAVE
INDEX 01 00:00:00
REM GENRE Soundtrack 
REM DATE 2017
REM DISCID DD10B60F
REM COMMENT "ExactAudioCopy v1.3"
PERFORMER "...."
TITLE "NieR:Automata Original Soundtrack"
REM COMPOSER ""
FILE "01 - ...wav" WAVE
TRACK 01 AUDIO
TITLE ".. "
PERFORMER "...."
REM COMPOSER ""
INDEX 01 00:00:00
TRACK 02 AUDIO
TITLE "....../.."
PERFORMER "...."
REM COMPOSER ""
INDEX 00 02:38:49
FILE "02 - ......,...wav" WAVE
INDEX 01 00:00:00
TRACK 03 AUDIO
TITLE "....."
PERFORMER "...."
REM COMPOSER ""
INDEX 00 06:00:27
FILE "03 - ......wav" WAVE
INDEX 01 00:00:00
TRACK 04 AUDIO
TITLE "...../.."
PERFORMER "...."
REM COMPOSER ""
INDEX 00 04:29:44
FILE "04 - .....,...wav" WAVE
INDEX 01 00:00:00
TRACK 05 AUDIO
TITLE ".... "
PERFORMER "...."
REM COMPOSER ""
INDEX 00 02:51:37
FILE "05 - .....wav" WAVE
INDEX 01 00:00:00
TRACK 06 AUDIO
TITLE ".... "
PERFORMER "...."
REM COMPOSER ""
INDEX 00 04:45:39
FILE "06 - .....wav" WAVE
INDEX 01 00:00:00
TRACK 07 AUDIO
TITLE ".........../.."
PERFORMER "...."
REM COMPOSER ""
INDEX 00 05:51:04
FILE "07 - ...........,...wav" WAVE
INDEX 01 00:00:00
TRACK 08 AUDIO
TITLE "...... "
PERFORMER "...."
REM COMPOSER ""
INDEX 00 06:04:32
FILE "08 - .......wav" WAVE
INDEX 01 00:00:00
TRACK 09 AUDIO
TITLE "......:.:."
PERFORMER "...."
REM COMPOSER ""
INDEX 00 03:58:06
FILE "09 - ......-.-..wav" WAVE
INDEX 01 00:00:00
TRACK 10 AUDIO
TITLE "......."
PERFORMER "...."
REM COMPOSER ""
INDEX 00 07:03:05
FILE "10 - ........wav" WAVE
INDEX 01 00:00:00
TRACK 11 AUDIO
TITLE "...."
PERFORMER "...."
REM COMPOSER ""
INDEX 00 05:00:59
FILE "11 - .....wav" WAVE
INDEX 01 00:00:00
TRACK 12 AUDIO
TITLE "......:."
PERFORMER "...."
REM COMPOSER ""
INDEX 00 03:29:37
FILE "12 - ......-..wav" WAVE
INDEX 01 00:00:00
TRACK 13 AUDIO
TITLE ".."
PERFORMER "...."
REM COMPOSER ""
INDEX 00 03:05:28
FILE "13 - ...wav" WAVE
INDEX 01 00:00:00
TRACK 14 AUDIO
TITLE "...... "
PERFORMER "...."
REM COMPOSER ""
INDEX 00 04:50:12
FILE "14 - .......wav" WAVE
INDEX 01 00:00:00
TRACK 15 AUDIO
TITLE "Weight of the World/......."
PERFORMER "...."
REM COMPOSER ""
INDEX 00 05:03:52
FILE "15 - Weight of the World,........wav" WAVE
INDEX 01 00:00:00
REM DISCID EC10D210 
REM COMMENT "ExactAudioCopy v1.3"
PERFORMER "...."
TITLE "NieR:Automata Original Soundtrack"
REM COMPOSER ""
FILE "01 - ......wav" WAVE
TRACK 01 AUDIO
TITLE "..... "
PERFORMER "...."
REM COMPOSER ""
INDEX 01 00:00:00
TRACK 02 AUDIO
TITLE "....."
PERFORMER "...."
REM COMPOSER ""
INDEX 00 00:36:08
FILE "02 - ......wav" WAVE
INDEX 01 00:00:00
TRACK 03 AUDIO
TITLE "....."
PERFORMER "...."
REM COMPOSER ""
INDEX 00 04:31:41
FILE "03 - ......wav" WAVE
INDEX 01 00:00:00
TRACK 04 AUDIO
TITLE "....."
PERFORMER "...."
REM COMPOSER ""
INDEX 00 03:25:27
FILE "04 - ......wav" WAVE
INDEX 01 00:00:00
TRACK 05 AUDIO
TITLE "....."
PERFORMER "...."
REM COMPOSER ""
INDEX 00 03:17:54
FILE "05 - ......wav" WAVE
INDEX 01 00:00:00
TRACK 06 AUDIO
TITLE "...../.."
PERFORMER "...."
REM COMPOSER ""
INDEX 00 02:47:59
FILE "06 - .....,...wav" WAVE
INDEX 01 00:00:00
TRACK 07 AUDIO
TITLE "......./.."
PERFORMER "...."
REM COMPOSER ""
INDEX 00 04:38:71
FILE "07 - .......,...wav" WAVE
INDEX 01 00:00:00
TRACK 08 AUDIO
TITLE ".... "
PERFORMER "...."
REM COMPOSER ""
INDEX 00 05:08:30
FILE "08 - .....wav" WAVE
INDEX 01 00:00:00
TRACK 09 AUDIO
TITLE "..../.. "
PERFORMER "...."
REM COMPOSER ""
INDEX 00 02:35:21
FILE "09 - ....,...wav" WAVE
INDEX 01 00:00:00
TRACK 10 AUDIO
TITLE "...../.."
PERFORMER "...."
REM COMPOSER ""
INDEX 00 04:44:73
FILE "10 - .....,...wav" WAVE
INDEX 01 00:00:00
TRACK 11 AUDIO
TITLE "...... "
PERFORMER "...."
REM COMPOSER ""
INDEX 00 03:43:39
FILE "11 - .......wav" WAVE
INDEX 01 00:00:00
TRACK 12 AUDIO
TITLE "..."
PERFORMER "...."
REM COMPOSER ""
INDEX 00 06:26:33
FILE "12 - ....wav" WAVE
INDEX 01 00:00:00
TRACK 13 AUDIO
TITLE "....."
PERFORMER "...."
REM COMPOSER ""
INDEX 00 07:42:67
FILE "13 - ......wav" WAVE
INDEX 01 00:00:00
TRACK 14 AUDIO
TITLE "....."
PERFORMER "...."
REM COMPOSER ""
INDEX 00 04:57:46
FILE "14 - ......wav" WAVE
INDEX 01 00:00:00
TRACK 15 AUDIO
TITLE "Weight of the World (Nouveau-FR Version)"
PERFORMER "...."
REM COMPOSER ""
INDEX 00 05:23:66
FILE "15 - Weight of the World (Nouveau-FR Version).wav" WAVE
INDEX 01 00:00:00
TRACK 16 AUDIO
TITLE "Weight of the World/the End of YoRHa "
PERFORMER "...."
REM COMPOSER ""
INDEX 00 05:43:70
FILE "16 - Weight of the World,the End of YoRHa.wav" WAVE
INDEX 01 00:00:00
REM GENRE Soundtrack 
REM DATE 2017
REM DISCID DE0AD610
REM COMMENT "ExactAudioCopy v1.3"
PERFORMER "...."
TITLE "NieR:Automata Original Soundtrack HACKING TRACKS"
REM COMPOSER ""
FILE "01 - ......:..wav" WAVE
TRACK 01 AUDIO
TITLE "......:."
PERFORMER "...."
REM COMPOSER ""
INDEX 01 00:00:00
TRACK 02 AUDIO
TITLE ".....:."
PERFORMER "...."
REM COMPOSER ""
INDEX 00 02:11:62
FILE "02 - .....:..wav" WAVE
INDEX 01 00:00:00
TRACK 03 AUDIO
TITLE "........:."
PERFORMER "...."
REM COMPOSER ""
INDEX 00 02:30:71
FILE "03 - ........:..wav" WAVE
INDEX 01 00:00:00
TRACK 04 AUDIO
TITLE "....:."
PERFORMER "...."
REM COMPOSER ""
INDEX 00 03:01:09
FILE "04 - ....:..wav" WAVE
INDEX 01 00:00:00
TRACK 05 AUDIO
TITLE "....:."
PERFORMER "...."
REM COMPOSER ""
INDEX 00 02:22:56
FILE "05 - ....:..wav" WAVE
INDEX 01 00:00:00
TRACK 06 AUDIO
TITLE ".....:."
PERFORMER "...."
REM COMPOSER ""
INDEX 00 02:31:05
FILE "06 - .....:..wav" WAVE
INDEX 01 00:00:00
TRACK 07 AUDIO
TITLE "....:."
PERFORMER "...."
REM COMPOSER ""
INDEX 00 02:51:50
FILE "07 - ....:..wav" WAVE
INDEX 01 00:00:00
TRACK 08 AUDIO
TITLE ".........../..:."
PERFORMER "...."
REM COMPOSER ""
INDEX 00 02:24:01
FILE "08 - .........../..:..wav" WAVE
INDEX 01 00:00:00
TRACK 09 AUDIO
TITLE "......:."
PERFORMER "...."
REM COMPOSER ""
INDEX 00 02:14:69
FILE "09 - ......:..wav" WAVE
INDEX 01 00:00:00
TRACK 10 AUDIO
TITLE ".......:."
PERFORMER "...."
REM COMPOSER ""
INDEX 00 03:02:44
FILE "10 - .......:..wav" WAVE
INDEX 01 00:00:00
TRACK 11 AUDIO
TITLE "......:."
PERFORMER "...."
REM COMPOSER ""
INDEX 00 04:14:50
FILE "11 - ......:..wav" WAVE
INDEX 01 00:00:00
TRACK 12 AUDIO
TITLE ".....:."
PERFORMER "...."
REM COMPOSER ""
INDEX 00 02:39:08
FILE "12 - .....:..wav" WAVE
INDEX 01 00:00:00
TRACK 13 AUDIO
TITLE "......./..:."
PERFORMER "...."
REM COMPOSER ""
INDEX 00 02:26:63
FILE "13 - ......./..:..wav" WAVE
INDEX 01 00:00:00
TRACK 14 AUDIO
TITLE "...:."
PERFORMER "...."
REM COMPOSER ""
INDEX 00 03:08:36
FILE "14 - ...:..wav" WAVE
INDEX 01 00:00:00
TRACK 15 AUDIO
TITLE ".....:."
PERFORMER "...."
REM COMPOSER ""
INDEX 00 03:37:01
FILE "15 - .....:..wav" WAVE
INDEX 01 00:00:00
TRACK 16 AUDIO
TITLE "Weight of the World:."
PERFORMER "...."
REM COMPOSER ""
INDEX 00 02:38:13
FILE "16 - Weight of the World:..wav" WAVE
INDEX 01 00:00:00
          
          

info [Профиль]  [ЛС] 

youtoome123

Стаж: 12 лет

Сообщений: 334

Рейтинг

post 12-Май-2017 16:28 (спустя 3 часа) [-]5[+]

[Цитировать] 

Ост поистине шедевральный.
info [Профиль]  [ЛС] 

akumajo

Пол: Пол:Муж

Стаж: 12 лет

Сообщений: 153

Украина
Рейтинг

post 14-Май-2017 20:13 (спустя 2 дня 3 часа) [-]1[+]

[Цитировать] 

Большое спасибо! Редко когда саундтрек ТАК цепляет.
И еще, кто-нибудь знает на каком языке песни? К примеру, Memories of Dust, там явно не на японском.
info [Профиль]  [ЛС] 

ave_LorD

Пол: Пол:Муж

Стаж: 10 лет

Сообщений: 34

Украина
Рейтинг

post 25-Авг-2017 18:31 (спустя 3 месяца 10 дней) [-]1[+]

[Цитировать] 

Спасибо большое! Давно такого шикарного саундтрека не слышал. Weight of the World - вообще шедевр!
info [Профиль]  [ЛС] 

Devillus

Пол: Пол:Муж

Стаж: 10 лет

Сообщений: 66

Предупреждений: 1

Украина
Рейтинг

post 20-Янв-2018 00:11 (спустя 4 месяца 25 дней) [-]1[+]

[Цитировать] 

akumajo писал(а):

Большое спасибо! Редко когда саундтрек ТАК цепляет.
И еще, кто-нибудь знает на каком языке песни? К примеру, Memories of Dust, там явно не на японском.
язык писался специально под игру лингвистами. Там гремучая смесь многих языков

_________________
info [Профиль]  [ЛС] 
Показать сообщения:    
Ответить на тему

Текущее время: 29-Май 03:19

Часовой пояс: GMT + 4



Вы не можете начинать темы
Вы не можете отвечать на сообщения
Вы не можете редактировать свои сообщения
Вы не можете удалять свои сообщения
Вы не можете голосовать в опросах
Вы не можете прикреплять файлы к сообщениям
Вы не можете скачивать файлы