Ошибка

(Шансон) (вокал) Григорий Лепс - Берега. Избранное. Live (2010) FLAC (image+.cue) lossless

Ответить на тему
 
Автор Сообщение

88lena888

Пол: Пол:Жен

Стаж: 9 лет

Сообщений: 20

Предупреждений: 1

Украина
Рейтинг

post 17-Июл-2011 09:49 0[+]

[Цитировать] 

Григорий Лепс - Берега. Избранное. Live
Жанр: Шансон
Страна-производитель диска: Россия
Год издания диска: 2010
Издатель (лейбл): Мистерия Рекордс
Страна: Россия
Аудио кодек: FLAC (*.flac)
Тип рипа: image+.cue
Битрейт аудио: lossless
Продолжительность: 02:24:24
Источник (релизер): Собственный рип
Треклист
CD 1
01. Водопад
02. Берега
03. Беги по небу
04. Замерзает Cолнце
05. Приказ
06. Вьюга
07. Ну и что
08. Небо
09. Бессонница
10. Что может человек
11. Парус
12. Купола
13. Расскажи

CD 2
01. Крыса-ревность
02. Нет, нет, нет
03. Ты опоздала
04. Слова
05. Я тебя не люблю
06. Лабиринт
07. Песня императора
08. Черный снегопад
09. Уходи красиво
10. Роковая любовь
11. Падают листья
12. Она
13. Рюмка водки на столе
14. Новый год
15. Свои
16. Разные люди
17. Дорога

Код:

Exact Audio Copy V1.0 beta 2 from 29. April 2011

 EAC extraction logfile from 2. June 2011, 13:25

 Григорий Лепс / Берега. Избранное. CD1

 Used drive : ASUS SDRW-08D2S-U Adapter: 0 ID: 0

 Read mode : Secure
 Utilize accurate stream : Yes
 Defeat audio cache : Yes
 Make use of C2 pointers : No

 Read offset correction : 103
 Overread into Lead-In and Lead-Out : No
 Fill up missing offset samples with silence : Yes
 Delete leading and trailing silent blocks : No
 Null samples used in CRC calculations : Yes
 Used interface : Installed external ASPI interface
 Gap handling : Appended to previous track

 Used output format : User Defined Encoder
 Selected bitrate : 1024 kBit/s
 Quality : High
 Add ID3 tag : No
 Command line compressor : C:\Program Files (x86)\Exact Audio Copy\Flac\flac.exe
 Additional command line options : -8 -V -T "ARTIST=%albumartist%" -T "TITLE=%title%" -T "ALBUM=%albumtitle%" -T "DATE=%year%" -T "TRACKNUMBER=%tracknr%" -T "GENRE=%genre%" -T "COMMENT=EAC FLAC -8" %source%

 TOC of the extracted CD

 Track | Start | Length | Start sector | End sector
 ---------------------------------------------------------
 1 | 0:00.00 | 6:13.42 | 0 | 28016
 2 | 6:13.42 | 4:11.26 | 28017 | 46867
 3 | 10:24.68 | 4:26.43 | 46868 | 66860
 4 | 14:51.36 | 5:16.10 | 66861 | 90570
 5 | 20:07.46 | 4:14.63 | 90571 | 109683
 6 | 24:22.34 | 4:34.54 | 109684 | 130287
 7 | 28:57.13 | 5:34.10 | 130288 | 155347
 8 | 34:31.23 | 4:40.49 | 155348 | 176396
 9 | 39:11.72 | 4:22.32 | 176397 | 196078
 10 | 43:34.29 | 7:19.26 | 196079 | 229029
 11 | 50:53.55 | 3:01.11 | 229030 | 242615
 12 | 53:54.66 | 6:43.47 | 242616 | 272887
 13 | 60:38.38 | 5:43.29 | 272888 | 298641

 Track 1

 Filename D:\eac\Григорий Лепс - 2010 - Берега. Избранное. CD1 [FLAC (tracks+.cue)]\01 - Водопад.wav

 Pre-gap length 0:00:02.00

 Peak level 100.0 %
 Extraction speed 2.9 X
 Track quality 100.0 %
 Test CRC EA7DAB8B
 Copy CRC EA7DAB8B
 Copy OK

 Track 2

 Filename D:\eac\Григорий Лепс - 2010 - Берега. Избранное. CD1 [FLAC (tracks+.cue)]\02 - Берега.wav

 Peak level 99.8 %
 Extraction speed 2.7 X
 Track quality 99.9 %
 Test CRC DE69CBDD
 Copy CRC DE69CBDD
 Copy OK

 Track 3

 Filename D:\eac\Григорий Лепс - 2010 - Берега. Избранное. CD1 [FLAC (tracks+.cue)]\03 - Беги по небу.wav

 Peak level 100.0 %
 Extraction speed 3.0 X
 Track quality 99.9 %
 Test CRC 7E163691
 Copy CRC 7E163691
 Copy OK

 Track 4

 Filename D:\eac\Григорий Лепс - 2010 - Берега. Избранное. CD1 [FLAC (tracks+.cue)]\04 - Замерзает Солнце.wav

 Peak level 100.0 %
 Extraction speed 3.9 X
 Track quality 100.0 %
 Test CRC C1ED48EF
 Copy CRC C1ED48EF
 Copy OK

 Track 5

 Filename D:\eac\Григорий Лепс - 2010 - Берега. Избранное. CD1 [FLAC (tracks+.cue)]\05 - Приказ.wav

 Peak level 100.0 %
 Extraction speed 4.1 X
 Track quality 100.0 %
 Test CRC 0F4E583F
 Copy CRC 0F4E583F
 Copy OK

 Track 6

 Filename D:\eac\Григорий Лепс - 2010 - Берега. Избранное. CD1 [FLAC (tracks+.cue)]\06 - Вьюга.wav

 Peak level 100.0 %
 Extraction speed 4.3 X
 Track quality 100.0 %
 Test CRC F5767BBE
 Copy CRC F5767BBE
 Copy OK

 Track 7

 Filename D:\eac\Григорий Лепс - 2010 - Берега. Избранное. CD1 [FLAC (tracks+.cue)]\07 - Ну и что.wav

 Peak level 100.0 %
 Extraction speed 4.7 X
 Track quality 100.0 %
 Test CRC D0360885
 Copy CRC D0360885
 Copy OK

 Track 8

 Filename D:\eac\Григорий Лепс - 2010 - Берега. Избранное. CD1 [FLAC (tracks+.cue)]\08 - Небо.wav

 Peak level 100.0 %
 Extraction speed 4.8 X
 Track quality 100.0 %
 Test CRC 49800CAA
 Copy CRC 49800CAA
 Copy OK

 Track 9

 Filename D:\eac\Григорий Лепс - 2010 - Берега. Избранное. CD1 [FLAC (tracks+.cue)]\09 - Бессонница.wav

 Peak level 100.0 %
 Extraction speed 4.9 X
 Track quality 100.0 %
 Test CRC F5F9B984
 Copy CRC F5F9B984
 Copy OK

 Track 10

 Filename D:\eac\Григорий Лепс - 2010 - Берега. Избранное. CD1 [FLAC (tracks+.cue)]\10 - Что может человек.wav

 Peak level 100.0 %
 Extraction speed 5.4 X
 Track quality 100.0 %
 Test CRC BF8FCA0B
 Copy CRC BF8FCA0B
 Copy OK

 Track 11

 Filename D:\eac\Григорий Лепс - 2010 - Берега. Избранное. CD1 [FLAC (tracks+.cue)]\11 - Парус.wav

 Peak level 100.0 %
 Extraction speed 5.0 X
 Track quality 100.0 %
 Test CRC E9EB4E74
 Copy CRC E9EB4E74
 Copy OK

 Track 12

 Filename D:\eac\Григорий Лепс - 2010 - Берега. Избранное. CD1 [FLAC (tracks+.cue)]\12 - Купола.wav

 Peak level 100.0 %
 Extraction speed 5.7 X
 Track quality 100.0 %
 Test CRC B0CA752E
 Copy CRC B0CA752E
 Copy OK

 Track 13

 Filename D:\eac\Григорий Лепс - 2010 - Берега. Избранное. CD1 [FLAC (tracks+.cue)]\13 - Расскажи.wav

 Peak level 100.0 %
 Extraction speed 5.9 X
 Track quality 100.0 %
 Test CRC A3904DFE
 Copy CRC A3904DFE
 Copy OK

 No errors occurred

 End of status report

Код:

Exact Audio Copy V1.0 beta 2 from 29. April 2011

 EAC extraction logfile from 2. June 2011, 14:31

 Григорий Лепс / Берега. Избранное. CD2

 Used drive : ASUS SDRW-08D2S-U Adapter: 0 ID: 0

 Read mode : Secure
 Utilize accurate stream : Yes
 Defeat audio cache : Yes
 Make use of C2 pointers : No

 Read offset correction : 103
 Overread into Lead-In and Lead-Out : No
 Fill up missing offset samples with silence : Yes
 Delete leading and trailing silent blocks : No
 Null samples used in CRC calculations : Yes
 Used interface : Installed external ASPI interface
 Gap handling : Appended to previous track

 Used output format : User Defined Encoder
 Selected bitrate : 1024 kBit/s
 Quality : High
 Add ID3 tag : No
 Command line compressor : C:\Program Files (x86)\Exact Audio Copy\Flac\flac.exe
 Additional command line options : -8 -V -T "ARTIST=%albumartist%" -T "TITLE=%title%" -T "ALBUM=%albumtitle%" -T "DATE=%year%" -T "TRACKNUMBER=%tracknr%" -T "GENRE=%genre%" -T "COMMENT=EAC FLAC -8" %source%

 TOC of the extracted CD

 Track | Start | Length | Start sector | End sector
 ---------------------------------------------------------
 1 | 0:00.00 | 4:08.14 | 0 | 18613
 2 | 4:08.14 | 4:11.06 | 18614 | 37444
 3 | 8:19.20 | 3:23.47 | 37445 | 52716
 4 | 11:42.67 | 3:49.03 | 52717 | 69894
 5 | 15:31.70 | 3:44.32 | 69895 | 86726
 6 | 19:16.27 | 5:19.32 | 86727 | 110683
 7 | 24:35.59 | 3:49.41 | 110684 | 127899
 8 | 28:25.25 | 4:25.51 | 127900 | 147825
 9 | 32:51.01 | 3:57.57 | 147826 | 165657
 10 | 36:48.58 | 5:06.34 | 165658 | 188641
 11 | 41:55.17 | 3:35.19 | 188642 | 204785
 12 | 45:30.36 | 4:18.17 | 204786 | 224152
 13 | 49:48.53 | 5:16.23 | 224153 | 247875
 14 | 55:05.01 | 6:20.66 | 247876 | 276441
 15 | 61:25.67 | 6:54.57 | 276442 | 307548
 16 | 68:20.49 | 4:56.27 | 307549 | 329775
 17 | 73:17.01 | 4:45.53 | 329776 | 351203

 Track 1

 Filename D:\eac\Григорий Лепс - 2010 - Берега. Избранное. CD2 [FLAC (tracks+.cue)]\01 - Крыса-ревность.wav

 Pre-gap length 0:00:02.00

 Peak level 100.0 %
 Extraction speed 2.8 X
 Track quality 100.0 %
 Test CRC B36F4CBD
 Copy CRC B36F4CBD
 Copy OK

 Track 2

 Filename D:\eac\Григорий Лепс - 2010 - Берега. Избранное. CD2 [FLAC (tracks+.cue)]\02 - Нет, нет, нет.wav

 Peak level 100.0 %
 Extraction speed 3.3 X
 Track quality 100.0 %
 Test CRC 8AA6BB69
 Copy CRC 8AA6BB69
 Copy OK

 Track 3

 Filename D:\eac\Григорий Лепс - 2010 - Берега. Избранное. CD2 [FLAC (tracks+.cue)]\03 - Ты опоздала.wav

 Peak level 100.0 %
 Extraction speed 3.4 X
 Track quality 100.0 %
 Test CRC 7C5FFBC0
 Copy CRC 7C5FFBC0
 Copy OK

 Track 4

 Filename D:\eac\Григорий Лепс - 2010 - Берега. Избранное. CD2 [FLAC (tracks+.cue)]\04 - Слова.wav

 Peak level 100.0 %
 Extraction speed 2.9 X
 Track quality 99.9 %
 Test CRC 4028BEE9
 Copy CRC 4028BEE9
 Copy OK

 Track 5

 Filename D:\eac\Григорий Лепс - 2010 - Берега. Избранное. CD2 [FLAC (tracks+.cue)]\05 - Я тебя не люблю.wav

 Peak level 99.9 %
 Extraction speed 3.1 X
 Track quality 99.9 %
 Test CRC 7F2BCB5E
 Copy CRC 7F2BCB5E
 Copy OK

 Track 6

 Filename D:\eac\Григорий Лепс - 2010 - Берега. Избранное. CD2 [FLAC (tracks+.cue)]\06 - Лабиринт.wav

 Peak level 100.0 %
 Extraction speed 4.2 X
 Track quality 100.0 %
 Test CRC FC275F95
 Copy CRC FC275F95
 Copy OK

 Track 7

 Filename D:\eac\Григорий Лепс - 2010 - Берега. Избранное. CD2 [FLAC (tracks+.cue)]\07 - Песня Императора.wav

 Peak level 100.0 %
 Extraction speed 4.1 X
 Track quality 100.0 %
 Test CRC 06C9CBB0
 Copy CRC 06C9CBB0
 Copy OK

 Track 8

 Filename D:\eac\Григорий Лепс - 2010 - Берега. Избранное. CD2 [FLAC (tracks+.cue)]\08 - Черный снегопад.wav

 Peak level 99.3 %
 Extraction speed 4.5 X
 Track quality 100.0 %
 Test CRC 15E60643
 Copy CRC 15E60643
 Copy OK

 Track 9

 Filename D:\eac\Григорий Лепс - 2010 - Берега. Избранное. CD2 [FLAC (tracks+.cue)]\09 - Уходи красиво.wav

 Peak level 100.0 %
 Extraction speed 4.5 X
 Track quality 100.0 %
 Test CRC 8019D981
 Copy CRC 8019D981
 Copy OK

 Track 10

 Filename D:\eac\Григорий Лепс - 2010 - Берега. Избранное. CD2 [FLAC (tracks+.cue)]\10 - Роковая любовь.wav

 Peak level 99.2 %
 Extraction speed 4.8 X
 Track quality 100.0 %
 Test CRC 02787F19
 Copy CRC 02787F19
 Copy OK

 Track 11

 Filename D:\eac\Григорий Лепс - 2010 - Берега. Избранное. CD2 [FLAC (tracks+.cue)]\11 - Падают листья.wav

 Peak level 100.0 %
 Extraction speed 4.6 X
 Track quality 100.0 %
 Test CRC E4EEEE28
 Copy CRC E4EEEE28
 Copy OK

 Track 12

 Filename D:\eac\Григорий Лепс - 2010 - Берега. Избранное. CD2 [FLAC (tracks+.cue)]\12 - Она.wav

 Peak level 100.0 %
 Extraction speed 5.2 X
 Track quality 100.0 %
 Test CRC 75E351A9
 Copy CRC 75E351A9
 Copy OK

 Track 13

 Filename D:\eac\Григорий Лепс - 2010 - Берега. Избранное. CD2 [FLAC (tracks+.cue)]\13 - Рюмка водки на столе.wav

 Peak level 100.0 %
 Extraction speed 5.4 X
 Track quality 100.0 %
 Test CRC 3454EBD6
 Copy CRC 3454EBD6
 Copy OK

 Track 14

 Filename D:\eac\Григорий Лепс - 2010 - Берега. Избранное. CD2 [FLAC (tracks+.cue)]\14 - Новый год.wav

 Peak level 100.0 %
 Extraction speed 5.5 X
 Track quality 100.0 %
 Test CRC 4104730B
 Copy CRC 4104730B
 Copy OK

 Track 15

 Filename D:\eac\Григорий Лепс - 2010 - Берега. Избранное. CD2 [FLAC (tracks+.cue)]\15 - Свои.wav

 Peak level 100.0 %
 Extraction speed 5.8 X
 Track quality 100.0 %
 Test CRC AD61FBFC
 Copy CRC AD61FBFC
 Copy OK

 Track 16

 Filename D:\eac\Григорий Лепс - 2010 - Берега. Избранное. CD2 [FLAC (tracks+.cue)]\16 - Разные люди.wav

 Peak level 100.0 %
 Extraction speed 5.7 X
 Track quality 100.0 %
 Test CRC 4681C7A3
 Copy CRC 4681C7A3
 Copy OK

 Track 17

 Filename D:\eac\Григорий Лепс - 2010 - Берега. Избранное. CD2 [FLAC (tracks+.cue)]\17 - Дорога.wav

 Peak level 100.0 %
 Extraction speed 3.6 X
 Track quality 99.8 %
 Test CRC A4506640
 Copy CRC A4506640
 Copy OK

 No errors occurred

 End of status report
info [Профиль]  [ЛС] 

Raa

Пол: Пол:Муж

Стаж: 11 лет

Сообщений: 1099

Рейтинг

post 17-Июл-2011 18:57 (спустя 9 часов) [-]0[+]

[Цитировать] 

Лог ЕАС должен быть в тэге

Код:

[code][/code]
info [Профиль]  [ЛС] 

Slayds7

Пол: Пол:Муж

Стаж: 6 лет 5 месяцев

Сообщений: 2

Россия
Рейтинг

post 11-Янв-2015 15:10 (спустя 3 года 5 месяцев) [-]0[+]

[Цитировать] 

Встаньте кто-нибудь на раздачу пожалуйста. Кнопка - "позвать скачавших" не помогла.
info [Профиль]  [ЛС] 
Показать сообщения:    
Ответить на тему

Текущее время: 11-Май 23:41

Часовой пояс: GMT + 4



Вы не можете начинать темы
Вы не можете отвечать на сообщения
Вы не можете редактировать свои сообщения
Вы не можете удалять свои сообщения
Вы не можете голосовать в опросах
Вы не можете прикреплять файлы к сообщениям
Вы не можете скачивать файлы