Ошибка

(OST) Ben Houge - Arcanum Of Steamworks & Magick Obscura - 2000 FLAC (tracks+.cue), lossless

Ответить на тему
 
Автор Сообщение

max1muz

Пол: Пол:Муж

Стаж: 12 лет

Сообщений: 46

Россия
Рейтинг

post 02-Июн-2010 19:01 0[+]

[Цитировать] 


Ben Houge - Arcanum Of Steamworks & Magick Obscura OST

Жанр: Original Soundtrack
Композиторы: Ben Houge
Происхождение исполнителя: USA
Год издания данного носителя: 2001
Страна-производитель носителя: USA
Полиграфия: присутствует
Лейбл: Sierra
Каталоговый номер: N/A
Тип релиза: tracks+.cue
Аудио кодек: FLAC
Битрейт аудио: lossless
Продолжительность: 49:08
[02:35] 01. Ben Houge - Arcanum
[01:31] 02. Ben Houge - The Demise of The Zephyr
[02:10] 03. Ben Houge - Wilderness
[02:05] 04. Ben Houge - Tarant
[02:11] 05. Ben Houge - The Tarant Sewers
[02:37] 06. Ben Houge - Caladon
[02:53] 07. Ben Houge - Caladon Catacombs
[02:58] 08. Ben Houge - Dungeons
[01:32] 09. Ben Houge - Battle at Vendigroth
[03:09] 10. Ben Houge - Tulla
[01:59] 11. Ben Houge - Towns
[02:25] 12. Ben Houge - The Isle of Dispair
[02:39] 13. Ben Houge - Mines
[02:18] 14. Ben Houge - Cities
[01:33] 15. Ben Houge - Radcliffe's Commission
[03:03] 16. Ben Houge - The Vendigroth Wastes
[02:44] 17. Ben Houge - Villages
[01:54] 18. Ben Houge - Qintarra
[02:04] 19. Ben Houge - The Wheel Clan
[02:07] 20. Ben Houge - The Void
[02:25] 21. Ben Houge - Kerghan's Castle

Код:

REM ACCURATERIPID 0024f07c-02393a31-3d0b7d15
REM COMMENT
REM DATE 2000
REM GENRE "Soundtrack"
PERFORMER "Ben Houge"
TITLE "Arcanum: Of Steamworks & Magick Obscura Original Computer Game Soundtrack"
FILE "01 - Arcanum.flac" WAVE
  TRACK 01 AUDIO
    TITLE "Arcanum"
    PERFORMER "Ben Houge"
    INDEX 01 00:00:00
FILE "02 - The Demise of the Zephyr.flac" WAVE
  TRACK 02 AUDIO
    TITLE "The Demise of The Zephyr"
    PERFORMER "Ben Houge"
    INDEX 01 00:00:00
FILE "03 - Wilderness.flac" WAVE
  TRACK 03 AUDIO
    TITLE "Wilderness"
    PERFORMER "Ben Houge"
    INDEX 01 00:00:00
FILE "04 - Tarant.flac" WAVE
  TRACK 04 AUDIO
    TITLE "Tarant"
    PERFORMER "Ben Houge"
    INDEX 01 00:00:00
FILE "05 - The Tarant Sewers.flac" WAVE
  TRACK 05 AUDIO
    TITLE "The Tarant Sewers"
    PERFORMER "Ben Houge"
    INDEX 01 00:00:00
FILE "06 - Caladon.flac" WAVE
  TRACK 06 AUDIO
    TITLE "Caladon"
    PERFORMER "Ben Houge"
    INDEX 01 00:00:00
FILE "07 - Caladon Catacombs.flac" WAVE
  TRACK 07 AUDIO
    TITLE "Caladon Catacombs"
    PERFORMER "Ben Houge"
    INDEX 01 00:00:00
FILE "08 - Dungeons.flac" WAVE
  TRACK 08 AUDIO
    TITLE "Dungeons"
    PERFORMER "Ben Houge"
    INDEX 01 00:00:00
FILE "09 - Battle at Vendigroth.flac" WAVE
  TRACK 09 AUDIO
    TITLE "Battle at Vendigroth"
    PERFORMER "Ben Houge"
    INDEX 01 00:00:00
FILE "10 - Tulla.flac" WAVE
  TRACK 10 AUDIO
    TITLE "Tulla"
    PERFORMER "Ben Houge"
    INDEX 01 00:00:00
FILE "11 - Towns.flac" WAVE
  TRACK 11 AUDIO
    TITLE "Towns"
    PERFORMER "Ben Houge"
    INDEX 01 00:00:00
FILE "12 - The Isle of Despair.flac" WAVE
  TRACK 12 AUDIO
    TITLE "The Isle of Dispair"
    PERFORMER "Ben Houge"
    INDEX 01 00:00:00
FILE "13 - Mines.flac" WAVE
  TRACK 13 AUDIO
    TITLE "Mines"
    PERFORMER "Ben Houge"
    INDEX 01 00:00:00
FILE "14 - Cities.flac" WAVE
  TRACK 14 AUDIO
    TITLE "Cities"
    PERFORMER "Ben Houge"
    INDEX 01 00:00:00
FILE "15 - Radcliffe's Commission.flac" WAVE
  TRACK 15 AUDIO
    TITLE "Radcliffe's Commission"
    PERFORMER "Ben Houge"
    INDEX 01 00:00:00
FILE "16 - The Vendigroth Wastes.flac" WAVE
  TRACK 16 AUDIO
    TITLE "The Vendigroth Wastes"
    PERFORMER "Ben Houge"
    INDEX 01 00:00:00
FILE "17 - Villages.flac" WAVE
  TRACK 17 AUDIO
    TITLE "Villages"
    PERFORMER "Ben Houge"
    INDEX 01 00:00:00
FILE "18 - Qintarra.flac" WAVE
  TRACK 18 AUDIO
    TITLE "Qintarra"
    PERFORMER "Ben Houge"
    INDEX 01 00:00:00
FILE "19 - The Wheel Clan.flac" WAVE
  TRACK 19 AUDIO
    TITLE "The Wheel Clan"
    PERFORMER "Ben Houge"
    INDEX 01 00:00:00
FILE "20 - The Void.flac" WAVE
  TRACK 20 AUDIO
    TITLE "The Void"
    PERFORMER "Ben Houge"
    INDEX 01 00:00:00
FILE "21 - Kerghan's Castle.flac" WAVE
  TRACK 21 AUDIO
    TITLE "Kerghan's Castle"
    PERFORMER "Ben Houge"
    INDEX 01 00:00:00

Код:

AUDIOCHECKER v2.0 beta (build 457) - by Dester - opdester@freemail.hu
~~~~~~~~~~~~~~~~~~~~~~~~~~~~~~~~~~
-=== DO NOT EDIT THIS FILE! ===-

Path: ...\Arcanum OST - Ben Houge

01 -=- 01 - Arcanum.flac -=- CDDA (100%)
02 -=- 02 - The Demise of the Zephyr.flac -=- CDDA (100%)
03 -=- 03 - Wilderness.flac -=- CDDA (100%)
04 -=- 04 - Tarant.flac -=- CDDA (100%)
05 -=- 05 - The Tarant Sewers.flac -=- CDDA (100%)
06 -=- 06 - Caladon.flac -=- CDDA (99%)
07 -=- 07 - Caladon Catacombs.flac -=- CDDA (100%)
08 -=- 08 - Dungeons.flac -=- CDDA (100%)
09 -=- 09 - Battle at Vendigroth.flac -=- CDDA (62%)
10 -=- 10 - Tulla.flac -=- CDDA (100%)
11 -=- 11 - Towns.flac -=- CDDA (100%)
12 -=- 12 - The Isle of Despair.flac -=- CDDA (100%)
13 -=- 13 - Mines.flac -=- CDDA (100%)
14 -=- 14 - Cities.flac -=- CDDA (99%)
15 -=- 15 - Radcliffe's Commission.flac -=- CDDA (58%)
16 -=- 16 - The Vendigroth Wastes.flac -=- CDDA (99%)
17 -=- 17 - Villages.flac -=- CDDA (100%)
18 -=- 18 - Qintarra.flac -=- CDDA (100%)
19 -=- 19 - The Wheel Clan.flac -=- CDDA (54%)
20 -=- 20 - The Void.flac -=- CDDA (100%)
21 -=- 21 - Kerghan's Castle.flac -=- CDDA (100%)

Summary 93,86% CDDA

127051732
Информация:
Все композиции исполнены в классическом стиле, на очень высоком уровне. Играют преимущественно скрипки и виолончель.

Альбом несколько лет назад, был доступен в mp3 на официальном сайте Sierra и на сайте композитора. Существует архивная версия страницы на Terra Arcanum. Довольно долгое время фанаты довольствовались только этим.
Но в 2008 году, был найден демо CD 2001 года, для журнала Computer Gaming World. С этого диска, собственно и был извлечен саундтрек. К сожалению, я не смог найти EAC лог.
Также саундтрек присутствует, в коллекционном польском издании Arcanum Of Steamworks & Magick Obscura.

Дополнительно:
22. Ben Houge - In Memoriam.mp3 - бонусный трек, не вошедший в OST. Звучал в радио интервью Бена Хоука.
Franklin Payne Radio Drama.mp3 - невероятный рассказ знаменитого путешественника Франклина Пейна.
info [Профиль]  [ЛС] 

anfyrt

Пол: Пол:Муж

Стаж: 12 лет

Сообщений: 55

Россия
Рейтинг

post 14-Фев-2012 16:13 (спустя 1 год 8 месяцев) [-]0[+]

[Цитировать] 

Однажды я тоже нашёл этот саундтрек на андерграунд геймере. Жутко доволен был и остаюсь этой работой.
info [Профиль]  [ЛС] 

warhuh

Стаж: 8 лет

Сообщений: 1

Рейтинг

post 28-Ноя-2014 23:39 (спустя 2 года 9 месяцев) [-]0[+]

[Цитировать] 

Был бы премного благодарен, если б раздали сие прекрасное творение Q_Q
info [Профиль]  [ЛС] 
Показать сообщения:    
Ответить на тему

Текущее время: 23-Май 05:43

Часовой пояс: GMT + 4



Вы не можете начинать темы
Вы не можете отвечать на сообщения
Вы не можете редактировать свои сообщения
Вы не можете удалять свои сообщения
Вы не можете голосовать в опросах
Вы не можете прикреплять файлы к сообщениям
Вы не можете скачивать файлы