Ошибка

(Electronic, Synthpop) Depeche Mode - Violator (Collectors Edition) - 1990, FLAC (image+.cue), lossless

Ответить на тему
 
Автор Сообщение

TillL

Пол: Пол:Муж

Стаж: 12 лет

Сообщений: 16

Россия
Рейтинг

post 31-Окт-2013 20:01 1[+]

[Цитировать] 

Depeche Mode - Violator (Collectors Edition)

Жанр: Electronic, Synthpop
Происхождение исполнителя: Великобритания
Год выпуска диска: 1990
Тип релиза: image+.cue
Аудио кодек: FLAC
Битрейт аудио: lossless
Лейбл: Mute Records Limited
Каталоговый номер: DMCDX7
Продолжительность: 47:03
Источник: Собственный CD

Треклист:
01 - World In My Eyes [4:27]
02 - Sweetest Perfection [4:44]
03 - Personal Jesus [4:46]
04 - Halo [4:30]
05 - Waiting For The Night [6:07]
06 - Enjoy The Silence [6:13]
07 - Policy Of Truth [4:55]
08 - Blue Dress [5:38]
09 - Clean [5:33]



 
AUDIOCHECKER v1.2 - by Dester - opdester@freemail.hu
~~~~~~~~~~~~~~~~~

1 -===- D:\Music\lossless\Depeche Mode\1990 - Violator\Depeche Mode - Violator.flac
Extracted successfully
Conclusion: This track looks like CDDA with probability 100%
 
Exact Audio Copy V1.0 beta 3 from 29. August 2011

EAC extraction logfile from 31. October 2013, 20:32

Depeche Mode / Violator (Rematsered 2007)

Used drive : HP DVD Writer 1070d Adapter: 2 ID: 0

Read mode : Secure
Utilize accurate stream : Yes
Defeat audio cache : Yes
Make use of C2 pointers : No

Read offset correction : 6
Overread into Lead-In and Lead-Out : No
Fill up missing offset samples with silence : Yes
Delete leading and trailing silent blocks : No
Null samples used in CRC calculations : Yes
Used interface : Native Win32 interface for Win NT & 2000

Used output format : User Defined Encoder
Selected bitrate : 768 kBit/s
Quality : High
Add ID3 tag : No
Command line compressor : C:\Program Files (x86)\Exact Audio Copy\FLAC\FLAC.EXE
Additional command line options : -V -8 -T "Date=%year%" -T "Genre=%genre%" %source% %dest%

TOC of the extracted CD

Track | Start | Length | Start sector | End sector
---------------------------------------------------------
1 | 0:00.00 | 4:27.03 | 0 | 20027
2 | 4:27.03 | 4:43.61 | 20028 | 41313
3 | 9:10.64 | 4:55.73 | 41314 | 63511
4 | 14:06.62 | 4:30.14 | 63512 | 83775
5 | 18:37.01 | 6:07.35 | 83776 | 111335
6 | 24:44.36 | 6:12.61 | 111336 | 139296
7 | 30:57.22 | 4:55.14 | 139297 | 161435
8 | 35:52.36 | 5:38.28 | 161436 | 186813
9 | 41:30.64 | 5:32.70 | 186814 | 211783

Range status and errors

Selected range

Filename D:\Music\lossless\Depeche Mode\1990 - Violator\Depeche Mode - Violator.wav

Peak level 100.0 %
Extraction speed 2.9 X
Range quality 100.0 %
Test CRC 5AF87DFE
Copy CRC 5AF87DFE
Copy OK

No errors occurred

AccurateRip summary
Track 1 accurately ripped (confidence 16) [BA6F4155] (AR v2)
Track 2 accurately ripped (confidence 16) [B460CF0D] (AR v2)
Track 3 accurately ripped (confidence 16) [1514E9E3] (AR v2)
Track 4 accurately ripped (confidence 16) [3672A4C6] (AR v2)
Track 5 accurately ripped (confidence 16) [76ACC443] (AR v2)
Track 6 accurately ripped (confidence 16) [CC0CAC2F] (AR v2)
Track 7 accurately ripped (confidence 16) [FB811536] (AR v2)
Track 8 accurately ripped (confidence 16) [34F4AF7C] (AR v2)
Track 9 accurately ripped (confidence 16) [8CC95513] (AR v2)
All tracks accurately ripped

End of status report

==== Log checksum 5FC0B89F526E1E3F679D192E74516F1DCA956D2FBE1A88BB98763D90345BA890 ====
 
REM GENRE Synthpop
REM DATE 1990
REM DISCID 860B0709
REM COMMENT "ExactAudioCopy v1.0b3"
PERFORMER "Depeche Mode"
TITLE "Violator (Rematsered 2007)"
FILE "Depeche Mode - Violator.flac" WAVE
TRACK 01 AUDIO
TITLE "World In My Eyes"
PERFORMER "Depeche Mode"
INDEX 01 00:00:00
TRACK 02 AUDIO
TITLE "Sweetest Perfection"
PERFORMER "Depeche Mode"
INDEX 01 04:27:03
TRACK 03 AUDIO
TITLE "Personal Jesus"
PERFORMER "Depeche Mode"
INDEX 01 09:10:64
TRACK 04 AUDIO
TITLE "Halo"
PERFORMER "Depeche Mode"
INDEX 01 14:06:62
TRACK 05 AUDIO
TITLE "Waiting for the Night"
PERFORMER "Depeche Mode"
INDEX 01 18:37:01
TRACK 06 AUDIO
TITLE "Enjoy the Silence"
PERFORMER "Depeche Mode"
INDEX 01 24:44:36
TRACK 07 AUDIO
TITLE "Policy of Truth"
PERFORMER "Depeche Mode"
INDEX 01 30:57:22
TRACK 08 AUDIO
TITLE "Blue Dress"
PERFORMER "Depeche Mode"
INDEX 01 35:52:36
TRACK 09 AUDIO
TITLE "Clean"
PERFORMER "Depeche Mode"
INDEX 01 41:30:64
info [Профиль]  [ЛС] 

riseagainst

Стаж: 10 лет

Сообщений: 8

Рейтинг

post 31-Окт-2013 22:54 (спустя 2 часа 53 минуты) [-]3[+]

[Цитировать] 

Великий альбом!
info [Профиль]  [ЛС] 

TillL

Пол: Пол:Муж

Стаж: 12 лет

Сообщений: 16

Россия
Рейтинг

post 31-Окт-2013 23:06 (спустя 12 минут) [-]0[+]

[Цитировать] 

Немного позже выложу DVD из этого издания.
info [Профиль]  [ЛС] 
Показать сообщения:    
Ответить на тему

Текущее время: 24-Май 00:46

Часовой пояс: GMT + 4



Вы не можете начинать темы
Вы не можете отвечать на сообщения
Вы не можете редактировать свои сообщения
Вы не можете удалять свои сообщения
Вы не можете голосовать в опросах
Вы не можете прикреплять файлы к сообщениям
Вы не можете скачивать файлы