Ошибка

(Experimental, Electronic) Bjork - Bastards - 2012, FLAC (tracks+.cue), lossless

Ответить на тему
 
Автор Сообщение

TillL

Пол: Пол:Муж

Стаж: 12 лет

Сообщений: 16

Россия
Рейтинг

post 17-Май-2013 15:32 0[+]

[Цитировать] 

Björk - Bastards

Жанр:Experimental, Electronic
Происхождение исполнителя: Исландия
Год выпуска диска: 2012
Тип релиза: tracks+.cue
Аудио кодек: FLAC
Битрейт аудио: lossless
Лейбл: One Little Indian
Каталоговый номер: tplp1178cd
Продолжительность: 68:25

Треклист:
01 - Crystalline (Omar Souleyman Remix) [6:39]
02 - Virus (Hudson Mohawke Peaches And Guacamol Remix) [4:49]
03 - Sacrifice (Death Grips Remix) [4:17]
04 - Sacrifice (Matthew Herbert's Pins And Needles Mix Edit) [0:37]
05 - Mutual Core (These New Puritans Remix Featuring Solomon Island Song) [3:54]
06 - Hollow (16-Bit Remix) [7:00]
07 - Mutual Core (Matthew Herbert's Teutonic Plates Mix) [5:06]
08 - Thunderbolt (Death Grips Remix) [5:05]
09 - Dark Matter (Alva Noto Remodel) [5:40]
10 - Thunderbolt (Omar Souleyman Remix) [7:23]
11 - Solstice (Current Value Remix) [6:28]
12 - Moon (The Slips Remix) [6:08]
13 - Crystalline (Matthew Herbert Remix) [5:19]


 
AUDIOCHECKER v1.2 - by Dester - opdester@freemail.hu
~~~~~~~~~~~~~~~~~

01 -===- C:\2012 - Bastards\01 - Crystalline (Omar Souleyman remix).flac
Extracted successfully
Conclusion: This track looks like CDDA with probability 100%

02 -===- C:\2012 - Bastards\02 - Virus (Hudson Mohawke's Peaches & Guacamol remix).flac
Extracted successfully
Conclusion: This track looks like CDDA with probability 99%

03 -===- C:\2012 - Bastards\03 - Sacrifice (Death Grips remix).flac
Extracted successfully
Conclusion: This track looks like CDDA with probability 100%

04 -===- C:\2012 - Bastards\04 - Sacrifice Reprise (Matthew Herbert's Pins & Needles mix).flac
Extracted successfully
Conclusion: This track looks like CDDA with probability 100%

05 -===- C:\2012 - Bastards\05 - Mutual Core (These New Puritans remix featuring Solomon Is Song).flac
Extracted successfully
Conclusion: This track looks like CDDA with probability 100%

06 -===- C:\2012 - Bastards\06 - Hollow (16-Bit remix).flac
Extracted successfully
Conclusion: This track looks like CDDA with probability 100%

07 -===- C:\2012 - Bastards\07 - Mutual Core (Matthew Herbert's Teutonic Plates mix).flac
Extracted successfully
Conclusion: This track looks like CDDA with probability 100%

08 -===- C:\2012 - Bastards\08 - Thunderbolt (Death Grips remix).flac
Extracted successfully
Conclusion: This track looks like CDDA with probability 100%

09 -===- C:\2012 - Bastards\09 - Dark Matter (Alva Noto remodel).flac
Extracted successfully
Conclusion: This track looks like CDDA with probability 100%

10 -===- C:\2012 - Bastards\10 - Thunderbolt (Omar Souleyman remix).flac
Extracted successfully
Conclusion: This track looks like CDDA with probability 100%

11 -===- C:\2012 - Bastards\11 - Solstice (Current Value remix).flac
Extracted successfully
Conclusion: This track looks like CDDA with probability 100%

12 -===- C:\2012 - Bastards\12 - Moon (The Slips remix).flac
Extracted successfully
Conclusion: This track looks like CDDA with probability 100%

13 -===- C:\2012 - Bastards\13 - Crystalline (Matthew Herbert remix).flac
Extracted successfully
Conclusion: This track looks like CDDA with probability 100%
 
Exact Audio Copy V1.0 beta 3 from 29. August 2011

Отчёт EAC об извлечении, выполненном 3. марта 2013, 10:08

Björk / bastards

Дисковод: Optiarc DVD RW AD-7803H Adapter: 0 ID: 1

Режим чтения : Достоверность
Использование точного потока : Да
Отключение кэша аудио : Да
Использование указателей C2 : Нет

Коррекция смещения при чтении : 48
Способность читать области Lead-in и Lead-out : Нет
Заполнение пропущенных сэмплов тишиной : Да
Удаление блоков с тишиной в начале и конце : Нет
При вычислениях CRC использовались нулевые сэмплы : Да
Интерфейс : Встроенный Win32-интерфейс для Win NT/2000
Обработка зазоров : Добавлено к предыдущему треку

Выходной формат : Пользовательский кодировщик
Выбранный битрейт : 896 kBit/s
Качество : Высокий
Добавление ID3-тега : Нет
Утилита сжатия : C:\Program Files\Exact Audio Copy\Flac\flac.exe
Дополнительные параметры : -6 -V -T "ARTIST=%artist%" -T "TITLE=%title%" -T "ALBUM=%albumtitle%" -T "DATE=%year%" -T "TRACKNUMBER=%tracknr%" -T "GENRE=%genre%" -T "COMMENT=%comment%" -T "BAND=%albuminterpret%" -T "ALBUMARTIST=%albuminterpret%" -T "COMPOSER=%composer%" %haslyrics%--tag-from-file=LYRICS="%lyricsfile%"%haslyrics% -T "DISCNUMBER=%cdnumber%" -T "TOTALDISCS=%totalcds%" -T "TOTALTRACKS=%numtracks%" %hascover%--picture="%coverfile%"%hascover% %source% -o %dest%

TOC извлечённого CD

Трек | Старт | Длительность | Начальный сектор | Конечный сектор
---------------------------------------------------------------------
1 | 0:00.00 | 6:39.06 | 0 | 29930
2 | 6:39.06 | 4:49.02 | 29931 | 51607
3 | 11:28.08 | 4:17.07 | 51608 | 70889
4 | 15:45.15 | 0:37.00 | 70890 | 73664
5 | 16:22.15 | 3:54.35 | 73665 | 91249
6 | 20:16.50 | 6:59.67 | 91250 | 122741
7 | 27:16.42 | 5:05.65 | 122742 | 145681
8 | 32:22.32 | 5:04.59 | 145682 | 168540
9 | 37:27.16 | 5:40.18 | 168541 | 194058
10 | 43:07.34 | 7:22.43 | 194059 | 227251
11 | 50:30.02 | 6:28.22 | 227252 | 256373
12 | 56:58.24 | 6:07.57 | 256374 | 283955
13 | 63:06.06 | 5:19.16 | 283956 | 307896

Трек 1

Имя файла H:\RuTracker.org - раздачи\Björk\Björk - Biophilia Remixes - 2012\bastards\01. Crystalline (Omar Souleyman Remix).wav

Длина предзазора 0:00:02.00

Пиковый уровень 98.8 %
Скорость извлечения 1.3 X
Качество трека 100.0 %
CRC теста 91120363
CRC копии 91120363
Точное извлечение (достоверность 1) [9A37B271] (AR v1)
Копирование... OK

Трек 2

Имя файла H:\RuTracker.org - раздачи\Björk\Björk - Biophilia Remixes - 2012\bastards\02. Virus (Hudson Mohawke Peaches & Guacamol Remix).wav

Пиковый уровень 98.8 %
Скорость извлечения 1.4 X
Качество трека 100.0 %
CRC теста 826AAC65
CRC копии 826AAC65
Точное извлечение (достоверность 1) [894CD70F] (AR v1)
Копирование... OK

Трек 3

Имя файла H:\RuTracker.org - раздачи\Björk\Björk - Biophilia Remixes - 2012\bastards\03. Sacrifice (Death Grips Remix).wav

Пиковый уровень 98.8 %
Скорость извлечения 1.5 X
Качество трека 100.0 %
CRC теста BE33E46C
CRC копии BE33E46C
Точное извлечение (достоверность 1) [FEA35E4D] (AR v1)
Копирование... OK

Трек 4

Имя файла H:\RuTracker.org - раздачи\Björk\Björk - Biophilia Remixes - 2012\bastards\04. Sacrifice (Matthew Herbert's Pins and Needles Mix Edit).wav

Пиковый уровень 98.8 %
Скорость извлечения 0.9 X
Качество трека 100.0 %
CRC теста C3FCA855
CRC копии C3FCA855
Точное извлечение (достоверность 1) [BB41DECE] (AR v1)
Копирование... OK

Трек 5

Имя файла H:\RuTracker.org - раздачи\Björk\Björk - Biophilia Remixes - 2012\bastards\05. Mutual Core (These New Puritans Remix feat. Solomon Islands Song).wav

Пиковый уровень 98.8 %
Скорость извлечения 1.6 X
Качество трека 100.0 %
CRC теста 6BFC1225
CRC копии 6BFC1225
Точное извлечение (достоверность 1) [DE2513D8] (AR v1)
Копирование... OK

Трек 6

Имя файла H:\RuTracker.org - раздачи\Björk\Björk - Biophilia Remixes - 2012\bastards\06. Hollow (16-Bit Remix).wav

Пиковый уровень 98.8 %
Скорость извлечения 1.9 X
Качество трека 100.0 %
CRC теста E412A524
CRC копии E412A524
Точное извлечение (достоверность 1) [DCB8A05F] (AR v1)
Копирование... OK

Трек 7

Имя файла H:\RuTracker.org - раздачи\Björk\Björk - Biophilia Remixes - 2012\bastards\07. Mutual Core (Matthew Herbert's Teutonic Plates Mix).wav

Пиковый уровень 98.8 %
Скорость извлечения 2.0 X
Качество трека 100.0 %
CRC теста C716FCA4
CRC копии C716FCA4
Точное извлечение (достоверность 1) [3DC27E4B] (AR v1)
Копирование... OK

Трек 8

Имя файла H:\RuTracker.org - раздачи\Björk\Björk - Biophilia Remixes - 2012\bastards\08. Thunderbolt (Death Grips Remix).wav

Пиковый уровень 98.8 %
Скорость извлечения 1.9 X
Качество трека 99.9 %
CRC теста EC1DAA96
CRC копии EC1DAA96
Точное извлечение (достоверность 1) [DCEAF50D] (AR v1)
Копирование... OK

Трек 9

Имя файла H:\RuTracker.org - раздачи\Björk\Björk - Biophilia Remixes - 2012\bastards\09. Dark Matter (Alva Noto Remodel).wav

Пиковый уровень 98.8 %
Скорость извлечения 2.2 X
Качество трека 100.0 %
CRC теста 558ACAD6
CRC копии 558ACAD6
Точное извлечение (достоверность 1) [EB3505CB] (AR v1)
Копирование... OK

Трек 10

Имя файла H:\RuTracker.org - раздачи\Björk\Björk - Biophilia Remixes - 2012\bastards\10. Thunderbolt (Omar Souleyman Remix).wav

Пиковый уровень 100.0 %
Скорость извлечения 2.2 X
Качество трека 99.9 %
CRC теста B1EC787F
CRC копии B1EC787F
Точное извлечение (достоверность 1) [36353ED2] (AR v1)
Копирование... OK

Трек 11

Имя файла H:\RuTracker.org - раздачи\Björk\Björk - Biophilia Remixes - 2012\bastards\11. Solstice (Current Value Remix).wav

Пиковый уровень 98.8 %
Скорость извлечения 0.3 X
Качество трека 100.0 %
CRC теста A5C5A067
CRC копии A5C5A067
Точное извлечение (достоверность 1) [13B65C2E] (AR v1)
Копирование... OK

Трек 12

Имя файла H:\RuTracker.org - раздачи\Björk\Björk - Biophilia Remixes - 2012\bastards\12. Moon (The Slips Remix).wav

Пиковый уровень 98.8 %
Скорость извлечения 2.6 X
Качество трека 100.0 %
CRC теста 99F1D215
CRC копии 99F1D215
Точное извлечение (достоверность 1) [237F6E98] (AR v1)
Копирование... OK

Трек 13

Имя файла H:\RuTracker.org - раздачи\Björk\Björk - Biophilia Remixes - 2012\bastards\13. Crystalline (Matthew Herbert Remix).wav

Пиковый уровень 98.8 %
Скорость извлечения 2.6 X
Качество трека 100.0 %
CRC теста 535D901A
CRC копии 535D901A
Точное извлечение (достоверность 1) [A4D5A5EF] (AR v1)
Копирование... OK

Все треки извлечены точно

Ошибок не произошло

Конец отчёта

==== Контрольная сумма отчёта E11C13B025599C60D7214FC1D721387E149BC047193CA9125A1BC93CE5B02996 ====
 
REM GENRE Electronic
REM DATE 2012
REM DISCID C310090D
REM COMMENT "ExactAudioCopy v1.0b3"
PERFORMER "Bjork"
TITLE "bastards"
FILE "01. Crystalline (Omar Souleyman Remix).wav" WAVE
TRACK 01 AUDIO
TITLE "Crystalline (Omar Souleyman Remix)"
PERFORMER "Bjork"
INDEX 01 00:00:00
FILE "02. Virus (Hudson Mohawke Peaches & Guacamol Remix).wav" WAVE
TRACK 02 AUDIO
TITLE "Virus (Hudson Mohawke Peaches & Guacamol Remix)"
PERFORMER "Bjork"
INDEX 01 00:00:00
FILE "03. Sacrifice (Death Grips Remix).wav" WAVE
TRACK 03 AUDIO
TITLE "Sacrifice (Death Grips Remix)"
PERFORMER "Bjork"
INDEX 01 00:00:00
FILE "04. Sacrifice (Matthew Herbert's Pins and Needles Mix Edit).wav" WAVE
TRACK 04 AUDIO
TITLE "Sacrifice (Matthew Herbert's Pins and Needles Mix Edit)"
PERFORMER "Bjork"
INDEX 01 00:00:00
FILE "05. Mutual Core (These New Puritans Remix feat. Solomon Islands Song).wav" WAVE
TRACK 05 AUDIO
TITLE "Mutual Core (These New Puritans Remix feat. Solomon Islands Song)"
PERFORMER "Bjork"
INDEX 01 00:00:00
FILE "06. Hollow (16-Bit Remix).wav" WAVE
TRACK 06 AUDIO
TITLE "Hollow (16-Bit Remix)"
PERFORMER "Bjork"
INDEX 01 00:00:00
FILE "07. Mutual Core (Matthew Herbert's Teutonic Plates Mix).wav" WAVE
TRACK 07 AUDIO
TITLE "Mutual Core (Matthew Herbert's Teutonic Plates Mix)"
PERFORMER "Bjork"
INDEX 01 00:00:00
FILE "08. Thunderbolt (Death Grips Remix).wav" WAVE
TRACK 08 AUDIO
TITLE "Thunderbolt (Death Grips Remix)"
PERFORMER "Bjork"
INDEX 01 00:00:00
FILE "09. Dark Matter (Alva Noto Remodel).wav" WAVE
TRACK 09 AUDIO
TITLE "Dark Matter (Alva Noto Remodel)"
PERFORMER "Bjork"
INDEX 01 00:00:00
FILE "10. Thunderbolt (Omar Souleyman Remix).wav" WAVE
TRACK 10 AUDIO
TITLE "Thunderbolt (Omar Souleyman Remix)"
PERFORMER "Bjork"
INDEX 01 00:00:00
FILE "11. Solstice (Current Value Remix).wav" WAVE
TRACK 11 AUDIO
TITLE "Solstice (Current Value Remix)"
PERFORMER "Bjork"
INDEX 01 00:00:00
FILE "12. Moon (The Slips Remix).wav" WAVE
TRACK 12 AUDIO
TITLE "Moon (The Slips Remix)"
PERFORMER "Bjork"
INDEX 01 00:00:00
FILE "13. Crystalline (Matthew Herbert Remix).wav" WAVE
TRACK 13 AUDIO
TITLE "Crystalline (Matthew Herbert Remix)"
PERFORMER "Bjork"
INDEX 01 00:00:00
info [Профиль]  [ЛС] 
Показать сообщения:    
Ответить на тему

Текущее время: 23-Май 00:00

Часовой пояс: GMT + 4



Вы не можете начинать темы
Вы не можете отвечать на сообщения
Вы не можете редактировать свои сообщения
Вы не можете удалять свои сообщения
Вы не можете голосовать в опросах
Вы не можете прикреплять файлы к сообщениям
Вы не можете скачивать файлы