Ошибка

(Electronic, Synthpop) Yello - Touch Yello (Limited Edition) - 2009, FLAC (image+.cue), lossless

Ответить на тему
 
Автор Сообщение

TillL

Пол: Пол:Муж

Стаж: 12 лет

Сообщений: 16

Россия
Рейтинг

post 16-Май-2013 19:46 0[+]

[Цитировать] 

Yello - Touch Yello (Limited Edition)

Жанр: Electronic, Synthpop
Происхождение исполнителя: Швейцария
Год выпуска диска: 2009
Тип релиза: image+.cue
Аудио кодек: FLAC
Битрейт аудио: lossless
Лейбл: Polydor
Каталоговый номер: 00602527276946
Продолжительность: 75:02

Треклист:
01 - The Expert [2:55]
02 - You Better Hide (Feat. Heidi Happy) [4:15]
03 - Out Of Dawn [3:13]
04 - Bostich (Reflected) [3:57]
05 - Till Tomorrow (Feat. Till Brönner) [4:17]
06 - Tangier Blue [2:42]
07 - Part Love [3:42]
08 - Friday Smile [3:36]
09 - Kiss In Blue (Feat. Heidi Happy) [3:34]
10 - Vertical Vision (Feat. Till Brönner) [4:18]
11 - Trackless Deep [3:20]
12 - Stay (Feat. Heidi Happy) [3:02]
13 - Electric Frame (Feat. Till Brönner) [3:36]
14 - Takla Makan (Feat. Dorothee Oberlinger) [8:33]
Бонус-треки:
15 - X-Race [4:18]
16 - Petro Oleum [3:15]
17 - Oh Yeah 2009 [2:33]
18 - Umbria [2:35]
19 - Bostich (Duck Mobile) [3:23]
20 - Scorpio Rising [4:33]


 
AUDIOCHECKER v1.2 - by Dester - opdester@freemail.hu
~~~~~~~~~~~~~~~~~

1 -===- C:\Touch Yello\Yello - Touch Yello (Deluxe).flac
Extracted successfully
Conclusion: This track looks like CDDA with probability 100%

 
Exact Audio Copy V0.99 prebeta 4 from 23. January 2008

EAC extraction logfile from 23. October 2010, 21:15

Yello / Touch Yello (Deluxe)

Used drive : _NEC DVD_RW ND-4570A Adapter: 1 ID: 0

Read mode : Secure
Utilize accurate stream : Yes
Defeat audio cache : Yes
Make use of C2 pointers : No

Read offset correction : 48
Overread into Lead-In and Lead-Out : No
Fill up missing offset samples with silence : Yes
Delete leading and trailing silent blocks : No
Null samples used in CRC calculations : Yes
Used interface : Native Win32 interface for Win NT & 2000

Used output format : User Defined Encoder
Selected bitrate : 128 kBit/s
Quality : High
Add ID3 tag : No
Command line compressor : C:\Program Files\Exact Audio Copy\FLAC\FLAC.EXE
Additional command line options : -8 -V %s

TOC of the extracted CD

Track | Start | Length | Start sector | End sector
---------------------------------------------------------
1 | 0:00.00 | 2:54.51 | 0 | 13100
2 | 2:54.51 | 4:08.01 | 13101 | 31701
3 | 7:02.52 | 3:10.68 | 31702 | 46019
4 | 10:13.45 | 3:57.16 | 46020 | 63810
5 | 14:10.61 | 4:16.26 | 63811 | 83036
6 | 18:27.12 | 2:39.45 | 83037 | 95006
7 | 21:06.57 | 3:42.67 | 95007 | 111723
8 | 24:49.49 | 3:30.71 | 111724 | 127544
9 | 28:20.45 | 3:33.60 | 127545 | 143579
10 | 31:54.30 | 4:19.49 | 143580 | 163053
11 | 36:14.04 | 3:19.31 | 163054 | 178009
12 | 39:33.35 | 3:02.56 | 178010 | 191715
13 | 42:36.16 | 3:35.61 | 191716 | 207901
14 | 46:12.02 | 8:35.35 | 207902 | 246561
15 | 54:47.37 | 4:12.40 | 246562 | 265501
16 | 59:00.02 | 3:03.43 | 265502 | 279269
17 | 62:03.45 | 2:27.45 | 279270 | 290339
18 | 64:31.15 | 2:36.21 | 290340 | 302060
19 | 67:07.36 | 3:20.09 | 302061 | 317069
20 | 70:27.45 | 4:34.11 | 317070 | 337630

Range status and errors

Selected range

Filename D:\Touch Yello\Yello - Touch Yello (Deluxe).wav

Peak level 97.7 %
Range quality 99.9 %
Test CRC E5DC634F
Copy CRC E5DC634F
Copy OK

No errors occurred

AccurateRip summary
Track 1 accurately ripped (confidence 39) [E184479A]
Track 2 accurately ripped (confidence 39) [73CA13E7]
Track 3 accurately ripped (confidence 39) [B2EBD798]
Track 4 accurately ripped (confidence 39) [C0BC70A0]
Track 5 accurately ripped (confidence 39) [6CA3E8EC]
Track 6 accurately ripped (confidence 39) [E2A6CE90]
Track 7 accurately ripped (confidence 39) [F1F0BF05]
Track 8 accurately ripped (confidence 37) [6C06B2E6]
Track 9 accurately ripped (confidence 39) [7EEC1A65]
Track 10 accurately ripped (confidence 39) [88D772D4]
Track 11 accurately ripped (confidence 38) [DADAE6D0]
Track 12 accurately ripped (confidence 40) [AF18FE79]
Track 13 accurately ripped (confidence 39) [BBE9B7E2]
Track 14 accurately ripped (confidence 40) [D379964F]
Track 15 accurately ripped (confidence 40) [9F0B623B]
Track 16 accurately ripped (confidence 40) [E35900E4]
Track 17 accurately ripped (confidence 40) [F7B93009]
Track 18 accurately ripped (confidence 40) [BFBC3E79]
Track 19 accurately ripped (confidence 41) [31B11F61]
Track 20 accurately ripped (confidence 38) [AAEE4471]
All tracks accurately ripped

End of status report
 
REM GENRE Electronic
REM DATE 2010
REM DISCID 2F119514
REM COMMENT "ExactAudioCopy v0.99pb4"
FILE "Yello - Touch Yello (Deluxe).flac" WAVE
TRACK 01 AUDIO
INDEX 01 00:00:00
TRACK 02 AUDIO
INDEX 01 02:54:51
TRACK 03 AUDIO
INDEX 01 07:02:52
TRACK 04 AUDIO
INDEX 01 10:13:45
TRACK 05 AUDIO
INDEX 01 14:10:61
TRACK 06 AUDIO
INDEX 01 18:27:12
TRACK 07 AUDIO
INDEX 01 21:06:57
TRACK 08 AUDIO
INDEX 01 24:49:49
TRACK 09 AUDIO
INDEX 01 28:20:45
TRACK 10 AUDIO
INDEX 01 31:54:30
TRACK 11 AUDIO
INDEX 01 36:14:04
TRACK 12 AUDIO
INDEX 01 39:33:35
TRACK 13 AUDIO
INDEX 01 42:36:16
TRACK 14 AUDIO
INDEX 01 46:12:02
TRACK 15 AUDIO
INDEX 00 54:45:65
INDEX 01 54:47:37
TRACK 16 AUDIO
INDEX 01 59:00:02
TRACK 17 AUDIO
INDEX 01 62:03:45
TRACK 18 AUDIO
INDEX 01 64:31:15
TRACK 19 AUDIO
INDEX 01 67:07:36
TRACK 20 AUDIO
INDEX 01 70:27:45
info [Профиль]  [ЛС] 

post 16-Май-2013 20:04 (спустя 18 минут) [-]0[+]

Топик был перенесен из форума Анонсы в форум Traditional Electronic, Ambient, Experimental (lossless)

The Buzzhorn
 

TillL

Пол: Пол:Муж

Стаж: 12 лет

Сообщений: 16

Россия
Рейтинг

post 16-Май-2013 20:34 (спустя 48 минут) [-]0[+]

[Цитировать] 

Если нужно, могу выложить DVD из этого издания.
info [Профиль]  [ЛС] 
Показать сообщения:    
Ответить на тему

Текущее время: 22-Май 23:54

Часовой пояс: GMT + 4



Вы не можете начинать темы
Вы не можете отвечать на сообщения
Вы не можете редактировать свои сообщения
Вы не можете удалять свои сообщения
Вы не можете голосовать в опросах
Вы не можете прикреплять файлы к сообщениям
Вы не можете скачивать файлы