Ошибка

(Psychedelic, Downtempo, Chillout, Psychill) Alwoods - Aeolian Mode - 2011, FLAC (tracks+.cue), lossless

Ответить на тему
 
Автор Сообщение

Arifis

Пол: Пол:Муж

Стаж: 12 лет

Сообщений: 195

Россия
Рейтинг

post 18-Окт-2012 19:01 0[+]

[Цитировать] 

Alwoods - Aeolian Mode

Жанр: Psychedelic, Downtempo, Chillout, Psychill
Страна-производитель диска: Canada
Год издания диска: 20 Jun 2012
Издатель (лейбл): Altar Records
Номер по каталогу: ARCDA16
Аудиокодек: FLAC (*.flac)
Тип рипа: tracks
Битрейт аудио: lossless
Продолжительность: 01:18:36
Источник (релизер): what.cd
Наличие сканов в содержимом раздачи: Да

Треклист:

01. Alwoods - Natural Calling (9:28)
02. Alwoods - Voice Of Sherwood (10:53)
03. Alwoods - Near Light (6:33)
04. Alwoods - Psychedelic Dream (10:32)
05. Alwoods - Low Red Moon (9:51)
06. Alwoods - Sun Trap (10:30)
07. Alwoods - Samo8raki (9:33)
08. Alwoods - Kerkini Lake (11:13)




John Rigas (aka Alwoods) was drawn to psychedelic music when he began DJing more than a decade ago. Within the last three years John began pursing music production. Learning to write, compose and studying the technology used to craft the sounds he was seeking. Over time his skills evolved and he began producing psytrance as Atreus. Now John steps forward as Alwoods with “Aeolian Mode”.
For this album, Alwoods draws inspiration from his love of nature, the elements, and his time spent in the Greek mountainside. Natural sounds, bright atmospheres, and pulsing energies create a wondrous audio experience that fuses morning sounds with deep ambience. Aeolian Mode is an album full of soft driving beats wrapped in thick psychedelic auras that is perfect for stimulating the energies of a new day.

Exact Audio Copy V1.0 beta 2 from 29. April 2011 

EAC extraction logfile from 11. November 2011, 15:25

Alwoods / Aeolian Mode

Used drive : PIONEER DVD-RW DVR-218L Adapter: 2 ID: 0

Read mode : Secure
Utilize accurate stream : Yes
Defeat audio cache : Yes
Make use of C2 pointers : No

Read offset correction : 6
Overread into Lead-In and Lead-Out : No
Fill up missing offset samples with silence : Yes
Delete leading and trailing silent blocks : No
Null samples used in CRC calculations : Yes
Used interface : Native Win32 interface for Win NT & 2000
Gap handling : Appended to previous track

Used output format : User Defined Encoder
Selected bitrate : 1024 kBit/s
Quality : High
Add ID3 tag : No
Command line compressor : C:\Program Files (x86)\Exact Audio Copy\Flac\flac.exe
Additional command line options : -8 -V -T "ARTIST=%artist%" -T "TITLE=%title%" -T "ALBUM=%albumtitle%" -T "DATE=%year%" -T "TRACKNUMBER=%tracknr%" -T "GENRE=%genre%" -T "COMMENT=EAC FLAC -8" %source%

TOC of the extracted CD

Track | Start | Length | Start sector | End sector
---------------------------------------------------------
1 | 0:00.00 | 9:28.19 | 0 | 42618
2 | 9:28.19 | 10:53.67 | 42619 | 91660
3 | 20:22.11 | 6:33.11 | 91661 | 121146
4 | 26:55.22 | 10:32.69 | 121147 | 168615
5 | 37:28.16 | 9:51.11 | 168616 | 212951
6 | 47:19.27 | 10:30.13 | 212952 | 260214
7 | 57:49.40 | 9:33.47 | 260215 | 303236
8 | 67:23.12 | 11:13.33 | 303237 | 353744

Track 1

Filename H:\Music\Ambient, Chillout, Downtempo\Release\Alwoods - Aeolian Mode (Altar Rec. 2011) (Flac)\01. Alwoods – Natural Calling.wav

Pre-gap length 0:00:02.00

Peak level 97.7 %
Extraction speed 1.4 X
Track quality 100.0 %
Test CRC 2F097D20
Copy CRC 2F097D20
Track not present in AccurateRip database
Copy OK

Track 2

Filename H:\Music\Ambient, Chillout, Downtempo\Release\Alwoods - Aeolian Mode (Altar Rec. 2011) (Flac)\02. Alwoods – Voice Of Sherwood.wav

Peak level 98.2 %
Extraction speed 1.7 X
Track quality 100.0 %
Test CRC 4B62692D
Copy CRC 4B62692D
Track not present in AccurateRip database
Copy OK

Track 3

Filename H:\Music\Ambient, Chillout, Downtempo\Release\Alwoods - Aeolian Mode (Altar Rec. 2011) (Flac)\03. Alwoods – Near Light.wav

Peak level 97.7 %
Extraction speed 1.8 X
Track quality 100.0 %
Test CRC EA73920C
Copy CRC EA73920C
Track not present in AccurateRip database
Copy OK

Track 4

Filename H:\Music\Ambient, Chillout, Downtempo\Release\Alwoods - Aeolian Mode (Altar Rec. 2011) (Flac)\04. Alwoods – Psychedelic Dream.wav

Peak level 97.7 %
Extraction speed 2.1 X
Track quality 100.0 %
Test CRC 2307B876
Copy CRC 2307B876
Track not present in AccurateRip database
Copy OK

Track 5

Filename H:\Music\Ambient, Chillout, Downtempo\Release\Alwoods - Aeolian Mode (Altar Rec. 2011) (Flac)\05. Alwoods – Low Red Moon.wav

Peak level 97.7 %
Extraction speed 2.3 X
Track quality 100.0 %
Test CRC 25EAE1B6
Copy CRC 25EAE1B6
Track not present in AccurateRip database
Copy OK

Track 6

Filename H:\Music\Ambient, Chillout, Downtempo\Release\Alwoods - Aeolian Mode (Altar Rec. 2011) (Flac)\06. Alwoods – Sun Trap.wav

Peak level 97.7 %
Extraction speed 2.4 X
Track quality 100.0 %
Test CRC 3E1F1366
Copy CRC 3E1F1366
Track not present in AccurateRip database
Copy OK

Track 7

Filename H:\Music\Ambient, Chillout, Downtempo\Release\Alwoods - Aeolian Mode (Altar Rec. 2011) (Flac)\07. Alwoods – Samo8raki.wav

Peak level 98.2 %
Extraction speed 2.6 X
Track quality 100.0 %
Test CRC C32947C9
Copy CRC C32947C9
Track not present in AccurateRip database
Copy OK

Track 8

Filename H:\Music\Ambient, Chillout, Downtempo\Release\Alwoods - Aeolian Mode (Altar Rec. 2011) (Flac)\08. Alwoods – Kerkini Lake.wav

Peak level 98.2 %
Extraction speed 2.7 X
Track quality 100.0 %
Test CRC CB7FBDA8
Copy CRC CB7FBDA8
Track not present in AccurateRip database
Copy OK

None of the tracks are present in the AccurateRip database

No errors occurred

End of status report

==== Log checksum EFD5BE4AEF329CAE8A5EF7EDD784DDB914C920A457CD19C202D0C756FAB6D8C4 ====

REM GENRE Electronic 
REM DATE 2011
REM DISCID 5A126C08
REM COMMENT "ExactAudioCopy v1.0b2"
CATALOG 5060147127430
PERFORMER "Alwoods"
TITLE "Aeolian Mode"
FILE "01. Alwoods – Natural Calling.wav" WAVE
TRACK 01 AUDIO
TITLE "Natural Calling"
PERFORMER "Alwoods"
INDEX 01 00:00:00
FILE "02. Alwoods – Voice Of Sherwood.wav" WAVE
TRACK 02 AUDIO
TITLE "Voice Of Sherwood"
PERFORMER "Alwoods"
INDEX 01 00:00:00
FILE "03. Alwoods – Near Light.wav" WAVE
TRACK 03 AUDIO
TITLE "Near Light"
PERFORMER "Alwoods"
INDEX 01 00:00:00
FILE "04. Alwoods – Psychedelic Dream.wav" WAVE
TRACK 04 AUDIO
TITLE "Psychedelic Dream"
PERFORMER "Alwoods"
INDEX 01 00:00:00
FILE "05. Alwoods – Low Red Moon.wav" WAVE
TRACK 05 AUDIO
TITLE "Low Red Moon"
PERFORMER "Alwoods"
INDEX 01 00:00:00
FILE "06. Alwoods – Sun Trap.wav" WAVE
TRACK 06 AUDIO
TITLE "Sun Trap"
PERFORMER "Alwoods"
INDEX 01 00:00:00
FILE "07. Alwoods – Samo8raki.wav" WAVE
TRACK 07 AUDIO
TITLE "Samo8raki"
PERFORMER "Alwoods"
INDEX 01 00:00:00
FILE "08. Alwoods – Kerkini Lake.wav" WAVE
TRACK 08 AUDIO
TITLE "Kerkini Lake"
PERFORMER "Alwoods"
INDEX 01 00:00:00

info [Профиль]  [ЛС] 
Показать сообщения:    
Ответить на тему

Текущее время: 23-Май 00:40

Часовой пояс: GMT + 4



Вы не можете начинать темы
Вы не можете отвечать на сообщения
Вы не можете редактировать свои сообщения
Вы не можете удалять свои сообщения
Вы не можете голосовать в опросах
Вы не можете прикреплять файлы к сообщениям
Вы не можете скачивать файлы