Ошибка

(indie, indie pop, electronic) It's A Musical - For Years And Years - 2012, FLAC (tracks+.cue), lossless

Ответить на тему
 
Автор Сообщение

kossmos

Пол: Пол:Муж

Стаж: 12 лет

Сообщений: 269

Украина
Рейтинг

post 02-Мар-2012 17:41 0[+]

[Цитировать] 

It's A Musical - For Years And Years


pic="http://s002.youpic.su/pictures/1330635600/3c33f83456de45c59fd8b3f60d191baa.jpg"


Жанр: indie, indie pop, electronic
Год издания данного носителя: 2012
Страна-производитель носителя: 1
Лейбл: Morr Music
Каталоговый номер: MM110
Аудио кодек: FLAC
Тип рипа: tracks+.cue
Битрейт аудио: lossless
Продолжительность: 00:41:53
Источник (релизер): Scene
Полиграфия: Отсутствует

Треклист:
01. For Years And Years (3:39)
02. As Soon As I (4:10)
03. The Nap (3:07)
04. Pointback (3:30)
05. Peace And Trees (3:34)
06. The Team That Never Wins (2:52)
07. Fish Song (3:12)
08. Ljubljana (3:36)
09. Pictures (3:58)
10. One Million People (2:46)
11. The Dream (3:52)
12. Bring It On (3:36)
Exact Audio Copy V1.0 beta 3 from 29. August 2011 
EAC extraction logfile from 19. February 2012, 21:37
It's A Musical / For Years And Years
Used drive : MATSHITADVD-R UJ-8A8 Adapter: 1 ID: 0
Read mode : Secure
Utilize accurate stream : Yes
Defeat audio cache : Yes
Make use of C2 pointers : No
Read offset correction : 102
Overread into Lead-In and Lead-Out : No
Fill up missing offset samples with silence : Yes
Delete leading and trailing silent blocks : No
Null samples used in CRC calculations : Yes
Used interface : Native Win32 interface for Win NT & 2000
Gap handling : Appended to previous track
Used output format : User Defined Encoder
Selected bitrate : 1024 kBit/s
Quality : High
Add ID3 tag : No
Command line compressor : C:Program Files (x86)Exact Audio CopyFlacflac.exe
Additional command line options : -8 -V -T "ARTIST=%artist%" -T "TITLE=%title%" -T "ALBUM=%albumtitle%" -T "DATE=%year%" -T "TRACKNUMBER=%tracknr1%" -T "GENRE=%genre%" -T "DISCNUMBER=%cdnumber%" -T "TOTALDISCS=%totalcds%" -T "TOTALTRACKS=%numtracks%" %source% -o %dest%
TOC of the extracted CD
Track | Start | Length | Start sector | End sector
---------------------------------------------------------
1 | 0:00.00 | 3:38.65 | 0 | 16414
2 | 3:38.65 | 4:09.69 | 16415 | 35158
3 | 7:48.59 | 3:06.57 | 35159 | 49165
4 | 10:55.41 | 3:30.03 | 49166 | 64918
5 | 14:25.44 | 3:34.27 | 64919 | 80995
6 | 17:59.71 | 2:52.35 | 80996 | 93930
7 | 20:52.31 | 3:12.30 | 93931 | 108360
8 | 24:04.61 | 3:35.39 | 108361 | 124524
9 | 27:40.25 | 3:58.34 | 124525 | 142408
10 | 31:38.59 | 2:46.24 | 142409 | 154882
11 | 34:25.08 | 3:51.44 | 154883 | 172251
12 | 38:16.52 | 3:36.33 | 172252 | 188484
Track 1
Filename C:It's A Musical-For Years And Years�1-It's_A_Musical-For_Years_And_Years.wav
Pre-gap length 0:00:02.00
Peak level 99.9 %
Extraction speed 1.5 X
Track quality 100.0 %
Test CRC 26CCE503
Copy CRC 26CCE503
Track not present in AccurateRip database
Copy OK
Track 2
Filename C:It's A Musical-For Years And Years�2-It's_A_Musical-As_Soon_As_I.wav
Peak level 99.9 %
Extraction speed 1.7 X
Track quality 100.0 %
Test CRC A780159E
Copy CRC A780159E
Track not present in AccurateRip database
Copy OK
Track 3
Filename C:It's A Musical-For Years And Years�3-It's_A_Musical-The_Nap.wav
Peak level 99.9 %
Extraction speed 1.7 X
Track quality 100.0 %
Test CRC 3EC94F9D
Copy CRC 3EC94F9D
Track not present in AccurateRip database
Copy OK
Track 4
Filename C:It's A Musical-For Years And Years�4-It's_A_Musical-Pointback.wav
Peak level 99.9 %
Extraction speed 1.9 X
Track quality 100.0 %
Test CRC 55C34843
Copy CRC 55C34843
Track not present in AccurateRip database
Copy OK
Track 5
Filename C:It's A Musical-For Years And Years�5-It's_A_Musical-Peace_And_Trees.wav
Peak level 99.9 %
Extraction speed 2.0 X
Track quality 100.0 %
Test CRC E881C143
Copy CRC E881C143
Track not present in AccurateRip database
Copy OK
Track 6
Filename C:It's A Musical-For Years And Years�6-It's_A_Musical-The_Team_That_Never_Wins.wav
Peak level 99.9 %
Extraction speed 2.0 X
Track quality 100.0 %
Test CRC 771E21F8
Copy CRC 771E21F8
Track not present in AccurateRip database
Copy OK
Track 7
Filename C:It's A Musical-For Years And Years�7-It's_A_Musical-Fish_Song.wav
Peak level 99.9 %
Extraction speed 2.1 X
Track quality 100.0 %
Test CRC E096FDB2
Copy CRC E096FDB2
Track not present in AccurateRip database
Copy OK
Track 8
Filename C:It's A Musical-For Years And Years�8-It's_A_Musical-Ljubljana.wav
Peak level 99.9 %
Extraction speed 2.3 X
Track quality 100.0 %
Test CRC 8D7CB541
Copy CRC 8D7CB541
Track not present in AccurateRip database
Copy OK
Track 9
Filename C:It's A Musical-For Years And Years�9-It's_A_Musical-Pictures.wav
Peak level 99.9 %
Extraction speed 2.4 X
Track quality 100.0 %
Test CRC 9B3B7383
Copy CRC 9B3B7383
Track not present in AccurateRip database
Copy OK
Track 10
Filename C:It's A Musical-For Years And Years10-It's_A_Musical-One_Million_People.wav
Peak level 99.9 %
Extraction speed 2.0 X
Track quality 99.9 %
Test CRC 98D075A0
Copy CRC 98D075A0
Track not present in AccurateRip database
Copy OK
Track 11
Filename C:It's A Musical-For Years And Years11-It's_A_Musical-The_Dream.wav
Peak level 99.9 %
Extraction speed 2.5 X
Track quality 100.0 %
Test CRC 6E1D8304
Copy CRC 6E1D8304
Track not present in AccurateRip database
Copy OK
Track 12
Filename C:It's A Musical-For Years And Years12-It's_A_Musical-Bring_It_On.wav
Peak level 99.9 %
Extraction speed 2.3 X
Track quality 99.9 %
Test CRC 2A724752
Copy CRC 2A724752
Track not present in AccurateRip database
Copy OK
None of the tracks are present in the AccurateRip database
No errors occurred
End of status report
==== Log checksum E3C34E1288191D825A664007C25962CCD5EB52610CFAB214C5877469D63B734C ====
REM GENRE Indie 
REM DATE 2012
REM DISCID 9A09D10C
REM COMMENT "ExactAudioCopy v1.0b3"
PERFORMER "It's A Musical"
TITLE "For Years And Years"
FILE "01-its_a_musical-for_years_and_years.wav" WAVE
TRACK 01 AUDIO
TITLE "For Years And Years"
PERFORMER "It's A Musical"
ISRC DEX261111001
INDEX 01 00:00:00
FILE "02-its_a_musical-as_soon_as_i.wav" WAVE
TRACK 02 AUDIO
TITLE "As Soon As I"
PERFORMER "It's A Musical"
ISRC DEX261111002
INDEX 01 00:00:00
FILE "03-its_a_musical-the_nap.wav" WAVE
TRACK 03 AUDIO
TITLE "The Nap"
PERFORMER "It's A Musical"
ISRC DEX261111003
INDEX 01 00:00:00
FILE "04-its_a_musical-pointback.wav" WAVE
TRACK 04 AUDIO
TITLE "Pointback"
PERFORMER "It's A Musical"
ISRC DEX261111004
INDEX 01 00:00:00
FILE "05-its_a_musical-peace_and_trees.wav" WAVE
TRACK 05 AUDIO
TITLE "Peace And Trees"
PERFORMER "It's A Musical"
ISRC DEX261111005
INDEX 01 00:00:00
FILE "06-its_a_musical-the_team_that_never_wins.wav" WAVE
TRACK 06 AUDIO
TITLE "The Team That Never Wins"
PERFORMER "It's A Musical"
ISRC DEX261111006
INDEX 01 00:00:00
FILE "07-its_a_musical-fish_song.wav" WAVE
TRACK 07 AUDIO
TITLE "Fish Song"
PERFORMER "It's A Musical"
ISRC DEX261111007
INDEX 01 00:00:00
FILE "08-its_a_musical-ljubljana.wav" WAVE
TRACK 08 AUDIO
TITLE "Ljubljana"
PERFORMER "It's A Musical"
ISRC DEX261111008
INDEX 01 00:00:00
FILE "09-its_a_musical-pictures.wav" WAVE
TRACK 09 AUDIO
TITLE "Pictures"
PERFORMER "It's A Musical"
ISRC DEX261111009
INDEX 01 00:00:00
FILE "10-its_a_musical-one_million_people.wav" WAVE
TRACK 10 AUDIO
TITLE "One Million People"
PERFORMER "It's A Musical"
ISRC DEX261111010
INDEX 01 00:00:00
FILE "11-its_a_musical-the_dream.wav" WAVE
TRACK 11 AUDIO
TITLE "The Dream"
PERFORMER "It's A Musical"
ISRC DEX261111011
INDEX 01 00:00:00
FILE "12-its_a_musical-bring_it_on.wav" WAVE
TRACK 12 AUDIO
TITLE "Bring It On"
PERFORMER "It's A Musical"
ISRC DEX261111012
INDEX 01 00:00:00
info [Профиль]  [ЛС] 

Shekler

Пол: Пол:Муж

Стаж: 11 лет

Сообщений: 16

Предупреждений: 1

Белоруссия
Рейтинг

post 03-Мар-2012 00:47 (спустя 7 часов) [-]0[+]

[Цитировать] 

Спасибо за качественный рип.

_________________
Game Center: Strakholet
Steam: Strakholet
info [Профиль]  [ЛС] 
Показать сообщения:    
Ответить на тему

Текущее время: 23-Май 00:51

Часовой пояс: GMT + 4



Вы не можете начинать темы
Вы не можете отвечать на сообщения
Вы не можете редактировать свои сообщения
Вы не можете удалять свои сообщения
Вы не можете голосовать в опросах
Вы не можете прикреплять файлы к сообщениям
Вы не можете скачивать файлы