Ошибка

(Hip-Hop) Tyga - Careless World: Rise of the Last King - 2012, FLAC (tracks+.cue), lossless

Ответить на тему
 
Автор Сообщение

Raxent

Пол: Пол:Муж

Стаж: 12 лет

Сообщений: 219

Рейтинг

post 29-Фев-2012 10:39 0[+]

[Цитировать] 

Tyga - Careless World: Rise of the Last King
Жанр: Hip-Hop
Страна-производитель диска: USA
Год издания диска: 2012
Издатель: Cash Money, Universal Republic
Номер по каталогу: 001630602
Страна: USA
Аудиокодек: FLAC (*.flac)
Тип рипа: tracks+.cue
Битрейт аудио: lossless
Продолжительность: 01:19:27
Источник: what.cd (mrlatinos)
Наличие сканов в содержимом раздачи: нет
Треклист:
01. Careless World (4:29)
02. Lil Homie (Feat. Pharell) (3:54)
03. Muthafucka Up (Feat. Nicki Minaj) (3:54)
04. Echoes Interlude (0:55)
05. Do It All (4:54)
06. Im Gone (Feat. Big Sean) (4:55)
07. For The Fame (Feat. Chris Brown And Wynter Gordon) (3:52)
08. Birdman Interlude (0:50)
09. Potty Mouth (Feat. Busta Rhymes) (4:44)
10. Faded (Feat. Lil Wayne) (3:27)
11. Rack City (3:23)
12. Black Crowns (5:26)
13. Celebration (Feat. T-Pain) (3:01)
14. Far Away (Feat. Chris Richardson) (3:27)
15. Mystic Aka Mado Kara Mieru Interlude (0:23)
16. This Is Like (Feat. Robin Thicke) (4:18)
17. King And Queens (Feat. Wale And Nas) (4:08)
18. Let It Show (Feat. J. Cole) (4:00)
19. Love Game (7:34)
20. Lay You Down (Feat. Lil Wayne) (4:05)
21. Light Dreams (Feat. Marsha Ambrosius) (3:49)

Код:

Exact Audio Copy V1.0 beta 3 from 29. August 2011

EAC extraction logfile from 27. February 2012, 15:59

Tyga / Careless World: Rise of the Last King

Used drive  : LITE-ON LTR-40125S   Adapter: 3  ID: 0

Read mode               : Secure
Utilize accurate stream : Yes
Defeat audio cache      : Yes
Make use of C2 pointers : No

Read offset correction                      : 12
Overread into Lead-In and Lead-Out          : No
Fill up missing offset samples with silence : Yes
Delete leading and trailing silent blocks   : No
Null samples used in CRC calculations       : Yes
Used interface                              : Native Win32 interface for Win NT & 2000
Gap handling                                : Appended to previous track

Used output format              : User Defined Encoder
Selected bitrate                : 1024 kBit/s
Quality                         : High
Add ID3 tag                     : No
Command line compressor         : C:\Program Files (x86)\Exact Audio Copy\Flac\flac.exe
Additional command line options : -8 -V -T "ARTIST=%artist%" -T "TITLE=%title%" -T "ALBUM=%albumtitle%" -T "DATE=%year%" -T "TRACKNUMBER=%tracknr%" -T "GENRE=%genre%" -T "PERFORMER=%albuminterpret%" -T "COMPOSER=%composer%" %haslyrics%--tag-from-file=LYRICS="%lyricsfile%"%haslyrics% -T "ALBUMARTIST=%albumartist%" -T "DISCNUMBER=%cdnumber%" -T "TOTALDISCS=%totalcds%" -T "TOTALTRACKS=%numtracks%" -T "COMMENT=%comment%" %source% -o %dest%

TOC of the extracted CD

     Track |   Start  |  Length  | Start sector | End sector
    ---------------------------------------------------------
        1  |  0:00.00 |  4:29.23 |         0    |    20197
        2  |  4:29.23 |  3:54.09 |     20198    |    37756
        3  |  8:23.32 |  3:53.50 |     37757    |    55281
        4  | 12:17.07 |  0:54.67 |     55282    |    59398
        5  | 13:11.74 |  4:54.35 |     59399    |    81483
        6  | 18:06.34 |  4:54.43 |     81484    |   103576
        7  | 23:01.02 |  3:52.21 |    103577    |   120997
        8  | 26:53.23 |  0:50.01 |    120998    |   124748
        9  | 27:43.24 |  4:43.59 |    124749    |   146032
       10  | 32:27.08 |  3:26.51 |    146033    |   161533
       11  | 35:53.59 |  3:23.14 |    161534    |   176772
       12  | 39:16.73 |  5:25.57 |    176773    |   201204
       13  | 44:42.55 |  3:01.04 |    201205    |   214783
       14  | 47:43.59 |  3:26.39 |    214784    |   230272
       15  | 51:10.23 |  0:23.03 |    230273    |   232000
       16  | 51:33.26 |  4:17.57 |    232001    |   251332
       17  | 55:51.08 |  4:08.35 |    251333    |   269967
       18  | 59:59.43 |  3:59.58 |    269968    |   287950
       19  | 63:59.26 |  7:34.21 |    287951    |   322021
       20  | 71:33.47 |  4:04.58 |    322022    |   340379
       21  | 75:38.30 |  3:48.52 |    340380    |   357531

Track  1

     Filename C:\Users\Matthew\Desktop\Tyga - Careless World (2012) [FLAC]\01 Careless World.wav

     Pre-gap length  0:00:02.00

     Peak level 99.8 %
     Extraction speed 14.1 X
     Track quality 100.0 %
     Test CRC D5D6A5F2
     Copy CRC D5D6A5F2
     Track not present in AccurateRip database
     Copy OK

Track  2

     Filename C:\Users\Matthew\Desktop\Tyga - Careless World (2012) [FLAC]\02 Lil Homie.wav

     Peak level 99.8 %
     Extraction speed 15.0 X
     Track quality 100.0 %
     Test CRC CCC9778B
     Copy CRC CCC9778B
     Track not present in AccurateRip database
     Copy OK

Track  3

     Filename C:\Users\Matthew\Desktop\Tyga - Careless World (2012) [FLAC]\03 Muthaf--ka Up.wav

     Peak level 99.8 %
     Extraction speed 15.7 X
     Track quality 100.0 %
     Test CRC 98FDE4E8
     Copy CRC 98FDE4E8
     Track not present in AccurateRip database
     Copy OK

Track  4

     Filename C:\Users\Matthew\Desktop\Tyga - Careless World (2012) [FLAC]\04 Echoes Interlude.wav

     Peak level 88.9 %
     Extraction speed 13.0 X
     Track quality 100.0 %
     Test CRC 242547E0
     Copy CRC 242547E0
     Track not present in AccurateRip database
     Copy OK

Track  5

     Filename C:\Users\Matthew\Desktop\Tyga - Careless World (2012) [FLAC]\05 Do It All.wav

     Peak level 99.8 %
     Extraction speed 14.5 X
     Track quality 99.9 %
     Test CRC F41EB066
     Copy CRC F41EB066
     Track not present in AccurateRip database
     Copy OK

Track  6

     Filename C:\Users\Matthew\Desktop\Tyga - Careless World (2012) [FLAC]\06 I'm Gone.wav

     Peak level 99.8 %
     Extraction speed 17.5 X
     Track quality 100.0 %
     Test CRC 2CC62F35
     Copy CRC 2CC62F35
     Track not present in AccurateRip database
     Copy OK

Track  7

     Filename C:\Users\Matthew\Desktop\Tyga - Careless World (2012) [FLAC]\07 For the Fame.wav

     Peak level 99.9 %
     Extraction speed 17.8 X
     Track quality 100.0 %
     Test CRC 64693B50
     Copy CRC 64693B50
     Track not present in AccurateRip database
     Copy OK

Track  8

     Filename C:\Users\Matthew\Desktop\Tyga - Careless World (2012) [FLAC]\08 Birdman Interlude.wav

     Peak level 88.9 %
     Extraction speed 13.9 X
     Track quality 100.0 %
     Test CRC 2604F6E6
     Copy CRC 2604F6E6
     Track not present in AccurateRip database
     Copy OK

Track  9

     Filename C:\Users\Matthew\Desktop\Tyga - Careless World (2012) [FLAC]\09 Potty Mouth.wav

     Peak level 99.8 %
     Extraction speed 18.7 X
     Track quality 100.0 %
     Test CRC 469999B6
     Copy CRC 469999B6
     Track not present in AccurateRip database
     Copy OK

Track 10

     Filename C:\Users\Matthew\Desktop\Tyga - Careless World (2012) [FLAC]\10 Faded.wav

     Peak level 99.8 %
     Extraction speed 18.6 X
     Track quality 100.0 %
     Test CRC 673C03BF
     Copy CRC 673C03BF
     Track not present in AccurateRip database
     Copy OK

Track 11

     Filename C:\Users\Matthew\Desktop\Tyga - Careless World (2012) [FLAC]\11 Rack City.wav

     Peak level 97.6 %
     Extraction speed 15.0 X
     Track quality 99.9 %
     Test CRC 0B3A7E1D
     Copy CRC 0B3A7E1D
     Track not present in AccurateRip database
     Copy OK

Track 12

     Filename C:\Users\Matthew\Desktop\Tyga - Careless World (2012) [FLAC]\12 Black Crowns.wav

     Peak level 99.8 %
     Extraction speed 19.9 X
     Track quality 100.0 %
     Test CRC 8132F368
     Copy CRC 8132F368
     Track not present in AccurateRip database
     Copy OK

Track 13

     Filename C:\Users\Matthew\Desktop\Tyga - Careless World (2012) [FLAC]\13 Celebration.wav

     Peak level 99.8 %
     Extraction speed 19.3 X
     Track quality 100.0 %
     Test CRC AEF4C30D
     Copy CRC AEF4C30D
     Track not present in AccurateRip database
     Copy OK

Track 14

     Filename C:\Users\Matthew\Desktop\Tyga - Careless World (2012) [FLAC]\14 Far Away.wav

     Peak level 100.0 %
     Extraction speed 19.6 X
     Track quality 100.0 %
     Test CRC C0588091
     Copy CRC C0588091
     Track not present in AccurateRip database
     Copy OK

Track 15

     Filename C:\Users\Matthew\Desktop\Tyga - Careless World (2012) [FLAC]\15 Mystic (aka Mado Kara Mieru Interlude).wav

     Peak level 86.0 %
     Extraction speed 11.1 X
     Track quality 100.0 %
     Test CRC 693F6B92
     Copy CRC 693F6B92
     Track not present in AccurateRip database
     Copy OK

Track 16

     Filename C:\Users\Matthew\Desktop\Tyga - Careless World (2012) [FLAC]\16 This Is Like.wav

     Peak level 99.8 %
     Extraction speed 20.6 X
     Track quality 100.0 %
     Test CRC 1B309503
     Copy CRC 1B309503
     Track not present in AccurateRip database
     Copy OK

Track 17

     Filename C:\Users\Matthew\Desktop\Tyga - Careless World (2012) [FLAC]\17 King & Queens.wav

     Peak level 99.8 %
     Extraction speed 20.4 X
     Track quality 100.0 %
     Test CRC 830C8025
     Copy CRC 830C8025
     Track not present in AccurateRip database
     Copy OK

Track 18

     Filename C:\Users\Matthew\Desktop\Tyga - Careless World (2012) [FLAC]\18 Let It Show.wav

     Peak level 99.8 %
     Extraction speed 21.0 X
     Track quality 100.0 %
     Test CRC 08E58A99
     Copy CRC 08E58A99
     Track not present in AccurateRip database
     Copy OK

Track 19

     Filename C:\Users\Matthew\Desktop\Tyga - Careless World (2012) [FLAC]\19 Love Game.wav

     Peak level 99.8 %
     Extraction speed 22.1 X
     Track quality 100.0 %
     Test CRC 446A1D38
     Copy CRC 0B361E5F
     Track not present in AccurateRip database
     Copy OK

Track 20

     Filename C:\Users\Matthew\Desktop\Tyga - Careless World (2012) [FLAC]\20 Lay You Down.wav

     Peak level 99.8 %
     Extraction speed 21.7 X
     Track quality 100.0 %
     Test CRC 168ECE03
     Copy CRC 168ECE03
     Track not present in AccurateRip database
     Copy OK

Track 21

     Filename C:\Users\Matthew\Desktop\Tyga - Careless World (2012) [FLAC]\21 Light Dreams.wav

     Peak level 99.8 %
     Extraction speed 17.2 X
     Track quality 100.0 %
     Test CRC 8396EF1A
     Copy CRC 8396EF1A
     Track not present in AccurateRip database
     Copy OK

None of the tracks are present in the AccurateRip database

No errors occurred

End of status report

---- CUETools DB Plugin V2.1.3

[CTDB TOCID: vYttSpuG.VyQNHJW229KpBeh13o-] disk not present in database, Submit result: insufficient quality

==== Log checksum 98109627AE6C08F7DC23422007D6EED9DB08DB0EA6758B245CFD0AD45EBBE055 ====

------------------------------------------------------------

Exact Audio Copy V1.0 beta 3 from 29. August 2011

EAC extraction logfile from 27. February 2012, 16:16

Tyga / Careless World: Rise of the Last King

Used drive  : LITE-ON LTR-40125S   Adapter: 3  ID: 0

Read mode               : Secure
Utilize accurate stream : Yes
Defeat audio cache      : Yes
Make use of C2 pointers : No

Read offset correction                      : 12
Overread into Lead-In and Lead-Out          : No
Fill up missing offset samples with silence : Yes
Delete leading and trailing silent blocks   : No
Null samples used in CRC calculations       : Yes
Used interface                              : Native Win32 interface for Win NT & 2000
Gap handling                                : Appended to previous track

Used output format              : User Defined Encoder
Selected bitrate                : 1024 kBit/s
Quality                         : High
Add ID3 tag                     : No
Command line compressor         : C:\Program Files (x86)\Exact Audio Copy\Flac\flac.exe
Additional command line options : -8 -V -T "ARTIST=%artist%" -T "TITLE=%title%" -T "ALBUM=%albumtitle%" -T "DATE=%year%" -T "TRACKNUMBER=%tracknr%" -T "GENRE=%genre%" -T "PERFORMER=%albuminterpret%" -T "COMPOSER=%composer%" %haslyrics%--tag-from-file=LYRICS="%lyricsfile%"%haslyrics% -T "ALBUMARTIST=%albumartist%" -T "DISCNUMBER=%cdnumber%" -T "TOTALDISCS=%totalcds%" -T "TOTALTRACKS=%numtracks%" -T "COMMENT=%comment%" %source% -o %dest%

TOC of the extracted CD

     Track |   Start  |  Length  | Start sector | End sector
    ---------------------------------------------------------
        1  |  0:00.00 |  4:29.23 |         0    |    20197
        2  |  4:29.23 |  3:54.09 |     20198    |    37756
        3  |  8:23.32 |  3:53.50 |     37757    |    55281
        4  | 12:17.07 |  0:54.67 |     55282    |    59398
        5  | 13:11.74 |  4:54.35 |     59399    |    81483
        6  | 18:06.34 |  4:54.43 |     81484    |   103576
        7  | 23:01.02 |  3:52.21 |    103577    |   120997
        8  | 26:53.23 |  0:50.01 |    120998    |   124748
        9  | 27:43.24 |  4:43.59 |    124749    |   146032
       10  | 32:27.08 |  3:26.51 |    146033    |   161533
       11  | 35:53.59 |  3:23.14 |    161534    |   176772
       12  | 39:16.73 |  5:25.57 |    176773    |   201204
       13  | 44:42.55 |  3:01.04 |    201205    |   214783
       14  | 47:43.59 |  3:26.39 |    214784    |   230272
       15  | 51:10.23 |  0:23.03 |    230273    |   232000
       16  | 51:33.26 |  4:17.57 |    232001    |   251332
       17  | 55:51.08 |  4:08.35 |    251333    |   269967
       18  | 59:59.43 |  3:59.58 |    269968    |   287950
       19  | 63:59.26 |  7:34.21 |    287951    |   322021
       20  | 71:33.47 |  4:04.58 |    322022    |   340379
       21  | 75:38.30 |  3:48.52 |    340380    |   357531

Track  1

     Filename C:\Users\Matthew\Desktop\Tyga - Careless World (2012) [FLAC]\01 Careless World.wav

     Pre-gap length  0:00:02.00

     Peak level 99.8 %
     Extraction speed 12.7 X
     Track quality 100.0 %
     Test CRC D5D6A5F2
     Copy CRC D5D6A5F2
     Track not present in AccurateRip database
     Copy OK

Track  2

     Filename C:\Users\Matthew\Desktop\Tyga - Careless World (2012) [FLAC]\02 Lil Homie.wav

     Peak level 99.8 %
     Extraction speed 15.1 X
     Track quality 100.0 %
     Test CRC CCC9778B
     Copy CRC CCC9778B
     Track not present in AccurateRip database
     Copy OK

Track  3

     Filename C:\Users\Matthew\Desktop\Tyga - Careless World (2012) [FLAC]\03 Muthaf--ka Up.wav

     Peak level 99.8 %
     Extraction speed 15.8 X
     Track quality 100.0 %
     Test CRC 98FDE4E8
     Copy CRC 98FDE4E8
     Track not present in AccurateRip database
     Copy OK

Track  4

     Filename C:\Users\Matthew\Desktop\Tyga - Careless World (2012) [FLAC]\04 Echoes Interlude.wav

     Peak level 88.9 %
     Extraction speed 13.1 X
     Track quality 100.0 %
     Test CRC 242547E0
     Copy CRC 242547E0
     Track not present in AccurateRip database
     Copy OK

Track  5

     Filename C:\Users\Matthew\Desktop\Tyga - Careless World (2012) [FLAC]\05 Do It All.wav

     Peak level 99.8 %
     Extraction speed 14.6 X
     Track quality 99.9 %
     Test CRC F41EB066
     Copy CRC F41EB066
     Track not present in AccurateRip database
     Copy OK

Track  6

     Filename C:\Users\Matthew\Desktop\Tyga - Careless World (2012) [FLAC]\06 I'm Gone.wav

     Peak level 99.8 %
     Extraction speed 17.6 X
     Track quality 100.0 %
     Test CRC 2CC62F35
     Copy CRC 2CC62F35
     Track not present in AccurateRip database
     Copy OK

Track  7

     Filename C:\Users\Matthew\Desktop\Tyga - Careless World (2012) [FLAC]\07 For the Fame.wav

     Peak level 99.9 %
     Extraction speed 17.9 X
     Track quality 100.0 %
     Test CRC 64693B50
     Copy CRC 64693B50
     Track not present in AccurateRip database
     Copy OK

Track  8

     Filename C:\Users\Matthew\Desktop\Tyga - Careless World (2012) [FLAC]\08 Birdman Interlude.wav

     Peak level 88.9 %
     Extraction speed 14.0 X
     Track quality 100.0 %
     Test CRC 2604F6E6
     Copy CRC 2604F6E6
     Track not present in AccurateRip database
     Copy OK

Track  9

     Filename C:\Users\Matthew\Desktop\Tyga - Careless World (2012) [FLAC]\09 Potty Mouth.wav

     Peak level 99.8 %
     Extraction speed 18.8 X
     Track quality 100.0 %
     Test CRC 469999B6
     Copy CRC 469999B6
     Track not present in AccurateRip database
     Copy OK

Track 10

     Filename C:\Users\Matthew\Desktop\Tyga - Careless World (2012) [FLAC]\10 Faded.wav

     Peak level 99.8 %
     Extraction speed 18.7 X
     Track quality 100.0 %
     Test CRC 673C03BF
     Copy CRC 673C03BF
     Track not present in AccurateRip database
     Copy OK

Track 11

     Filename C:\Users\Matthew\Desktop\Tyga - Careless World (2012) [FLAC]\11 Rack City.wav

     Peak level 97.6 %
     Extraction speed 15.1 X
     Track quality 99.9 %
     Test CRC 0B3A7E1D
     Copy CRC 0B3A7E1D
     Track not present in AccurateRip database
     Copy OK

Track 12

     Filename C:\Users\Matthew\Desktop\Tyga - Careless World (2012) [FLAC]\12 Black Crowns.wav

     Peak level 99.8 %
     Extraction speed 20.1 X
     Track quality 100.0 %
     Test CRC 8132F368
     Copy CRC 8132F368
     Track not present in AccurateRip database
     Copy OK

Track 13

     Filename C:\Users\Matthew\Desktop\Tyga - Careless World (2012) [FLAC]\13 Celebration.wav

     Peak level 99.8 %
     Extraction speed 19.4 X
     Track quality 100.0 %
     Test CRC AEF4C30D
     Copy CRC AEF4C30D
     Track not present in AccurateRip database
     Copy OK

Track 14

     Filename C:\Users\Matthew\Desktop\Tyga - Careless World (2012) [FLAC]\14 Far Away.wav

     Peak level 100.0 %
     Extraction speed 19.9 X
     Track quality 100.0 %
     Test CRC C0588091
     Copy CRC C0588091
     Track not present in AccurateRip database
     Copy OK

Track 15

     Filename C:\Users\Matthew\Desktop\Tyga - Careless World (2012) [FLAC]\15 Mystic (aka Mado Kara Mieru Interlude).wav

     Peak level 86.0 %
     Extraction speed 11.3 X
     Track quality 100.0 %
     Test CRC 693F6B92
     Copy CRC 693F6B92
     Track not present in AccurateRip database
     Copy OK

Track 16

     Filename C:\Users\Matthew\Desktop\Tyga - Careless World (2012) [FLAC]\16 This Is Like.wav

     Peak level 99.8 %
     Extraction speed 20.7 X
     Track quality 100.0 %
     Test CRC 1B309503
     Copy CRC 1B309503
     Track not present in AccurateRip database
     Copy OK

Track 17

     Filename C:\Users\Matthew\Desktop\Tyga - Careless World (2012) [FLAC]\17 King & Queens.wav

     Peak level 99.8 %
     Extraction speed 20.8 X
     Track quality 100.0 %
     Test CRC 830C8025
     Copy CRC 830C8025
     Track not present in AccurateRip database
     Copy OK

Track 18

     Filename C:\Users\Matthew\Desktop\Tyga - Careless World (2012) [FLAC]\18 Let It Show.wav

     Peak level 99.8 %
     Extraction speed 21.0 X
     Track quality 100.0 %
     Test CRC 08E58A99
     Copy CRC 08E58A99
     Track not present in AccurateRip database
     Copy OK

Track 19

     Filename C:\Users\Matthew\Desktop\Tyga - Careless World (2012) [FLAC]\19 Love Game.wav

     Peak level 99.8 %
     Extraction speed 22.4 X
     Track quality 100.0 %
     Test CRC 446A1D38
     Copy CRC 446A1D38
     Track not present in AccurateRip database
     Copy OK

Track 20

     Filename C:\Users\Matthew\Desktop\Tyga - Careless World (2012) [FLAC]\20 Lay You Down.wav

     Peak level 99.8 %
     Extraction speed 21.9 X
     Track quality 100.0 %
     Test CRC 168ECE03
     Copy CRC 168ECE03
     Track not present in AccurateRip database
     Copy OK

Track 21

     Filename C:\Users\Matthew\Desktop\Tyga - Careless World (2012) [FLAC]\21 Light Dreams.wav

     Peak level 99.8 %
     Extraction speed 17.4 X
     Track quality 100.0 %
     Test CRC 8396EF1A
     Copy CRC 8396EF1A
     Track not present in AccurateRip database
     Copy OK

None of the tracks are present in the AccurateRip database

No errors occurred

End of status report

---- CUETools DB Plugin V2.1.3

[CTDB TOCID: vYttSpuG.VyQNHJW229KpBeh13o-] disk not present in database, Submit result: vYttSpuG.VyQNHJW229KpBeh13o- has been uploaded

==== Log checksum 6B27319D5C8BD37AC8E87475E9C8C076371E22FFCBFA50B9166B226F19483629 ====

Код:

REM GENRE Hip-Hop/Rap
REM DATE 2012
REM DISCID 41129F15
REM COMMENT "ExactAudioCopy v1.0b3"
CATALOG 0602527874463
PERFORMER "Tyga"
TITLE "Careless World: Rise of the Last King"
FILE "01 Careless World.wav" WAVE
  TRACK 01 AUDIO
    TITLE "Careless World"
    PERFORMER "Tyga"
    ISRC USCM51200015
    INDEX 01 00:00:00
FILE "02 Lil Homie.wav" WAVE
  TRACK 02 AUDIO
    TITLE "Lil Homie"
    PERFORMER "Tyga"
    ISRC USCM51200017
    INDEX 01 00:00:00
FILE "03 Muthaf--ka Up.wav" WAVE
  TRACK 03 AUDIO
    TITLE "Muthaf--ka Up"
    PERFORMER "Tyga"
    ISRC USCM51200019
    INDEX 01 00:00:00
FILE "04 Echoes Interlude.wav" WAVE
  TRACK 04 AUDIO
    TITLE "Echoes Interlude"
    PERFORMER "Tyga"
    ISRC USCM51200021
    INDEX 01 00:00:00
FILE "05 Do It All.wav" WAVE
  TRACK 05 AUDIO
    TITLE "Do It All"
    PERFORMER "Tyga"
    ISRC USCM51200023
    INDEX 01 00:00:00
FILE "06 I'm Gone.wav" WAVE
  TRACK 06 AUDIO
    TITLE "I'm Gone"
    PERFORMER "Tyga"
    ISRC USCM51200025
    INDEX 01 00:00:00
FILE "07 For the Fame.wav" WAVE
  TRACK 07 AUDIO
    TITLE "For the Fame"
    PERFORMER "Tyga"
    ISRC USCM51200027
    INDEX 01 00:00:00
FILE "08 Birdman Interlude.wav" WAVE
  TRACK 08 AUDIO
    TITLE "Birdman Interlude"
    PERFORMER "Tyga"
    ISRC USCM51200029
    INDEX 01 00:00:00
FILE "09 Potty Mouth.wav" WAVE
  TRACK 09 AUDIO
    TITLE "Potty Mouth"
    PERFORMER "Tyga"
    ISRC USCM51200031
    INDEX 01 00:00:00
FILE "10 Faded.wav" WAVE
  TRACK 10 AUDIO
    TITLE "Faded"
    PERFORMER "Tyga"
    ISRC USCM51200055
    INDEX 01 00:00:00
FILE "11 Rack City.wav" WAVE
  TRACK 11 AUDIO
    TITLE "Rack City"
    PERFORMER "Tyga"
    ISRC USCM51200057
    INDEX 01 00:00:00
FILE "12 Black Crowns.wav" WAVE
  TRACK 12 AUDIO
    TITLE "Black Crowns"
    PERFORMER "Tyga"
    ISRC USCM51200033
    INDEX 01 00:00:00
FILE "13 Celebration.wav" WAVE
  TRACK 13 AUDIO
    TITLE "Celebration"
    PERFORMER "Tyga"
    ISRC USCM51200035
    INDEX 01 00:00:00
FILE "14 Far Away.wav" WAVE
  TRACK 14 AUDIO
    TITLE "Far Away"
    PERFORMER "Tyga"
    ISRC USCM51200037
    INDEX 01 00:00:00
FILE "15 Mystic (aka Mado Kara Mieru Interlude).wav" WAVE
  TRACK 15 AUDIO
    TITLE "Mystic (aka Mado Kara Mieru Interlude)"
    PERFORMER "Tyga"
    ISRC USCM51200039
    INDEX 01 00:00:00
FILE "16 This Is Like.wav" WAVE
  TRACK 16 AUDIO
    TITLE "This Is Like"
    PERFORMER "Tyga"
    ISRC USCM51200041
    INDEX 01 00:00:00
FILE "17 King & Queens.wav" WAVE
  TRACK 17 AUDIO
    TITLE "King & Queens"
    PERFORMER "Tyga"
    ISRC USCM51200043
    INDEX 01 00:00:00
FILE "18 Let It Show.wav" WAVE
  TRACK 18 AUDIO
    TITLE "Let It Show"
    PERFORMER "Tyga"
    ISRC USCM51200045
    INDEX 01 00:00:00
FILE "19 Love Game.wav" WAVE
  TRACK 19 AUDIO
    TITLE "Love Game"
    PERFORMER "Tyga"
    ISRC USCM51200047
    INDEX 01 00:00:00
FILE "20 Lay You Down.wav" WAVE
  TRACK 20 AUDIO
    TITLE "Lay You Down"
    PERFORMER "Tyga"
    ISRC USCM51200049
    INDEX 01 00:00:00
FILE "21 Light Dreams.wav" WAVE
  TRACK 21 AUDIO
    TITLE "Light Dreams"
    PERFORMER "Tyga"
    ISRC USCM51200051
    INDEX 01 00:00:00
info [Профиль]  [ЛС] 

post 29-Фев-2012 10:40 (спустя 22 секунды) [-]0[+]

Топик был перенесен из форума Оформление раздач (Музыка и Музыкальное видео) в форум Зарубежный Rap, Hip-Hop, R'n'B (lossless)

saGambit
 
Показать сообщения:    
Ответить на тему

Текущее время: 03-Июл 00:15

Часовой пояс: GMT + 4



Вы не можете начинать темы
Вы не можете отвечать на сообщения
Вы не можете редактировать свои сообщения
Вы не можете удалять свои сообщения
Вы не можете голосовать в опросах
Вы не можете прикреплять файлы к сообщениям
Вы не можете скачивать файлы