Ошибка

(Doom Metal, Gothic Metal) Darkseed - Дискография -1994 - 2010, FLAC, (image+.cue)+covers, lossless

Ответить на тему
 
Автор Сообщение

VlaDai

Пол: Пол:Муж

Стаж: 5 лет 5 месяцев

Сообщений: 1051

Россия
Рейтинг

post 08-Мар-2012 21:16 0[+]

[Цитировать] 



pic="http://s002.youpic.su/pictures/1331413200/81e8038f6b9ecedb14a7b1518b82e1e9.jpg"
Жанр:Doom Metal, Gothic Metal||Происхождение исполнителя: Германия|| Год издания данного носителя: 1994 - 2010 ||Страна-производитель носителя: Германия ||Тип релиза: image+.cue|| Аудио кодек: FLAC || Битрейт аудио: lossless || Полиграфия: присутствует ||Продолжительность: 08:10:51




Romantic Tales

Треклист
01. Dream Recalled On Waking (3:19)
02. In Broken Images (7:34)
03. Above The Edge Of Doom (5:29)
04. A Charm For Sound Sleeping (3:02)

Код:

Exact Audio Copy V0.99 prebeta 3 from 28. July 2007

Отчёт EAC об извлечении, выполненном 18. октября 2010, 23:06

Darkseed / Romantic Tales

Дисковод: TSSTcorpCDDVDW SH-S202H   Adapter: 0  ID: 0

Режим чтения                 : Достоверность
Использование точного потока : Да
Отключение кэша аудио        : Да
Использование указателей C2  : Нет

Коррекция смещения при чтении                     : 6
Способность читать области Lead-in и Lead-out     : Нет
Заполнение пропущенных сэмплов тишиной            : Да
Удаление блоков с тишиной в начале и конце        : Нет
При вычислениях CRC использовались нулевые сэмплы : Да
Интерфейс                                         : Установленный внешний ASPI-интерфейс

Выходной формат : Внутренние WAV-операции
Формат сэмплов  : 44.100 Гц; 16 бит; стерео

TOC извлечённого CD

     Трек |   Старт  | Длительность | Начальный сектор | Конечный сектор
    ---------------------------------------------------------------------
       1  |  0:00.30 |    3:18.62   |          30      |      14941     
       2  |  3:19.17 |    7:33.62   |       14942      |      48978     
       3  | 10:53.04 |    5:28.41   |       48979      |      73619     
       4  | 16:21.45 |    3:02.32   |       73620      |      87301     

Характеристики диапазона извлечения и сообщения об ошибках

Выбранный диапазон

     Имя файла C:\Downloads\EAC\Darkseed - Romantic Tales.wav

     Пиковый уровень 100.0 %
     Качество диапазона 100.0 %
     CRC теста 3074B16D
     CRC копии 3074B16D
     Копирование... OK

Ошибок не произошло

 
AccurateRip: сводка
 
Трек  1  точное извлечение (доверие 1)  [E2D8B528]
Трек  2  точное извлечение (доверие 1)  [BC9F9E0F]
Трек  3  точное извлечение (доверие 1)  [A6460EBA]
Трек  4  точное извлечение (доверие 1)  [37597AE3]
 
Все треки извлечены точно

Конец отчёта

Код:

REM GENRE "Gothic Metal"
REM DATE 1994
REM DISCID 29048C04
REM COMMENT "ExactAudioCopy v0.99pb3"
PERFORMER "Darkseed"
TITLE "Romantic Tales"
FILE "Darkseed - Romantic Tales.flac" WAVE
  TRACK 01 AUDIO
    TITLE "Dream Recalled On Waking"
    PERFORMER "Darkseed"
    INDEX 00 00:00:00
    INDEX 01 00:00:30
  TRACK 02 AUDIO
    TITLE "In Broken Images"
    PERFORMER "Darkseed"
    INDEX 01 03:19:17
  TRACK 03 AUDIO
    TITLE "Above The Edge Of Doom"
    PERFORMER "Darkseed"
    INDEX 01 10:53:04
  TRACK 04 AUDIO
    TITLE "A Charm For Sound Sleeping"
    PERFORMER "Darkseed"
    INDEX 01 16:21:45

Midnight Solemnly Dance
Треклист
01. Watchful Spirit's Care (5:22)
02. Lysander (4:36)
03. Love's Heavy Burden (6:07)
04. The Sealing Day (3:46)
05. Forgetfulness (6:03)
06. Like To A Silver Bow (5:46)
07. Chariot Wheels (4:48)
08. The Bolt Of Cupid Fell (4:11)
09. Night Mislead (3:52)
10. My Worldly Task Is Done (4:50)
11. Winter Noon (3:52)

Код:

Exact Audio Copy V0.99 prebeta 3 from 28. July 2007

Отчёт EAC об извлечении, выполненном 12. октября 2010, 20:55

Darkseed / Midnight Solemnly Dance

Дисковод: TSSTcorpCDDVDW SH-S202H   Adapter: 0  ID: 0

Режим чтения                 : Достоверность
Использование точного потока : Да
Отключение кэша аудио        : Да
Использование указателей C2  : Нет

Коррекция смещения при чтении                     : 6
Способность читать области Lead-in и Lead-out     : Нет
Заполнение пропущенных сэмплов тишиной            : Да
Удаление блоков с тишиной в начале и конце        : Нет
При вычислениях CRC использовались нулевые сэмплы : Да
Интерфейс                                         : Установленный внешний ASPI-интерфейс

Выходной формат : Внутренние WAV-операции
Формат сэмплов  : 44.100 Гц; 16 бит; стерео

TOC извлечённого CD

     Трек |   Старт  | Длительность | Начальный сектор | Конечный сектор
    ---------------------------------------------------------------------
       1  |  0:00.00 |    5:22.37   |           0      |      24186     
       2  |  5:22.37 |    4:35.63   |       24187      |      44874     
       3  |  9:58.25 |    6:06.62   |       44875      |      72386     
       4  | 16:05.12 |    3:46.13   |       72387      |      89349     
       5  | 19:51.25 |    6:02.50   |       89350      |     116549     
       6  | 25:54.00 |    5:46.25   |      116550      |     142524     
       7  | 31:40.25 |    4:48.00   |      142525      |     164124     
       8  | 36:28.25 |    4:11.37   |      164125      |     182986     
       9  | 40:39.62 |    3:51.38   |      182987      |     200349     
      10  | 44:31.25 |    4:50.12   |      200350      |     222111     
      11  | 49:21.37 |    3:51.65   |      222112      |     239501     

Характеристики диапазона извлечения и сообщения об ошибках

Выбранный диапазон

     Имя файла C:\Downloads\EAC\Darkseed - Midnight Solemnly Dance.wav

     Пиковый уровень 100.0 %
     Качество диапазона 100.0 %
     CRC теста FBBDFAE1
     CRC копии FBBDFAE1
     Копирование... OK

Ошибок не произошло

 
AccurateRip: сводка
 
Трек  1  точное извлечение (доверие 4)  [5BFDB489]
Трек  2  точное извлечение (доверие 4)  [A86497A2]
Трек  3  точное извлечение (доверие 4)  [7DBA8B9E]
Трек  4  точное извлечение (доверие 4)  [C4DA11A5]
Трек  5  точное извлечение (доверие 4)  [E6CACA05]
Трек  6  точное извлечение (доверие 4)  [424E30DC]
Трек  7  точное извлечение (доверие 4)  [44511481]
Трек  8  точное извлечение (доверие 4)  [DCE5F020]
Трек  9  точное извлечение (доверие 4)  [CC88FFD4]
Трек 10  точное извлечение (доверие 4)  [562EA22C]
Трек 11  точное извлечение (доверие 4)  [3CEA86BD]
 
Все треки извлечены точно

Конец отчёта

Код:

REM GENRE "Gothic Metal"
REM DATE 1996
REM DISCID 8F0C790B
REM COMMENT "ExactAudioCopy v0.99pb3"
PERFORMER "Darkseed"
TITLE "Midnight Solemnly Dance"
FILE "Darkseed - Midnight Solemnly Dance.flac" WAVE
  TRACK 01 AUDIO
    TITLE "Watchful Spirit's Care"
    PERFORMER "Darkseed"
    INDEX 01 00:00:00
  TRACK 02 AUDIO
    TITLE "Lysander"
    PERFORMER "Darkseed"
    INDEX 00 05:20:65
    INDEX 01 05:22:37
  TRACK 03 AUDIO
    TITLE "Love's Heavy Burden"
    PERFORMER "Darkseed"
    INDEX 00 09:56:52
    INDEX 01 09:58:25
  TRACK 04 AUDIO
    TITLE "The Sealing Day"
    PERFORMER "Darkseed"
    INDEX 00 16:03:45
    INDEX 01 16:05:12
  TRACK 05 AUDIO
    TITLE "Forgetfulness"
    PERFORMER "Darkseed"
    INDEX 00 19:49:60
    INDEX 01 19:51:25
  TRACK 06 AUDIO
    TITLE "Like To A Silver Bow"
    PERFORMER "Darkseed"
    INDEX 00 25:52:27
    INDEX 01 25:54:00
  TRACK 07 AUDIO
    TITLE "Chariot Wheels"
    PERFORMER "Darkseed"
    INDEX 00 31:38:62
    INDEX 01 31:40:25
  TRACK 08 AUDIO
    TITLE "The Bolt Of Cupid Fell"
    PERFORMER "Darkseed"
    INDEX 00 36:26:57
    INDEX 01 36:28:25
  TRACK 09 AUDIO
    TITLE "Night Mislead"
    PERFORMER "Darkseed"
    INDEX 00 40:38:20
    INDEX 01 40:39:62
  TRACK 10 AUDIO
    TITLE "My Worldly Task Is Done"
    PERFORMER "Darkseed"
    INDEX 00 44:29:55
    INDEX 01 44:31:25
  TRACK 11 AUDIO
    TITLE "Winter Noon"
    PERFORMER "Darkseed"
    INDEX 00 49:20:00
    INDEX 01 49:21:37

Spellcraft
Треклист
01. Craft Her Spell (1:31)
02. Fall Whatever Falls (4:20)
03. Self Pity Sick (4:05)
04. You Will Come (4:11)
05. That Kills My Herat (3:46)
06. Be Ever Heard (3:20)
07. Walk In Me (4:12)
08. Spirits (4:44)
09. Nevermight (3:49)
10. Senca (4:30)
11. Chariot Wheels (4:52)

Код:

Exact Audio Copy V0.99 prebeta 3 from 28. July 2007

Отчёт EAC об извлечении, выполненном 21. января 2010, 9:08

Darkseed / Spellcraft

Дисковод: TSSTcorpCDDVDW SH-S202H   Adapter: 0  ID: 0

Режим чтения                 : Достоверность
Использование точного потока : Да
Отключение кэша аудио        : Да
Использование указателей C2  : Нет

Коррекция смещения при чтении                     : 6
Способность читать области Lead-in и Lead-out     : Нет
Заполнение пропущенных сэмплов тишиной            : Да
Удаление блоков с тишиной в начале и конце        : Нет
При вычислениях CRC использовались нулевые сэмплы : Да
Интерфейс                                         : Установленный внешний ASPI-интерфейс

Выходной формат : Внутренние WAV-операции
Формат сэмплов  : 44.100 Гц; 16 бит; стерео

TOC извлечённого CD

     Трек |   Старт  | Длительность | Начальный сектор | Конечный сектор
    ---------------------------------------------------------------------
       1  |  0:00.37 |    1:30.70   |          37      |       6856     
       2  |  1:31.32 |    4:20.10   |        6857      |      26366     
       3  |  5:51.42 |    4:04.52   |       26367      |      44718     
       4  |  9:56.19 |    4:10.50   |       44719      |      63518     
       5  | 14:06.69 |    3:45.73   |       63519      |      80466     
       6  | 17:52.67 |    3:19.65   |       80467      |      95456     
       7  | 21:12.57 |    4:11.50   |       95457      |     114331     
       8  | 25:24.32 |    4:43.60   |      114332      |     135616     
       9  | 30:08.17 |    3:49.12   |      135617      |     152803     
      10  | 33:57.29 |    4:30.20   |      152804      |     173073     
      11  | 38:27.49 |    4:52.28   |      173074      |     195001     

Характеристики диапазона извлечения и сообщения об ошибках

Выбранный диапазон

     Имя файла C:\ЕАС рипы\Darkseed - Spellcraft.wav

     Пиковый уровень 100.0 %
     Качество диапазона 100.0 %
     CRC теста 5927EBD9
     CRC копии 5927EBD9
     Копирование... OK

Ошибок не произошло

 
AccurateRip: сводка
 
Трек  1  нет в базе данных
Трек  2  нет в базе данных
Трек  3  нет в базе данных
Трек  4  нет в базе данных
Трек  5  нет в базе данных
Трек  6  нет в базе данных
Трек  7  нет в базе данных
Трек  8  нет в базе данных
Трек  9  нет в базе данных
Трек 10  нет в базе данных
Трек 11  нет в базе данных
 
Ни одного трека нет в базе AccurateRip

Конец отчёта

Код:

REM GENRE Gothic
REM DATE 1997
REM DISCID 910A280B
REM COMMENT "ExactAudioCopy v0.99pb3"
PERFORMER "Darkseed"
TITLE "Spellcraft"
FILE "Darkseed - Spellcraft.flac" WAVE
  TRACK 01 AUDIO
    TITLE "Craft Her Spell"
    PERFORMER "Darkseed"
    INDEX 00 00:00:00
    INDEX 01 00:00:37
  TRACK 02 AUDIO
    TITLE "Fall Whatever Falls"
    PERFORMER "Darkseed"
    INDEX 01 01:31:32
  TRACK 03 AUDIO
    TITLE "Self Pity Sick"
    PERFORMER "Darkseed"
    INDEX 00 05:49:55
    INDEX 01 05:51:42
  TRACK 04 AUDIO
    TITLE "You Will Come"
    PERFORMER "Darkseed"
    INDEX 00 09:55:13
    INDEX 01 09:56:19
  TRACK 05 AUDIO
    TITLE "That Kills My Herat"
    PERFORMER "Darkseed"
    INDEX 00 14:05:58
    INDEX 01 14:06:69
  TRACK 06 AUDIO
    TITLE "Be Ever Heard"
    PERFORMER "Darkseed"
    INDEX 00 17:51:18
    INDEX 01 17:52:67
  TRACK 07 AUDIO
    TITLE "Walk In Me"
    PERFORMER "Darkseed"
    INDEX 00 21:12:18
    INDEX 01 21:12:57
  TRACK 08 AUDIO
    TITLE "Spirits"
    PERFORMER "Darkseed"
    INDEX 00 25:23:70
    INDEX 01 25:24:32
  TRACK 09 AUDIO
    TITLE "Nevermight"
    PERFORMER "Darkseed"
    INDEX 00 30:07:33
    INDEX 01 30:08:17
  TRACK 10 AUDIO
    TITLE "Senca"
    PERFORMER "Darkseed"
    INDEX 00 33:55:70
    INDEX 01 33:57:29
  TRACK 11 AUDIO
    TITLE "Chariot Wheels"
    PERFORMER "Darkseed"
    INDEX 00 38:25:05
    INDEX 01 38:27:49

Romantic Tales


Треклист
01. Dream Recalled On Waking (3:16)
02. In Broken Images (7:29)
03. Above The Edge Of Doom (5:25)
04. A Charm For Sound Sleeping (3:03)
05. Last Dream (5:46)
06. Frozen Tears (7:53)
07. Atoned For Cries (8:52)
08. Luctu Perditus (2:16)
09. Atoned For Cries (Rough Mix) (5:31)

Код:

Exact Audio Copy V0.99 prebeta 3 from 28. July 2007

Отчёт EAC об извлечении, выполненном 12. октября 2010, 8:26

Darkseed / Romantic Tales

Дисковод: TSSTcorpCDDVDW SH-S202H   Adapter: 0  ID: 0

Режим чтения                 : Достоверность
Использование точного потока : Да
Отключение кэша аудио        : Да
Использование указателей C2  : Нет

Коррекция смещения при чтении                     : 6
Способность читать области Lead-in и Lead-out     : Нет
Заполнение пропущенных сэмплов тишиной            : Да
Удаление блоков с тишиной в начале и конце        : Нет
При вычислениях CRC использовались нулевые сэмплы : Да
Интерфейс                                         : Установленный внешний ASPI-интерфейс

Выходной формат : Внутренние WAV-операции
Формат сэмплов  : 44.100 Гц; 16 бит; стерео

TOC извлечённого CD

     Трек |   Старт  | Длительность | Начальный сектор | Конечный сектор
    ---------------------------------------------------------------------
       1  |  0:00.00 |    3:15.50   |           0      |      14674     
       2  |  3:15.50 |    7:29.25   |       14675      |      48374     
       3  | 10:45.00 |    5:24.50   |       48375      |      72724     
       4  | 16:09.50 |    3:03.00   |       72725      |      86449     
       5  | 19:12.50 |    5:46.00   |       86450      |     112399     
       6  | 24:58.50 |    7:53.25   |      112400      |     147899     
       7  | 32:52.00 |    8:52.25   |      147900      |     187824     
       8  | 41:44.25 |    2:16.25   |      187825      |     198049     
       9  | 44:00.50 |    5:30.67   |      198050      |     222866     

Характеристики диапазона извлечения и сообщения об ошибках

Выбранный диапазон

     Имя файла C:\Downloads\EAC\Darkseed - Romantic Tales.wav

     Пиковый уровень 99.1 %
     Качество диапазона 100.0 %
     CRC теста 507EF3AE
     CRC копии 507EF3AE
     Копирование... OK

Ошибок не произошло

 
AccurateRip: сводка
 
Трек  1  точное извлечение (доверие 2)  [BA8EED16]
Трек  2  точное извлечение (доверие 2)  [2AADAFBC]
Трек  3  точное извлечение (доверие 2)  [68667E82]
Трек  4  точное извлечение (доверие 2)  [A76282DF]
Трек  5  точное извлечение (доверие 2)  [87822BCD]
Трек  6  точное извлечение (доверие 2)  [B649E4DA]
Трек  7  точное извлечение (доверие 2)  [C2263408]
Трек  8  точное извлечение (доверие 2)  [6E454496]
Трек  9  точное извлечение (доверие 2)  [578F5911]
 
Все треки извлечены точно

Конец отчёта

Код:

REM GENRE "Gothic Metal"
REM DATE 1998
REM DISCID 760B9B09
REM COMMENT "ExactAudioCopy v0.99pb3"
PERFORMER "Darkseed"
TITLE "Romantic Tales"
FILE "Darkseed - Romantic Tales.flac" WAVE
  TRACK 01 AUDIO
    TITLE "Dream Recalled On Waking"
    PERFORMER "Darkseed"
    INDEX 01 00:00:00
  TRACK 02 AUDIO
    TITLE "In Broken Images"
    PERFORMER "Darkseed"
    INDEX 00 03:14:37
    INDEX 01 03:15:50
  TRACK 03 AUDIO
    TITLE "Above The Edge Of Doom"
    PERFORMER "Darkseed"
    INDEX 00 10:43:52
    INDEX 01 10:45:00
  TRACK 04 AUDIO
    TITLE "A Charm For Sound Sleeping"
    PERFORMER "Darkseed"
    INDEX 00 16:08:22
    INDEX 01 16:09:50
  TRACK 05 AUDIO
    TITLE "Last Dream"
    PERFORMER "Darkseed"
    INDEX 00 19:11:40
    INDEX 01 19:12:50
  TRACK 06 AUDIO
    TITLE "Frozen Tears"
    PERFORMER "Darkseed"
    INDEX 00 24:57:31
    INDEX 01 24:58:50
  TRACK 07 AUDIO
    TITLE "Atoned For Cries"
    PERFORMER "Darkseed"
    INDEX 00 32:50:47
    INDEX 01 32:52:00
  TRACK 08 AUDIO
    TITLE "Luctu Perditus"
    PERFORMER "Darkseed"
    INDEX 00 41:42:65
    INDEX 01 41:44:25
  TRACK 09 AUDIO
    TITLE "Atoned For Cries (Rough Mix)"
    PERFORMER "Darkseed"
    INDEX 00 43:59:22
    INDEX 01 44:00:50

Give Me Light
Треклист
01. Dancing With The Lion (3:14)
02. Cold (3:58)
03. Echoes Of Tomorrow (3:07)
04. Cosmic Shining (4:50)
05. Journey To The Spirit World (3:08)
06. Give Me Light (5:41)
07. Fusion (2:43)
08. Flying Together (3:24)
09. Echoes Of Tomorrow (Acoustic Version) (3:05)
10. Spiral Of Mystery (4:01)
11. Desire (6:24)

Код:

Exact Audio Copy V0.99 prebeta 3 from 28. July 2007

Отчёт EAC об извлечении, выполненном 10. сентября 2010, 8:07

Darkseed / Give Me Light (VICP-60527)

Дисковод: TSSTcorpCDDVDW SH-S202H   Adapter: 0  ID: 0

Режим чтения                 : Достоверность
Использование точного потока : Да
Отключение кэша аудио        : Да
Использование указателей C2  : Нет

Коррекция смещения при чтении                     : 6
Способность читать области Lead-in и Lead-out     : Нет
Заполнение пропущенных сэмплов тишиной            : Да
Удаление блоков с тишиной в начале и конце        : Нет
При вычислениях CRC использовались нулевые сэмплы : Да
Интерфейс                                         : Установленный внешний ASPI-интерфейс

Выходной формат : Внутренние WAV-операции
Формат сэмплов  : 44.100 Гц; 16 бит; стерео

TOC извлечённого CD

     Трек |   Старт  | Длительность | Начальный сектор | Конечный сектор
    ---------------------------------------------------------------------
       1  |  0:00.00 |    3:14.12   |           0      |      14561     
       2  |  3:14.12 |    3:58.18   |       14562      |      32429     
       3  |  7:12.30 |    3:06.65   |       32430      |      46444     
       4  | 10:19.20 |    4:49.45   |       46445      |      68164     
       5  | 15:08.65 |    3:07.65   |       68165      |      82254     
       6  | 18:16.55 |    5:40.62   |       82255      |     107816     
       7  | 23:57.42 |    2:42.50   |      107817      |     120016     
       8  | 26:40.17 |    3:24.33   |      120017      |     135349     
       9  | 30:04.50 |    3:04.72   |      135350      |     149221     
      10  | 33:09.47 |    4:00.55   |      149222      |     167276     
      11  | 37:10.27 |    6:24.23   |      167277      |     196099     

Характеристики диапазона извлечения и сообщения об ошибках

Выбранный диапазон

     Имя файла C:\Downloads\EAC\Darkseed - Give Me Light (VICP-60527).wav

     Пиковый уровень 99.9 %
     Качество диапазона 99.9 %
     CRC теста 2B8BB537
     CRC копии 2B8BB537
     Копирование... OK

Ошибок не произошло

 
AccurateRip: сводка
 
Трек  1  нет в базе данных
Трек  2  нет в базе данных
Трек  3  нет в базе данных
Трек  4  нет в базе данных
Трек  5  нет в базе данных
Трек  6  нет в базе данных
Трек  7  нет в базе данных
Трек  8  нет в базе данных
Трек  9  нет в базе данных
Трек 10  нет в базе данных
Трек 11  нет в базе данных
 
Ни одного трека нет в базе AccurateRip

Конец отчёта

Код:

REM GENRE "Gothic Metal"
REM DATE 1999
REM DISCID 880A360B
REM COMMENT "ExactAudioCopy v0.99pb3"
PERFORMER "Darkseed"
TITLE "Give Me Light (VICP-60527)"
FILE "Darkseed - Give Me Light (VICP-60527).flac" WAVE
  TRACK 01 AUDIO
    TITLE "Dancing With The Lion"
    PERFORMER "Darkseed"
    INDEX 01 00:00:00
  TRACK 02 AUDIO
    TITLE "Cold"
    PERFORMER "Darkseed"
    INDEX 00 03:13:73
    INDEX 01 03:14:12
  TRACK 03 AUDIO
    TITLE "Echoes Of Tomorrow"
    PERFORMER "Darkseed"
    INDEX 00 07:12:13
    INDEX 01 07:12:30
  TRACK 04 AUDIO
    TITLE "Cosmic Shining"
    PERFORMER "Darkseed"
    INDEX 00 10:18:56
    INDEX 01 10:19:20
  TRACK 05 AUDIO
    TITLE "Journey To The Spirit World"
    PERFORMER "Darkseed"
    INDEX 00 15:08:13
    INDEX 01 15:08:65
  TRACK 06 AUDIO
    TITLE "Give Me Light"
    PERFORMER "Darkseed"
    INDEX 00 18:16:18
    INDEX 01 18:16:55
  TRACK 07 AUDIO
    TITLE "Fusion"
    PERFORMER "Darkseed"
    INDEX 00 23:56:53
    INDEX 01 23:57:42
  TRACK 08 AUDIO
    TITLE "Flying Together"
    PERFORMER "Darkseed"
    INDEX 01 26:40:17
  TRACK 09 AUDIO
    TITLE "Echoes Of Tomorrow (Acoustic Version)"
    PERFORMER "Darkseed"
    INDEX 00 30:03:41
    INDEX 01 30:04:50
  TRACK 10 AUDIO
    TITLE "Spiral Of Mystery"
    PERFORMER "Darkseed"
    INDEX 00 33:08:26
    INDEX 01 33:09:47
  TRACK 11 AUDIO
    TITLE "Desire"
    PERFORMER "Darkseed"
    INDEX 00 37:09:18
    INDEX 01 37:10:27

Diving Into Darkness
Треклист
01. Forever Darkness (5:24)
02. I Deny You (4:59)
03. Counting Moments (4:38)
04. Can't Find You (5:50)
05. Autumn (5:00)
06. Rain (4:20)
07. Hopelessness (4:51)
08. Left Alone (4:59)
09. Downwards (5:39)
10. Cold Under Water (5:06)
11. Many Wills (5:18)

Код:

Exact Audio Copy V0.99 prebeta 3 from 28. July 2007

Отчёт EAC об извлечении, выполненном 6. сентября 2011, 18:26

Darkseed / Diving Into Darkness

Дисковод: TSSTcorpCDDVDW SH-S202H   Adapter: 0  ID: 0

Режим чтения                 : Достоверность
Использование точного потока : Да
Отключение кэша аудио        : Да
Использование указателей C2  : Нет

Коррекция смещения при чтении                     : 6
Способность читать области Lead-in и Lead-out     : Нет
Заполнение пропущенных сэмплов тишиной            : Да
Удаление блоков с тишиной в начале и конце        : Нет
При вычислениях CRC использовались нулевые сэмплы : Да
Интерфейс                                         : Установленный внешний ASPI-интерфейс

Выходной формат : Внутренние WAV-операции
Формат сэмплов  : 44.100 Гц; 16 бит; стерео

TOC извлечённого CD

     Трек |   Старт  | Длительность | Начальный сектор | Конечный сектор
    ---------------------------------------------------------------------
       1  |  0:00.00 |    5:23.41   |           0      |      24265     
       2  |  5:23.41 |    4:58.52   |       24266      |      46667     
       3  | 10:22.18 |    4:37.72   |       46668      |      67514     
       4  | 15:00.15 |    5:50.20   |       67515      |      93784     
       5  | 20:50.35 |    4:59.51   |       93785      |     116260     
       6  | 25:50.11 |    4:19.74   |      116261      |     135759     
       7  | 30:10.10 |    4:51.13   |      135760      |     157597     
       8  | 35:01.23 |    4:59.10   |      157598      |     180032     
       9  | 40:00.33 |    5:39.20   |      180033      |     205477     
      10  | 45:39.53 |    5:06.15   |      205478      |     228442     
      11  | 50:45.68 |    5:17.49   |      228443      |     252266     

Характеристики диапазона извлечения и сообщения об ошибках

Выбранный диапазон

     Имя файла C:\Downloads\EAC\Darkseed - Diving Into Darkness.wav

     Пиковый уровень 98.8 %
     Качество диапазона 100.0 %
     CRC теста 5C4F4D33
     CRC копии 5C4F4D33
     Копирование... OK

Ошибок не произошло

 
AccurateRip: сводка
 
Трек  1  точное извлечение (доверие 7)  [A3EAA776]
Трек  2  точное извлечение (доверие 7)  [EFE3446E]
Трек  3  точное извлечение (доверие 7)  [7FE54AE8]
Трек  4  точное извлечение (доверие 7)  [4F1E28BB]
Трек  5  точное извлечение (доверие 7)  [50EF212D]
Трек  6  точное извлечение (доверие 7)  [EA1AE74A]
Трек  7  точное извлечение (доверие 7)  [869CA4EF]
Трек  8  точное извлечение (доверие 7)  [0EE62F31]
Трек  9  точное извлечение (доверие 7)  [2E21709A]
Трек 10  точное извлечение (доверие 7)  [B3A588BD]
Трек 11  точное извлечение (доверие 6)  [BE45C5E3]
 
Все треки извлечены точно

Конец отчёта

Код:

REM GENRE "Gothic Metal"
REM DATE 2000
REM DISCID 700D230B
REM COMMENT "ExactAudioCopy v0.99pb3"
PERFORMER "Darkseed"
TITLE "Diving Into Darkness"
FILE "Darkseed - Diving Into Darkness.flac" WAVE
  TRACK 01 AUDIO
    TITLE "Forever Darkness"
    PERFORMER "Darkseed"
    INDEX 01 00:00:00
  TRACK 02 AUDIO
    TITLE "I Deny You"
    PERFORMER "Darkseed"
    INDEX 00 05:22:64
    INDEX 01 05:23:41
  TRACK 03 AUDIO
    TITLE "Counting Moments"
    PERFORMER "Darkseed"
    INDEX 01 10:22:18
  TRACK 04 AUDIO
    TITLE "Can't Find You"
    PERFORMER "Darkseed"
    INDEX 00 14:59:57
    INDEX 01 15:00:15
  TRACK 05 AUDIO
    TITLE "Autumn"
    PERFORMER "Darkseed"
    INDEX 00 20:49:33
    INDEX 01 20:50:35
  TRACK 06 AUDIO
    TITLE "Rain"
    PERFORMER "Darkseed"
    INDEX 00 25:49:41
    INDEX 01 25:50:11
  TRACK 07 AUDIO
    TITLE "Hopelessness"
    PERFORMER "Darkseed"
    INDEX 00 30:09:08
    INDEX 01 30:10:10
  TRACK 08 AUDIO
    TITLE "Left Alone"
    PERFORMER "Darkseed"
    INDEX 00 35:00:22
    INDEX 01 35:01:23
  TRACK 09 AUDIO
    TITLE "Downwards"
    PERFORMER "Darkseed"
    INDEX 00 40:00:01
    INDEX 01 40:00:33
  TRACK 10 AUDIO
    TITLE "Cold Under Water"
    PERFORMER "Darkseed"
    INDEX 00 45:39:21
    INDEX 01 45:39:53
  TRACK 11 AUDIO
    TITLE "Many Wills"
    PERFORMER "Darkseed"
    INDEX 00 50:45:36
    INDEX 01 50:45:68

Astral Adventures
Треклист
01. Dying Land (4:13)
02. Fly Into The Night (4:00)
03. Where Will I Go (4:10)
04. Can't Explain (5:00)
05. Life (5:06)
06. Hear Me (5:00)
07. Souls Unite (4:30)
08. Rain Of Revival (4:19)
09. Forever Stay (4:40)
10. Waiting (4:36)
11. Every Day (4:38)
12. It Shall End (4:47)

Код:

Exact Audio Copy V0.99 prebeta 3 from 28. July 2007

Отчёт EAC об извлечении, выполненном 7. сентября 2011, 21:08

Darkseed / Astral Adventures

Дисковод: TSSTcorpCDDVDW SH-S202H   Adapter: 0  ID: 0

Режим чтения                 : Достоверность
Использование точного потока : Да
Отключение кэша аудио        : Да
Использование указателей C2  : Нет

Коррекция смещения при чтении                     : 6
Способность читать области Lead-in и Lead-out     : Нет
Заполнение пропущенных сэмплов тишиной            : Да
Удаление блоков с тишиной в начале и конце        : Нет
При вычислениях CRC использовались нулевые сэмплы : Да
Интерфейс                                         : Установленный внешний ASPI-интерфейс

Выходной формат : Внутренние WAV-операции
Формат сэмплов  : 44.100 Гц; 16 бит; стерео

TOC извлечённого CD

     Трек |   Старт  | Длительность | Начальный сектор | Конечный сектор
    ---------------------------------------------------------------------
       1  |  0:00.00 |    4:13.07   |           0      |      18981     
       2  |  4:13.07 |    3:59.52   |       18982      |      36958     
       3  |  8:12.59 |    4:10.17   |       36959      |      55725     
       4  | 12:23.01 |    4:59.73   |       55726      |      78223     
       5  | 17:22.74 |    5:06.06   |       78224      |     101179     
       6  | 22:29.05 |    4:59.46   |      101180      |     123650     
       7  | 27:28.51 |    4:30.00   |      123651      |     143900     
       8  | 31:58.51 |    4:18.43   |      143901      |     163293     
       9  | 36:17.19 |    4:40.26   |      163294      |     184319     
      10  | 40:57.45 |    4:36.04   |      184320      |     205023     
      11  | 45:33.49 |    4:38.05   |      205024      |     225878     
      12  | 50:11.54 |    4:47.00   |      225879      |     247403     

Характеристики диапазона извлечения и сообщения об ошибках

Выбранный диапазон

     Имя файла C:\Downloads\EAC\Darkseed - Astral Adventures.wav

     Пиковый уровень 98.8 %
     Качество диапазона 99.9 %
     CRC теста A20E07DD
     CRC копии A20E07DD
     Копирование... OK

Ошибок не произошло

 
AccurateRip: сводка
 
Трек  1  точное извлечение (доверие 3)  [F3B7EAB1]
Трек  2  точное извлечение (доверие 3)  [B7ADA574]
Трек  3  точное извлечение (доверие 3)  [7B5C2301]
Трек  4  точное извлечение (доверие 3)  [A56C28A0]
Трек  5  точное извлечение (доверие 3)  [3C46D712]
Трек  6  точное извлечение (доверие 3)  [11165302]
Трек  7  точное извлечение (доверие 3)  [20FB3B10]
Трек  8  точное извлечение (доверие 3)  [41E5CE0D]
Трек  9  точное извлечение (доверие 3)  [27BBED61]
Трек 10  точное извлечение (доверие 3)  [0BA978E8]
Трек 11  точное извлечение (доверие 3)  [B596A9D0]
Трек 12  точное извлечение (доверие 3)  [033F564B]
 
Все треки извлечены точно

Конец отчёта

Код:

REM GENRE "Gothic Metal"
REM DATE 2003
REM DISCID 990CE20C
REM COMMENT "ExactAudioCopy v0.99pb3"
PERFORMER "Darkseed"
TITLE "Astral Adventures"
FILE "Darkseed - Astral Adventures.flac" WAVE
  TRACK 01 AUDIO
    TITLE "Dying Land"
    PERFORMER "Darkseed"
    INDEX 01 00:00:00
  TRACK 02 AUDIO
    TITLE "Fly Into The Night"
    PERFORMER "Darkseed"
    INDEX 01 04:13:07
  TRACK 03 AUDIO
    TITLE "Where Will I Go"
    PERFORMER "Darkseed"
    INDEX 01 08:12:59
  TRACK 04 AUDIO
    TITLE "Can't Explain"
    PERFORMER "Darkseed"
    INDEX 01 12:23:01
  TRACK 05 AUDIO
    TITLE "Life"
    PERFORMER "Darkseed"
    INDEX 01 17:22:74
  TRACK 06 AUDIO
    TITLE "Hear Me"
    PERFORMER "Darkseed"
    INDEX 01 22:29:05
  TRACK 07 AUDIO
    TITLE "Souls Unite"
    PERFORMER "Darkseed"
    INDEX 01 27:28:51
  TRACK 08 AUDIO
    TITLE "Rain Of Revival"
    PERFORMER "Darkseed"
    INDEX 01 31:58:51
  TRACK 09 AUDIO
    TITLE "Forever Stay"
    PERFORMER "Darkseed"
    INDEX 01 36:17:19
  TRACK 10 AUDIO
    TITLE "Waiting"
    PERFORMER "Darkseed"
    INDEX 01 40:57:45
  TRACK 11 AUDIO
    TITLE "Every Day"
    PERFORMER "Darkseed"
    INDEX 01 45:33:49
  TRACK 12 AUDIO
    TITLE "It Shall End"
    PERFORMER "Darkseed"
    INDEX 01 50:11:54

Треклист
01. Disbeliever (3:58)
02. My Burden (4:00)
03. Ultimate Darkness (3:48)
04. Biting Cold (4:18)
05. The Dark One (3:43)
06. Save Me (3:45)
07. Speak Silence (4:10)
08. Next To Nothing (3:32)
09. Follow Me (5:11)
10. The Fall (3:48)
11. Endless Night (4:07)
12. Sleep Sleep Sweetheart (4:32)

Код:

Exact Audio Copy V0.99 prebeta 3 from 28. July 2007

Отчёт EAC об извлечении, выполненном 10. октября 2010, 11:42

Darkseed / Ultimate Darkness

Дисковод: TSSTcorpCDDVDW SH-S202H   Adapter: 0  ID: 0

Режим чтения                 : Достоверность
Использование точного потока : Да
Отключение кэша аудио        : Да
Использование указателей C2  : Нет

Коррекция смещения при чтении                     : 6
Способность читать области Lead-in и Lead-out     : Нет
Заполнение пропущенных сэмплов тишиной            : Да
Удаление блоков с тишиной в начале и конце        : Нет
При вычислениях CRC использовались нулевые сэмплы : Да
Интерфейс                                         : Установленный внешний ASPI-интерфейс

Выходной формат : Внутренние WAV-операции
Формат сэмплов  : 44.100 Гц; 16 бит; стерео

TOC извлечённого CD

     Трек |   Старт  | Длительность | Начальный сектор | Конечный сектор
    ---------------------------------------------------------------------
       1  |  0:00.00 |    3:57.43   |           0      |      17817     
       2  |  3:57.43 |    4:00.35   |       17818      |      35852     
       3  |  7:58.03 |    3:48.14   |       35853      |      52966     
       4  | 11:46.17 |    4:17.70   |       52967      |      72311     
       5  | 16:04.12 |    3:43.23   |       72312      |      89059     
       6  | 19:47.35 |    3:45.26   |       89060      |     105960     
       7  | 23:32.61 |    4:10.24   |      105961      |     124734     
       8  | 27:43.10 |    3:31.71   |      124735      |     140630     
       9  | 31:15.06 |    5:11.01   |      140631      |     163956     
      10  | 36:26.07 |    3:47.50   |      163957      |     181031     
      11  | 40:13.57 |    4:06.51   |      181032      |     199532     
      12  | 44:20.33 |    4:31.48   |      199533      |     219905     

Характеристики диапазона извлечения и сообщения об ошибках

Выбранный диапазон

     Имя файла C:\Downloads\EAC\Darkseed - Ultimate Darkness.wav

     Пиковый уровень 100.0 %
     Качество диапазона 100.0 %
     CRC теста D587E34E
     CRC копии D587E34E
     Копирование... OK

Ошибок не произошло

 
AccurateRip: сводка
 
Трек  1  точное извлечение (доверие 6)  [8C1E56B4]
Трек  2  точное извлечение (доверие 6)  [6071356B]
Трек  3  точное извлечение (доверие 6)  [0007D99A]
Трек  4  точное извлечение (доверие 6)  [8073917B]
Трек  5  точное извлечение (доверие 6)  [43FA0CA4]
Трек  6  точное извлечение (доверие 6)  [8B750951]
Трек  7  точное извлечение (доверие 6)  [06850A3D]
Трек  8  точное извлечение (доверие 6)  [E5AD67E1]
Трек  9  точное извлечение (доверие 6)  [E3FC6D35]
Трек 10  точное извлечение (доверие 6)  [D0236FF9]
Трек 11  точное извлечение (доверие 6)  [141CC825]
Трек 12  точное извлечение (доверие 6)  [63A31CFF]
 
Все треки извлечены точно

Конец отчёта

Код:

REM GENRE Gothic Metal
REM DATE 2005
REM DISCID B50B740C
REM COMMENT ExactAudioCopy v0.99pb3
PERFORMER "Darkseed"
TITLE "Ultimate Darkness"
FILE "Darkseed - Ultimate Darkness.flac" WAVE
  TRACK 01 AUDIO
    TITLE "Disbeliever"
    INDEX 01 00:00:00
  TRACK 02 AUDIO
    TITLE "My Burden"
    INDEX 01 03:57:43
  TRACK 03 AUDIO
    TITLE "Ultimate Darkness"
    INDEX 01 07:58:03
  TRACK 04 AUDIO
    TITLE "Biting Cold"
    INDEX 01 11:46:17
  TRACK 05 AUDIO
    TITLE "The Dark One"
    INDEX 01 16:04:12
  TRACK 06 AUDIO
    TITLE "Save Me"
    INDEX 01 19:47:35
  TRACK 07 AUDIO
    TITLE "Speak Silence"
    INDEX 01 23:32:61
  TRACK 08 AUDIO
    TITLE "Next To Nothing"
    INDEX 01 27:43:10
  TRACK 09 AUDIO
    TITLE "Follow Me"
    INDEX 01 31:15:06
  TRACK 10 AUDIO
    TITLE "The Fall"
    INDEX 00 36:24:27
    INDEX 01 36:26:07
  TRACK 11 AUDIO
    TITLE "Endless Night"
    INDEX 00 40:12:32
    INDEX 01 40:13:57
  TRACK 12 AUDIO
    TITLE "Sleep Sleep Sweetheart"
    INDEX 01 44:20:33


Треклист
01. Lifetime Alone [unreleased track, recorded in 2004] (3:59)
02. Walk In Me [unreleased track, recorded in 2002] (4:29)
03. Kingdom [unreleased track, recorded in 2002] (3:39)
04. I Turn To You [cover of MEL C, recorded in 2002] (4:27)
05. Watchful Spirit's Care [fun recordings, re-recorded in 2000] (5:04)
06. Like To A Silver Blow [fun recordings, re-recorded in 2000] (5:38)
07. The Bolt Of Cupid Fell [fun recordings, re-recorded in 2000] (4:09)
08. Give Me Light [demo recording, recorded in 1999] (5:44)
09. Spiral Of Mystery [demo recording, recorded in 1999] (3:58)
10. Hold Me [unreleased track, recorded in 1996] (4:51)
11. Not Alone [unreleased track, recorded in 1996] (3:29)
12. Wisdom And Magic [unreleased track, recorded in 1996] (5:05)
13. Paint It Black [cover of ROLLING STONES, recorded in 1996] (3:07)

Код:

Exact Audio Copy V0.99 prebeta 3 from 28. July 2007

Отчёт EAC об извлечении, выполненном 10. октября 2010, 12:34

Darkseed / Ultimate Darkness (part II)

Дисковод: TSSTcorpCDDVDW SH-S202H   Adapter: 0  ID: 0

Режим чтения                 : Достоверность
Использование точного потока : Да
Отключение кэша аудио        : Да
Использование указателей C2  : Нет

Коррекция смещения при чтении                     : 6
Способность читать области Lead-in и Lead-out     : Нет
Заполнение пропущенных сэмплов тишиной            : Да
Удаление блоков с тишиной в начале и конце        : Нет
При вычислениях CRC использовались нулевые сэмплы : Да
Интерфейс                                         : Установленный внешний ASPI-интерфейс

Выходной формат : Внутренние WAV-операции
Формат сэмплов  : 44.100 Гц; 16 бит; стерео

TOC извлечённого CD

     Трек |   Старт  | Длительность | Начальный сектор | Конечный сектор
    ---------------------------------------------------------------------
       1  |  0:00.00 |    3:59.30   |           0      |      17954     
       2  |  3:59.30 |    4:28.72   |       17955      |      38126     
       3  |  8:28.27 |    3:39.22   |       38127      |      54573     
       4  | 12:07.49 |    4:27.23   |       54574      |      74621     
       5  | 16:34.72 |    5:04.37   |       74622      |      97458     
       6  | 21:39.34 |    5:38.15   |       97459      |     122823     
       7  | 27:17.49 |    4:09.23   |      122824      |     141521     
       8  | 31:26.72 |    5:43.67   |      141522      |     167313     
       9  | 37:10.64 |    3:57.71   |      167314      |     185159     
      10  | 41:08.60 |    4:51.08   |      185160      |     206992     
      11  | 45:59.68 |    3:29.02   |      206993      |     222669     
      12  | 49:28.70 |    5:04.43   |      222670      |     245512     
      13  | 54:33.38 |    3:06.45   |      245513      |     259507     

Характеристики диапазона извлечения и сообщения об ошибках

Выбранный диапазон

     Имя файла C:\Downloads\EAC\Darkseed - Ultimate Darkness (part II).wav

     Пиковый уровень 98.8 %
     Качество диапазона 99.9 %
     CRC теста 86111E69
     CRC копии 86111E69
     Копирование... OK

Ошибок не произошло

 
AccurateRip: сводка
 
Трек  1  точное извлечение (доверие 4)  [AA645A19]
Трек  2  точное извлечение (доверие 4)  [0A924B0B]
Трек  3  точное извлечение (доверие 4)  [70726C64]
Трек  4  точное извлечение (доверие 4)  [FE4DAE93]
Трек  5  точное извлечение (доверие 4)  [903F3E19]
Трек  6  точное извлечение (доверие 4)  [73D60414]
Трек  7  точное извлечение (доверие 4)  [3C1B7926]
Трек  8  точное извлечение (доверие 4)  [ABA89CA6]
Трек  9  точное извлечение (доверие 4)  [3392DE70]
Трек 10  точное извлечение (доверие 4)  [D1D67D61]
Трек 11  точное извлечение (доверие 4)  [C1556799]
Трек 12  точное извлечение (доверие 4)  [8E59E332]
Трек 13  точное извлечение (доверие 4)  [7ECFA932]
 
Все треки извлечены точно

Конец отчёта

Код:

REM GENRE "Gothic Metal"
REM DATE 2005
REM DISCID B30D840D
REM COMMENT "ExactAudioCopy v0.99pb3"
PERFORMER "Darkseed"
TITLE "Ultimate Darkness (part II)"
FILE "Darkseed - Ultimate Darkness (part II).flac" WAVE
  TRACK 01 AUDIO
    TITLE "Lifetime Alone [unreleased track, recorded in 2004]"
    PERFORMER "Darkseed"
    INDEX 01 00:00:00
  TRACK 02 AUDIO
    TITLE "Walk In Me [unreleased track, recorded in 2002]"
    PERFORMER "Darkseed"
    INDEX 01 03:59:30
  TRACK 03 AUDIO
    TITLE "Kingdom [unreleased track, recorded in 2002]"
    PERFORMER "Darkseed"
    INDEX 01 08:28:27
  TRACK 04 AUDIO
    TITLE "I Turn To You [cover of MEL C, recorded in 2002]"
    PERFORMER "Darkseed"
    INDEX 01 12:07:49
  TRACK 05 AUDIO
    TITLE "Watchful Spirit's Care [fun recordings, re-recorded in 2000]"
    PERFORMER "Darkseed"
    INDEX 01 16:34:72
  TRACK 06 AUDIO
    TITLE "Like To A Silver Blow [fun recordings, re-recorded in 2000]"
    PERFORMER "Darkseed"
    INDEX 01 21:39:34
  TRACK 07 AUDIO
    TITLE "The Bolt Of Cupid Fell [fun recordings, re-recorded in 2000]"
    PERFORMER "Darkseed"
    INDEX 01 27:17:49
  TRACK 08 AUDIO
    TITLE "Give Me Light [demo recording, recorded in 1999]"
    PERFORMER "Darkseed"
    INDEX 01 31:26:72
  TRACK 09 AUDIO
    TITLE "Spiral Of Mystery [demo recording, recorded in 1999]"
    PERFORMER "Darkseed"
    INDEX 01 37:10:64
  TRACK 10 AUDIO
    TITLE "Hold Me [unreleased track, recorded in 1996] "
    PERFORMER "Darkseed"
    INDEX 01 41:08:60
  TRACK 11 AUDIO
    TITLE "Not Alone [unreleased track, recorded in 1996]"
    PERFORMER "Darkseed"
    INDEX 01 45:59:68
  TRACK 12 AUDIO
    TITLE "Wisdom And Magic [unreleased track, recorded in 1996]"
    PERFORMER "Darkseed"
    INDEX 01 49:28:70
  TRACK 13 AUDIO
    TITLE "Paint It Black [cover of ROLLING STONES, recorded in 1996]"
    PERFORMER "Darkseed"
    INDEX 01 54:33:38

Poison Awaits
Треклист
01. Roads (3:27)
02. Incinerate (6:18)
03. Poison Awaits (4:22)
04. Seeds Of Sorrow (4:41)
05. All Is Vanity (4:23)
06. Black Throne (4:43)
07. A Dual Pact (4:00)
08. Torn To Shatters (6:01)
09. No Promise In The Heavens (4:26)
10. Striving For Fire (5:09)
11. Timless Skies (4:19)
12. King In The Sun (4:30)
13. The Demon Within (4:08)
14. Comptine D'Un Autre Ete : L'Apres Midi (5:07)

Код:

Exact Audio Copy V0.99 prebeta 3 from 28. July 2007

Отчёт EAC об извлечении, выполненном 6. сентября 2011, 22:25

Darkseed / Poison Awaits

Дисковод: TSSTcorpCDDVDW SH-S202H   Adapter: 0  ID: 0

Режим чтения                 : Достоверность
Использование точного потока : Да
Отключение кэша аудио        : Да
Использование указателей C2  : Нет

Коррекция смещения при чтении                     : 6
Способность читать области Lead-in и Lead-out     : Нет
Заполнение пропущенных сэмплов тишиной            : Да
Удаление блоков с тишиной в начале и конце        : Нет
При вычислениях CRC использовались нулевые сэмплы : Да
Интерфейс                                         : Установленный внешний ASPI-интерфейс

Выходной формат : Внутренние WAV-операции
Формат сэмплов  : 44.100 Гц; 16 бит; стерео

TOC извлечённого CD

     Трек |   Старт  | Длительность | Начальный сектор | Конечный сектор
    ---------------------------------------------------------------------
       1  |  0:00.00 |    3:27.27   |           0      |      15551     
       2  |  3:27.27 |    6:18.05   |       15552      |      43906     
       3  |  9:45.32 |    4:22.30   |       43907      |      63586     
       4  | 14:07.62 |    4:40.41   |       63587      |      84627     
       5  | 18:48.28 |    4:23.01   |       84628      |     104353     
       6  | 23:11.29 |    4:42.66   |      104354      |     125569     
       7  | 27:54.20 |    3:59.39   |      125570      |     143533     
       8  | 31:53.59 |    6:00.45   |      143534      |     170578     
       9  | 37:54.29 |    4:25.51   |      170579      |     190504     
      10  | 42:20.05 |    5:09.25   |      190505      |     213704     
      11  | 47:29.30 |    4:18.53   |      213705      |     233107     
      12  | 51:48.08 |    4:30.13   |      233108      |     253370     
      13  | 56:18.21 |    4:07.53   |      253371      |     271948     
      14  | 60:25.74 |    5:07.34   |      271949      |     295007     

Характеристики диапазона извлечения и сообщения об ошибках

Выбранный диапазон

     Имя файла C:\Downloads\EAC\Darkseed - Poison Awaits.wav

     Пиковый уровень 98.8 %
     Качество диапазона 100.0 %
     CRC теста 4B8784AC
     CRC копии 4B8784AC
     Копирование... OK

Ошибок не произошло

 
AccurateRip: сводка
 
Трек  1  точное извлечение (доверие 2)  [0005D46F]
Трек  2  точное извлечение (доверие 2)  [0D5157A0]
Трек  3  точное извлечение (доверие 2)  [156D8F62]
Трек  4  точное извлечение (доверие 2)  [847D70C6]
Трек  5  точное извлечение (доверие 2)  [AE0BF58A]
Трек  6  точное извлечение (доверие 2)  [EC586AEF]
Трек  7  точное извлечение (доверие 2)  [D4EFE997]
Трек  8  точное извлечение (доверие 2)  [8992CA84]
Трек  9  точное извлечение (доверие 2)  [A6B723F4]
Трек 10  точное извлечение (доверие 2)  [F8EB848E]
Трек 11  точное извлечение (доверие 2)  [88495C41]
Трек 12  точное извлечение (доверие 2)  [0FABDD98]
Трек 13  точное извлечение (доверие 2)  [D0D25CD2]
Трек 14  точное извлечение (доверие 2)  [2CB6C700]
 
Все треки извлечены точно

Конец отчёта

Код:

REM GENRE "Gothic Metal"
REM DATE 2010
REM DISCID C20F5D0E
REM COMMENT "ExactAudioCopy v0.99pb3"
PERFORMER "Darkseed"
TITLE "Poison Awaits"
FILE "Darkseed - Poison Awaits.flac" WAVE
  TRACK 01 AUDIO
    TITLE "Roads"
    PERFORMER "Darkseed"
    INDEX 01 00:00:00
  TRACK 02 AUDIO
    TITLE "Incinerate"
    PERFORMER "Darkseed"
    INDEX 00 03:25:27
    INDEX 01 03:27:27
  TRACK 03 AUDIO
    TITLE "Poison Awaits"
    PERFORMER "Darkseed"
    INDEX 00 09:43:32
    INDEX 01 09:45:32
  TRACK 04 AUDIO
    TITLE "Seeds Of Sorrow"
    PERFORMER "Darkseed"
    INDEX 00 14:05:62
    INDEX 01 14:07:62
  TRACK 05 AUDIO
    TITLE "All Is Vanity"
    PERFORMER "Darkseed"
    INDEX 00 18:46:28
    INDEX 01 18:48:28
  TRACK 06 AUDIO
    TITLE "Black Throne"
    PERFORMER "Darkseed"
    INDEX 00 23:09:29
    INDEX 01 23:11:29
  TRACK 07 AUDIO
    TITLE "A Dual Pact"
    PERFORMER "Darkseed"
    INDEX 00 27:52:20
    INDEX 01 27:54:20
  TRACK 08 AUDIO
    TITLE "Torn To Shatters"
    PERFORMER "Darkseed"
    INDEX 00 31:51:59
    INDEX 01 31:53:59
  TRACK 09 AUDIO
    TITLE "No Promise In The Heavens"
    PERFORMER "Darkseed"
    INDEX 00 37:52:29
    INDEX 01 37:54:29
  TRACK 10 AUDIO
    TITLE "Striving For Fire"
    PERFORMER "Darkseed"
    INDEX 00 42:18:05
    INDEX 01 42:20:05
  TRACK 11 AUDIO
    TITLE "Timless Skies"
    PERFORMER "Darkseed"
    INDEX 00 47:27:30
    INDEX 01 47:29:30
  TRACK 12 AUDIO
    TITLE "King In The Sun"
    PERFORMER "Darkseed"
    INDEX 00 51:46:08
    INDEX 01 51:48:08
  TRACK 13 AUDIO
    TITLE "The Demon Within"
    PERFORMER "Darkseed"
    INDEX 00 56:16:21
    INDEX 01 56:18:21
  TRACK 14 AUDIO
    TITLE "Comptine D'Un Autre Ete : L'Apres Midi"
    PERFORMER "Darkseed"
    INDEX 00 60:23:74
    INDEX 01 60:25:74

Если раздача нравится - не забудь сказать спасибо!

info [Профиль]  [ЛС] 

post 16-Мар-2012 12:48 (спустя 7 дней) [-]0[+]

Топик был перенесен из форума Оформление раздач в форум Mеtаl (losslеss)

VlaDai
 

Resistance

Пол: Пол:Муж

Стаж: 7 лет 2 месяца

Сообщений: 3639

Россия
Рейтинг

post 16-Мар-2012 13:35 (спустя 7 дней) [-]0[+]

[Цитировать] 

Укажите в название спойлеров где синглы и издания альбомов (некоторые альбомы у вас в делюкс версиях, это нужно указать).
info [Профиль]  [ЛС] 
Показать сообщения:    
Ответить на тему

Текущее время: 09-Дек 04:08

Часовой пояс: GMT + 4



Вы не можете начинать темы
Вы не можете отвечать на сообщения
Вы не можете редактировать свои сообщения
Вы не можете удалять свои сообщения
Вы не можете голосовать в опросах
Вы не можете прикреплять файлы к сообщениям
Вы не можете скачивать файлы