Ошибка

Белоснежка и семь гномов / Snow White and the Seven Dwarfs (Дэвид Хэнд / David Hand) [1937 г., Мультфильм, мюзикл, фэнтези, мелодрама, семейный, BDRip, 1080p] [Полное дублирование]

Ответить на тему
 
Автор Сообщение

фиксатый

Пол: Пол:Муж

Стаж: 7 лет 1 месяц

Сообщений: 108

Уоллис и Футуна
Рейтинг

post 26-Фев-2012 15:29 0[+]

[Цитировать] 

Белоснежка и семь гномов
Год выпуска: 1937
Страна: США
Жанр: Мультфильм, мюзикл, фэнтези, мелодрама, семейный
Продолжительность:01:23:17
Перевод: Профессиональный (полное дублирование)
Субтитры: есть
Режиссеры: Уильям Коттрелл (William Cottrell), Дэвид Хэнд (David Hand), Уилфред Джексон (Wilfred Jackson), Ларри Мори (Larry Morey), Перс Пирс (Perce Pearce), Бен Шарпстин (Ben Sharpsteen)
Актеры: Рой Этвелл, Стюарт Бьюкэнэн, Адриана Каселотти, хор Хэлла Джонсона, Пинто Колвиг, Эдди Коллинз, Мэрион Дарлингтон, Билли Гилберт, Отис Хэрлан, Люсиль Ла Верн, Джеймс МакДональд, Скотти Мэттроу, Морони Олсен, Гарри Стокуэлл
Композитор: Ли Харлайн, Пол Дж. Смит
Художники: Кен Андерсон, Густаф Тенггрен, Джон Хабли
Бюджет: $1 499 000
Описание: Экранизация знаменитой немецкой сказки братьев Гримм о Белоснежке, жившей в замке со злой мачехой-королевой, которая очень гордилась своей красотой. Узнав от волшебного зеркальца, что Белоснежка стала самой прекрасной девушкой на свете, завистница решила погубить прелестную падчерицу. Но бедная девушка не погибла в лесу, а наоборот, встретила там настоящих друзей — забавных семерых гномов: Профессора, Ворчуна, Весельчака, Скромника, Чихоню, Соню и Молчуна…
Качество: BDRip
Формат: MKV
Видео кодек: AVC
Аудио кодек: AC3
Видео: AVC, 1448x1080 (4:3), 29.976 fps, 5734 kbps avg, 0.153 bit/pixel
Аудио #1: AC3 Dolby Digital, 48 kHz, Channel positions : Front: L C R, Surround: L R, LFE, 384.00 kbps avg bit/pixel
Аудио #2: DTS Digital Theater Systems, 48 kHz, Channel positions : Front: L C R, Surround: L R, LFE, 1510.00 kbps avg
Награды и премии:
Первый полностью цветной фильм, созданный студией Уолта Диснея, при его непосредственном участии в роли продюсера.
Номинация на "Оскар" в 1938 году (Лучшая музыка).
Премия "Оскар" - 1939 год.
Специальная премия (Уолт Дисней).
"Венецианский кинофестиваль" - 1938 год.
Победитель в категории: Большой приз (Уолт Дисней).
E:\Snow White and the Seven Dwarfs.mkv
General
Complete name : Snow White and the Seven Dwarfs.mkv
Format : Matroska
File size : 4.53 GiB
Duration : 1h 23mn
Overall bit rate : 7 783 Kbps
Movie name : Snow White And The Seven Dwarfs
Encoded date : UTC 2012-02-26 11:49:17
Writing application : mkvmerge v4.2.0 ('No Talking') сборка от Jul 28 2010 18:38:23
Writing library : libebml v1.0.0 + libmatroska v1.0.0
Video #1
ID : 1
Format : AVC
Format/Info : Advanced Video Codec
Format profile : High@L5.0
Format settings, CABAC : Yes
Format settings, ReFrames : 9 frames
Muxing mode : Container profile=Unknown@5.0
Codec ID : V_MPEG4/ISO/AVC
Duration : 1h 23mn
Bit rate : 5 734 Kbps
Nominal bit rate : 5 900 Kbps
Width : 1 448 pixels
Height : 1 080 pixels
Display aspect ratio : 4:3
Frame rate : 23.976 fps
Resolution : 24 bits
Colorimetry : 4:2:0
Scan type : Progressive
Bits/(Pixel*Frame) : 0.153
Stream size : 3.33 GiB (74%)
Writing library : x264 core 76 r1271M 496d79d
Encoding settings : cabac=1 / ref=9 / deblock=1:-3:-3 / analyse=0x3:0x133 / me=esa / subme=10 / psy=1 / psy_rd=1.0:0.0 / mixed_ref=1 / me_range=36 / chroma_me=1 / trellis=2 / 8x8dct=1 / cqm=0 / deadzone=21,11 / chroma_qp_offset=-2 / threads=6 / nr=0 / decimate=1 / mbaff=0 / bframes=5 / b_pyramid=1 / b_adapt=2 / b_bias=0 / direct=3 / wpredb=1 / keyint=250 / keyint_min=25 / scenecut=40 / rc=2pass / mbtree=0 / bitrate=5900 / ratetol=1.0 / qcomp=0.60 / qpmin=10 / qpmax=51 / qpstep=4 / cplxblur=20.0 / qblur=0.5 / ip_ratio=1.40 / pb_ratio=1.30 / aq=1:0.70
Audio #2
ID : 2
Format : AC-3
Format/Info : Audio Coding 3
Codec ID : A_AC3
Duration : 1h 23mn
Bit rate mode : Constant
Bit rate : 384 Kbps
Channel(s) : 6 channels
Channel positions : Front: L C R, Surround: L R, LFE
Sampling rate : 48.0 KHz
Stream size : 229 MiB (5%)
Title : AC3 6 channels 384 Kbps
Language : Russian
Audio #3
ID : 3
Format : DTS
Format/Info : Digital Theater Systems
Codec ID : A_DTS
Duration : 1h 23mn
Bit rate mode : Constant
Bit rate : 1 510 Kbps
Channel(s) : 6 channels
Channel positions : Front: L C R, Surround: L R, LFE
Sampling rate : 48.0 KHz
Resolution : 24 bits
Stream size : 899 MiB (19%)
Title : DTS 6 channels 1536 Kbps
Text #4
ID : 4
Format : UTF-8
Codec ID : S_TEXT/UTF8
Codec ID/Info : UTF-8 Plain Text
Text #5
ID : 5
Format : UTF-8
Codec ID : S_TEXT/UTF8
Codec ID/Info : UTF-8 Plain Text
Language : Russian
• Клип группы Rammstein - Sonne пародирует мультфильм о Белоснежке: участники группы играют гномов, а Белоснежка представлена декадентствующей великаншей, которая заставляет их работать в забое, сама же нюхает наркотики.
• На 15:37 (сцена перед входом в дом) в течение одного кадра перепутан порядок слоев персонажей.
• «Белоснежка и семь гномов» Уолта Диснея стала первым в мире полнометражным мультфильмом.
• «Белоснежка и семь гномов» стал также первым фильмом в истории, который был полностью восстановлен с помощью цифровой технологии. Для финального восстановления в 1994 году были собраны пятеро оставшихся в живых художников, которые работали над оригинальной версией.
• В конце производства фильма Уолт Дисней заметил недостаток в фигуре Принца в момент, когда он наклоняется к Белоснежке для поцелуя. Журнал Liberty сообщил, что Уолт тщательно проконтролировал новый вариант изображения Принца и заставил все кинотеатры, которые показывали «Белоснежку», заменить копию.
• Специально для «Белоснежки» было написано в общей сложности двадцать пять оригинальных песен. В мультфильме было использовано лишь восемь из них.
          
info [Профиль]  [ЛС] 

Alex Ander

Пол: Пол:Муж

Стаж: 7 лет 5 месяцев

Сообщений: 2379

СССР
Рейтинг

post 26-Фев-2012 18:45 (спустя 3 часа) [-]0[+]

[Цитировать] 

только, наверное, это не [720p] и в заголовок нужно жанр добавить

_________________
Лучше быть умным и иногда тупить, чем быть тупым и всё время умничать...
info [Профиль]  [ЛС] 

фиксатый

Пол: Пол:Муж

Стаж: 7 лет 1 месяц

Сообщений: 108

Уоллис и Футуна
Рейтинг

post 26-Фев-2012 18:50 (спустя 5 минут) [-]0[+]

[Цитировать] 

Alex Ander писал(а):

только, наверное, это не [720p] и в заголовок нужно жанр добавить
ну на 1080p не тянет, вот и поставил 720-ку
жанры добавил, сорри не заметил сам

_________________
info [Профиль]  [ЛС] 

Alex Ander

Пол: Пол:Муж

Стаж: 7 лет 5 месяцев

Сообщений: 2379

СССР
Рейтинг

post 26-Фев-2012 18:54 (спустя 3 минуты) [-]0[+]

[Цитировать] 

почему же не тянет, если это именно 1448x1080

_________________
Лучше быть умным и иногда тупить, чем быть тупым и всё время умничать...
info [Профиль]  [ЛС] 

фиксатый

Пол: Пол:Муж

Стаж: 7 лет 1 месяц

Сообщений: 108

Уоллис и Футуна
Рейтинг

post 26-Фев-2012 19:34 (спустя 40 минут) [-]0[+]

[Цитировать] 

Alex Ander писал(а):

почему же не тянет, если это именно 1448x1080
Понял, на будущее буду более внимателен
Просьба золото дать мульту возможна?

_________________
info [Профиль]  [ЛС] 

Alex Ander

Пол: Пол:Муж

Стаж: 7 лет 5 месяцев

Сообщений: 2379

СССР
Рейтинг

post 26-Фев-2012 20:50 (спустя 1 час 15 минут) [-]0[+]

[Цитировать] 

объем маленький, но, учитывая, какая классика - дам серебро

_________________
Лучше быть умным и иногда тупить, чем быть тупым и всё время умничать...
info [Профиль]  [ЛС] 

фиксатый

Пол: Пол:Муж

Стаж: 7 лет 1 месяц

Сообщений: 108

Уоллис и Футуна
Рейтинг

post 26-Фев-2012 21:54 (спустя 1 час 4 минуты) [-]0[+]

[Цитировать] 

Alex Ander писал(а):

объем маленький, но, учитывая, какая классика - дам серебро
Спасибо

_________________
info [Профиль]  [ЛС] 

фиксатый

Пол: Пол:Муж

Стаж: 7 лет 1 месяц

Сообщений: 108

Уоллис и Футуна
Рейтинг

post 09-Июн-2012 20:26 (спустя 3 месяца 11 дней) [-]0[+]

[Цитировать] 

странно что качают слабо

_________________
info [Профиль]  [ЛС] 

фиксатый

Пол: Пол:Муж

Стаж: 7 лет 1 месяц

Сообщений: 108

Уоллис и Футуна
Рейтинг

post 19-Июн-2014 14:42 (спустя 2 года) [-]0[+]

[Цитировать] 

Ух-ты, еще жива раздача)))!!!

_________________
info [Профиль]  [ЛС] 
Показать сообщения:    
Ответить на тему

Текущее время: 07-Дек 22:28

Часовой пояс: GMT + 4



Вы не можете начинать темы
Вы не можете отвечать на сообщения
Вы не можете редактировать свои сообщения
Вы не можете удалять свои сообщения
Вы не можете голосовать в опросах
Вы не можете прикреплять файлы к сообщениям
Вы не можете скачивать файлы