Ошибка

Реутов ТВ (1 сезон, 14 серий из 14) [2010 г., Юмор, WEB-DLRip]

Ответить на тему
 
Автор Сообщение

_Knyazev_

Пол: Пол:Муж

Стаж: 5 лет 2 месяца

Сообщений: 38

Россия
Рейтинг

post 20-Фев-2012 12:51 2[+]

[Цитировать] 

Реутов ТВ

Год выпуска: 2010 г.
Страна: Россия
Жанр: ТВ-Шоу, Юмор
Выпуски: 1-14 из 14 (полный 1-й сезон)
Продолжительность: ~23 минуты каждая серия.
Перевод: не требуется
Режиссер: Телеканал 2х2
Ведущие:
  • Владимир Маркони (Анатолий Шмель / Алекс Бэнтли / Флейтик)
  • Сергей Мезенцев (Илья Огурцов / Виктор Дэлюкс / Пёся)

Описание: Реутов ТВ – новая программа от уже ставших популярными на канале 2x2 и на Youtube создателей проектов Подольск ТВ и Реутов ТВ. Сарказм, жесткий стёб над участниками и подражание провинциальному телевидению – отличительные характеристики нового проекта. Этот сезон Реутов ТВ состоит из нескольких блоков: аналитической программы «Злобадня», программы про современную жизнь молодежи «Модный диван» и детской программы «Приключения Флейтика и Пёси во Взросляндии».

Релиз группа: by Knyazev
Качество: WEB-DLRip
Формат: AVI
Видео кодек: Xvid
Аудио кодек: MP3
Видео: 720x576, 25fps, 1878kbps
Аудио: 2ch, 128kbps, 44.1KHz
Программа "Реутовский взгляд" выяснит, где живется лучше: в Реутове или в зажравшейся Москве? В передаче "Модный диван" телезрители узнают всю модную правду о татуировках. А Флейтик и Пёся из Взросляндии посетят детский праздник спорта.

Код:

General
Complete name                            : D:\PeyToB_TB_S01\PeyToB_TB_s01e01.avi
Format                                   : AVI
Format/Info                              : Audio Video Interleave
File size                                : 343 MiB
Duration                                 : 23mn 47s
Overall bit rate                         : 2 017 Kbps
Writing application                      : Lavf52.94.0

Video
ID                                       : 0
Format                                   : xvid
Codec ID                                 : xvid
Duration                                 : 23mn 47s
Bit rate                                 : 1 877 Kbps
Width                                    : 720 pixels
Height                                   : 576 pixels
Display aspect ratio                     : 5:4
Frame rate                               : 25.000 fps
Standard                                 : PAL
Bits/(Pixel*Frame)                       : 0.181
Stream size                              : 319 MiB (93%)

Audio
ID                                       : 1
Format                                   : MPEG Audio
Format version                           : Version 1
Format profile                           : Layer 3
Mode                                     : Joint stereo
Codec ID                                 : 55
Codec ID/Hint                            : MP3
Duration                                 : 23mn 47s
Bit rate mode                            : Constant
Bit rate                                 : 128 Kbps
Channel(s)                               : 2 channels
Sampling rate                            : 44.1 KHz
Compression mode                         : Lossy
Stream size                              : 21.8 MiB (6%)
Alignment                                : Aligned on interleaves
Interleave, duration                     : 26 ms (0.65 video frame)
Программа "Реутовский взгляд" расскажет о чирлидинге. В передаче "Модный диван" ведущие расскажут про звездную тусовку и их звездную жизнь. А Флейтик и Пёся из Взросляндии побывают на выставке собак.

Код:

General
Complete name                            : D:\PeyToB_TB_S01\PeyToB_TB_s01e02.avi
Format                                   : AVI
Format/Info                              : Audio Video Interleave
File size                                : 335 MiB
Duration                                 : 23mn 12s
Overall bit rate                         : 2 017 Kbps
Writing application                      : Lavf52.94.0

Video
ID                                       : 0
Format                                   : xvid
Codec ID                                 : xvid
Duration                                 : 23mn 12s
Bit rate                                 : 1 877 Kbps
Width                                    : 720 pixels
Height                                   : 576 pixels
Display aspect ratio                     : 5:4
Frame rate                               : 25.000 fps
Standard                                 : PAL
Bits/(Pixel*Frame)                       : 0.181
Stream size                              : 312 MiB (93%)

Audio
ID                                       : 1
Format                                   : MPEG Audio
Format version                           : Version 1
Format profile                           : Layer 3
Mode                                     : Joint stereo
Codec ID                                 : 55
Codec ID/Hint                            : MP3
Duration                                 : 23mn 12s
Bit rate mode                            : Constant
Bit rate                                 : 128 Kbps
Channel(s)                               : 2 channels
Sampling rate                            : 44.1 KHz
Compression mode                         : Lossy
Stream size                              : 21.2 MiB (6%)
Alignment                                : Aligned on interleaves
Interleave, duration                     : 26 ms (0.65 video frame)
Программа "Реутовский взгляд" потанцует танго с настоящими женщинами. Передача "Модный диван" попала на фестиваль современного искусства. А Флейтик и Пёся из Взросляндии сходили на дискотеку.

Код:

General
Complete name                            : D:\PeyToB_TB_S01\PeyToB_TB_s01e03.avi
Format                                   : AVI
Format/Info                              : Audio Video Interleave
File size                                : 339 MiB
Duration                                 : 23mn 31s
Overall bit rate                         : 2 017 Kbps
Writing application                      : Lavf52.94.0

Video
ID                                       : 0
Format                                   : xvid
Codec ID                                 : xvid
Duration                                 : 23mn 31s
Bit rate                                 : 1 876 Kbps
Width                                    : 720 pixels
Height                                   : 576 pixels
Display aspect ratio                     : 5:4
Frame rate                               : 25.000 fps
Standard                                 : PAL
Bits/(Pixel*Frame)                       : 0.181
Stream size                              : 316 MiB (93%)

Audio
ID                                       : 1
Format                                   : MPEG Audio
Format version                           : Version 1
Format profile                           : Layer 3
Mode                                     : Joint stereo
Codec ID                                 : 55
Codec ID/Hint                            : MP3
Duration                                 : 23mn 31s
Bit rate mode                            : Constant
Bit rate                                 : 128 Kbps
Channel(s)                               : 2 channels
Sampling rate                            : 44.1 KHz
Compression mode                         : Lossy
Stream size                              : 21.5 MiB (6%)
Alignment                                : Aligned on interleaves
Interleave, duration                     : 26 ms (0.65 video frame)
Программа "Реутовский взгляд": Срамота на порно-фестивале. Алекс Бэнтли и Виктор Дэлюкс из передачи "Модный диван" идут в клуб, чтобы познакомиться с девушками. А Флейтик и Пёся из Взросляндии поведут маленьких зрителей в запретное место.

Код:

General
Complete name                            : D:\PeyToB_TB_S01\PeyToB_TB_s01e04.avi
Format                                   : AVI
Format/Info                              : Audio Video Interleave
File size                                : 337 MiB
Duration                                 : 23mn 23s
Overall bit rate                         : 2 017 Kbps
Writing application                      : Lavf52.94.0

Video
ID                                       : 0
Format                                   : xvid
Codec ID                                 : xvid
Duration                                 : 23mn 23s
Bit rate                                 : 1 877 Kbps
Width                                    : 720 pixels
Height                                   : 576 pixels
Display aspect ratio                     : 5:4
Frame rate                               : 25.000 fps
Standard                                 : PAL
Bits/(Pixel*Frame)                       : 0.181
Stream size                              : 314 MiB (93%)

Audio
ID                                       : 1
Format                                   : MPEG Audio
Format version                           : Version 1
Format profile                           : Layer 3
Mode                                     : Joint stereo
Codec ID                                 : 55
Codec ID/Hint                            : MP3
Duration                                 : 23mn 23s
Bit rate mode                            : Constant
Bit rate                                 : 128 Kbps
Channel(s)                               : 2 channels
Sampling rate                            : 44.1 KHz
Compression mode                         : Lossy
Stream size                              : 21.4 MiB (6%)
Alignment                                : Aligned on interleaves
Interleave, duration                     : 26 ms (0.65 video frame)
Программа "Реутовский взгляд" исследует культурные ценности Реутова и проведет расследование, чтобы узнать, насколько их родной город культурнее, чем Москва. Программа "Модный диван" отправится на модную тусовку и попытается узнать, кто распространяет слухи, правдивы ли они и как к ним относятся звезды шоу-бизнеса. Флейтик и Пёся из Взросляндии идут на рок-фестиваль, чтобы узнать, чем там занимаются взрослые.

Код:

General
Complete name                            : D:\PeyToB_TB_S01\PeyToB_TB_s01e05.avi
Format                                   : AVI
Format/Info                              : Audio Video Interleave
File size                                : 360 MiB
Duration                                 : 24mn 56s
Overall bit rate                         : 2 018 Kbps
Writing application                      : Lavf52.94.0

Video
ID                                       : 0
Format                                   : xvid
Codec ID                                 : xvid
Duration                                 : 24mn 56s
Bit rate                                 : 1 877 Kbps
Width                                    : 720 pixels
Height                                   : 576 pixels
Display aspect ratio                     : 5:4
Frame rate                               : 25.000 fps
Standard                                 : PAL
Bits/(Pixel*Frame)                       : 0.181
Stream size                              : 335 MiB (93%)

Audio
ID                                       : 1
Format                                   : MPEG Audio
Format version                           : Version 1
Format profile                           : Layer 3
Mode                                     : Joint stereo
Codec ID                                 : 55
Codec ID/Hint                            : MP3
Duration                                 : 24mn 56s
Bit rate mode                            : Constant
Bit rate                                 : 128 Kbps
Channel(s)                               : 2 channels
Sampling rate                            : 44.1 KHz
Compression mode                         : Lossy
Stream size                              : 22.8 MiB (6%)
Alignment                                : Aligned on interleaves
Interleave, duration                     : 26 ms (0.65 video frame)
Программа "Реутовский взгляд"подглядела за жизнью миллионеров. Алекс Бэнтли и Виктор Дэлюкс из передачи "Модный диван" поболтали с белыми людьми. А Флейтик и Пёся из Взросляндии отправились на Нашествие.

Код:

General
Complete name                            : D:\PeyToB_TB_S01\PeyToB_TB_s01e06.avi
Format                                   : AVI
Format/Info                              : Audio Video Interleave
File size                                : 371 MiB
Duration                                 : 25mn 41s
Overall bit rate                         : 2 018 Kbps
Writing application                      : Lavf52.94.0

Video
ID                                       : 0
Format                                   : xvid
Codec ID                                 : xvid
Duration                                 : 25mn 41s
Bit rate                                 : 1 877 Kbps
Width                                    : 720 pixels
Height                                   : 576 pixels
Display aspect ratio                     : 5:4
Frame rate                               : 25.000 fps
Standard                                 : PAL
Bits/(Pixel*Frame)                       : 0.181
Stream size                              : 345 MiB (93%)

Audio
ID                                       : 1
Format                                   : MPEG Audio
Format version                           : Version 1
Format profile                           : Layer 3
Mode                                     : Joint stereo
Codec ID                                 : 55
Codec ID/Hint                            : MP3
Duration                                 : 25mn 41s
Bit rate mode                            : Constant
Bit rate                                 : 128 Kbps
Channel(s)                               : 2 channels
Sampling rate                            : 44.1 KHz
Compression mode                         : Lossy
Stream size                              : 23.5 MiB (6%)
Alignment                                : Aligned on interleaves
Interleave, duration                     : 26 ms (0.65 video frame)
Корреспонденты программы "Реутовский взгляд" постараются узнать, используется ли на Чемпионате Европы по боксу велосипедная цепь, как на дискотеках в Реутове и пообщаются с самим Николаем Валуевым. Что главное в конном спорте? На этот вопрос ответят Алекс Бэнтли и Виктор Дэлюкс. Для самых маленьких жители Взросляндии отправятся купаться с моряками в фонтанах в День Военно-Морского флота.

Код:

General
Complete name                            : D:\PeyToB_TB_S01\PeyToB_TB_s01e07.avi
Format                                   : AVI
Format/Info                              : Audio Video Interleave
File size                                : 336 MiB
Duration                                 : 23mn 15s
Overall bit rate                         : 2 017 Kbps
Writing application                      : Lavf52.94.0

Video
ID                                       : 0
Format                                   : xvid
Codec ID                                 : xvid
Duration                                 : 23mn 15s
Bit rate                                 : 1 877 Kbps
Width                                    : 720 pixels
Height                                   : 576 pixels
Display aspect ratio                     : 5:4
Frame rate                               : 25.000 fps
Standard                                 : PAL
Bits/(Pixel*Frame)                       : 0.181
Stream size                              : 312 MiB (93%)

Audio
ID                                       : 1
Format                                   : MPEG Audio
Format version                           : Version 1
Format profile                           : Layer 3
Mode                                     : Joint stereo
Codec ID                                 : 55
Codec ID/Hint                            : MP3
Duration                                 : 23mn 15s
Bit rate mode                            : Constant
Bit rate                                 : 128 Kbps
Channel(s)                               : 2 channels
Sampling rate                            : 44.1 KHz
Compression mode                         : Lossy
Stream size                              : 21.3 MiB (6%)
Alignment                                : Aligned on interleaves
Interleave, duration                     : 26 ms (0.65 video frame)
В программе "Реутовский взгляд" сюжет про историю города Реутов. Бэнтли и Дэлюкс из передачи "Модный диван" отправились на конкурс молодых модельеров. А Флейтик и Пёся из Взросляндии познакомились с любителями исторических реконструкций.

Код:

General
Complete name                            : D:\PeyToB_TB_S01\PeyToB_TB_s01e08.avi
Format                                   : AVI
Format/Info                              : Audio Video Interleave
File size                                : 369 MiB
Duration                                 : 25mn 32s
Overall bit rate                         : 2 017 Kbps
Writing application                      : Lavf52.94.0

Video
ID                                       : 0
Format                                   : xvid
Codec ID                                 : xvid
Duration                                 : 25mn 32s
Bit rate                                 : 1 877 Kbps
Width                                    : 720 pixels
Height                                   : 576 pixels
Display aspect ratio                     : 5:4
Frame rate                               : 25.000 fps
Standard                                 : PAL
Bits/(Pixel*Frame)                       : 0.181
Stream size                              : 343 MiB (93%)

Audio
ID                                       : 1
Format                                   : MPEG Audio
Format version                           : Version 1
Format profile                           : Layer 3
Mode                                     : Joint stereo
Codec ID                                 : 55
Codec ID/Hint                            : MP3
Duration                                 : 25mn 32s
Bit rate mode                            : Constant
Bit rate                                 : 128 Kbps
Channel(s)                               : 2 channels
Sampling rate                            : 44.1 KHz
Compression mode                         : Lossy
Stream size                              : 23.4 MiB (6%)
Alignment                                : Aligned on interleaves
Interleave, duration                     : 26 ms (0.65 video frame)
Илья Огурцов и Анатолий Шмель решили вспомнить о славянских корнях жителей России и отправились на праздник Ивана Купалы. Программа "Модный диван" в этот раз расскажут, в чем секрет сексуальности гольфистов и гольфисток. Флейтик и Пёся идут на автомобильную выставку, чтобы узнать, в какие машины играют взрослые дяди и тети.

Код:

General
Complete name                            : D:\PeyToB_TB_S01\PeyToB_TB_s01e09.avi
Format                                   : AVI
Format/Info                              : Audio Video Interleave
File size                                : 363 MiB
Duration                                 : 25mn 8s
Overall bit rate                         : 2 017 Kbps
Writing application                      : Lavf52.94.0

Video
ID                                       : 0
Format                                   : xvid
Codec ID                                 : xvid
Duration                                 : 25mn 8s
Bit rate                                 : 1 877 Kbps
Width                                    : 720 pixels
Height                                   : 576 pixels
Display aspect ratio                     : 5:4
Frame rate                               : 25.000 fps
Standard                                 : PAL
Bits/(Pixel*Frame)                       : 0.181
Stream size                              : 337 MiB (93%)

Audio
ID                                       : 1
Format                                   : MPEG Audio
Format version                           : Version 1
Format profile                           : Layer 3
Mode                                     : Joint stereo
Codec ID                                 : 55
Codec ID/Hint                            : MP3
Duration                                 : 25mn 8s
Bit rate mode                            : Constant
Bit rate                                 : 128 Kbps
Channel(s)                               : 2 channels
Sampling rate                            : 44.1 KHz
Compression mode                         : Lossy
Stream size                              : 23.0 MiB (6%)
Alignment                                : Aligned on interleaves
Interleave, duration                     : 26 ms (0.65 video frame)
Люди со сверхспособностями: кто они и как можно расширить свое сознание? Репортаж программы "Реутовский взгляд". Алекс Бэнтли и Виктор Дэлюкс из "Модного дивана" отправляются на выставку секс-индустрии, чтобы узнать все новинки в сфере отношений между мужчиной и женщиной из первых рук. Программа для самых маленьких во главе с Флейтиком и Пёсей пойдут смотреть, как богатые дяди покупают себе новые яхты.

Код:

General
Complete name                            : D:\PeyToB_TB_S01\PeyToB_TB_s01e10.avi
Format                                   : AVI
Format/Info                              : Audio Video Interleave
File size                                : 340 MiB
Duration                                 : 23mn 34s
Overall bit rate                         : 2 017 Kbps
Writing application                      : Lavf52.94.0

Video
ID                                       : 0
Format                                   : xvid
Codec ID                                 : xvid
Duration                                 : 23mn 34s
Bit rate                                 : 1 877 Kbps
Width                                    : 720 pixels
Height                                   : 576 pixels
Display aspect ratio                     : 5:4
Frame rate                               : 25.000 fps
Standard                                 : PAL
Bits/(Pixel*Frame)                       : 0.181
Stream size                              : 316 MiB (93%)

Audio
ID                                       : 1
Format                                   : MPEG Audio
Format version                           : Version 1
Format profile                           : Layer 3
Mode                                     : Joint stereo
Codec ID                                 : 55
Codec ID/Hint                            : MP3
Duration                                 : 23mn 34s
Bit rate mode                            : Constant
Bit rate                                 : 128 Kbps
Channel(s)                               : 2 channels
Sampling rate                            : 44.1 KHz
Compression mode                         : Lossy
Stream size                              : 21.6 MiB (6%)
Alignment                                : Aligned on interleaves
Interleave, duration                     : 26 ms (0.65 video frame)
Ведущие программы "Реутовский взгляд" знакомятся с молодыми российскими учеными. В передаче "Модный диван" ведущие поговорят о модной защите нашей планеты. В конце вещания телезрителей ждет специальный репортаж с Ладой Дэнс.

Код:

General
Complete name                            : D:\PeyToB_TB_S01\PeyToB_TB_s01e11.avi
Format                                   : AVI
Format/Info                              : Audio Video Interleave
File size                                : 361 MiB
Duration                                 : 25mn 4s
Overall bit rate                         : 2 015 Kbps
Writing application                      : Lavf52.94.0

Video
ID                                       : 0
Format                                   : xvid
Codec ID                                 : xvid
Duration                                 : 25mn 4s
Bit rate                                 : 1 875 Kbps
Width                                    : 720 pixels
Height                                   : 576 pixels
Display aspect ratio                     : 5:4
Frame rate                               : 25.000 fps
Standard                                 : PAL
Bits/(Pixel*Frame)                       : 0.181
Stream size                              : 336 MiB (93%)

Audio
ID                                       : 1
Format                                   : MPEG Audio
Format version                           : Version 1
Format profile                           : Layer 3
Mode                                     : Joint stereo
Codec ID                                 : 55
Codec ID/Hint                            : MP3
Duration                                 : 25mn 4s
Bit rate mode                            : Constant
Bit rate                                 : 128 Kbps
Channel(s)                               : 2 channels
Sampling rate                            : 44.1 KHz
Compression mode                         : Lossy
Stream size                              : 22.9 MiB (6%)
Alignment                                : Aligned on interleaves
Interleave, duration                     : 26 ms (0.65 video frame)
Корреспонденты "Реутовского взгляда" И. Огурцов и А. Шмель, рискуя своим здоровьем и жизнью, отправляются на женское ралли для того, чтобы отговорить женщин заниматься тем, для чего они природой не предназначены. Алекс Бэнтли и Виктор Дэлюкс идут на конкурс красоты, чтобы рассказать сотне самых красивых девушек о своей сексуальности. Флейтик и Пёся из Врозляндии сходили на гонки внедорожников и там узнали, почему внедорожниками называются и большие машины, и дяди, которые на них ездят.

Код:

General
Complete name                            : D:\PeyToB_TB_S01\PeyToB_TB_s01e12.avi
Format                                   : AVI
Format/Info                              : Audio Video Interleave
File size                                : 360 MiB
Duration                                 : 24mn 56s
Overall bit rate                         : 2 017 Kbps
Writing application                      : Lavf52.94.0

Video
ID                                       : 0
Format                                   : xvid
Codec ID                                 : xvid
Duration                                 : 24mn 56s
Bit rate                                 : 1 877 Kbps
Width                                    : 720 pixels
Height                                   : 576 pixels
Display aspect ratio                     : 5:4
Frame rate                               : 25.000 fps
Standard                                 : PAL
Bits/(Pixel*Frame)                       : 0.181
Stream size                              : 335 MiB (93%)

Audio
ID                                       : 1
Format                                   : MPEG Audio
Format version                           : Version 1
Format profile                           : Layer 3
Mode                                     : Joint stereo
Mode extension                           : MS Stereo
Codec ID                                 : 55
Codec ID/Hint                            : MP3
Duration                                 : 24mn 56s
Bit rate mode                            : Constant
Bit rate                                 : 128 Kbps
Channel(s)                               : 2 channels
Sampling rate                            : 44.1 KHz
Compression mode                         : Lossy
Stream size                              : 22.8 MiB (6%)
Alignment                                : Aligned on interleaves
Interleave, duration                     : 26 ms (0.65 video frame)
Смотрите в этом выпуске: журналисты «Реутов ТВ» пытаются разобраться, какая из субкультур оказывает наименьшее вредоносное влияние на наших детей. За ответом И.Огурцов и А.Шмель обращаются к представителям движения косплей, цыганской общины и даже милиции!

Код:

General
Complete name                            : D:\PeyToB_TB_S01\PeyToB_TB_s01e13.avi
Format                                   : AVI
Format/Info                              : Audio Video Interleave
File size                                : 337 MiB
Duration                                 : 23mn 16s
Overall bit rate                         : 2 023 Kbps
Writing application                      : Lavf52.94.0

Video
ID                                       : 0
Format                                   : xvid
Codec ID                                 : xvid
Duration                                 : 23mn 16s
Bit rate                                 : 1 883 Kbps
Width                                    : 720 pixels
Height                                   : 576 pixels
Display aspect ratio                     : 5:4
Frame rate                               : 25.000 fps
Standard                                 : PAL
Bits/(Pixel*Frame)                       : 0.182
Stream size                              : 314 MiB (93%)

Audio
ID                                       : 1
Format                                   : MPEG Audio
Format version                           : Version 1
Format profile                           : Layer 3
Mode                                     : Joint stereo
Mode extension                           : MS Stereo
Codec ID                                 : 55
Codec ID/Hint                            : MP3
Duration                                 : 23mn 16s
Bit rate mode                            : Constant
Bit rate                                 : 128 Kbps
Channel(s)                               : 2 channels
Sampling rate                            : 44.1 KHz
Compression mode                         : Lossy
Stream size                              : 21.3 MiB (6%)
Alignment                                : Aligned on interleaves
Interleave, duration                     : 26 ms (0.65 video frame)
Специальный выпуск! Корреспонденты «Реутов ТВ» дарят своему зрителю удивительную возможность: провести вместе один рабочий день, и посмотреть, какого это быть настоящим реутовским журналистом! В этот раз мы побываем в гостях у национальной ассоциации телевизионщиков, посетим книжную ярмарку, продегустируем винную выставку, и даже посетим звездную тусовку! ВНИМАНИЕ! Только в этом выпуске кино-кастинг мужских ягодиц вместе с Виктором Делюксом! Не пропустите!

Код:

General
Complete name                            : D:\PeyToB_TB_S01\PeyToB_TB_s01e14.avi
Format                                   : AVI
Format/Info                              : Audio Video Interleave
File size                                : 299 MiB
Duration                                 : 20mn 45s
Overall bit rate                         : 2 017 Kbps
Writing application                      : Lavf52.94.0

Video
ID                                       : 0
Format                                   : xvid
Codec ID                                 : xvid
Duration                                 : 20mn 45s
Bit rate                                 : 1 877 Kbps
Width                                    : 720 pixels
Height                                   : 576 pixels
Display aspect ratio                     : 5:4
Frame rate                               : 25.000 fps
Standard                                 : PAL
Bits/(Pixel*Frame)                       : 0.181
Stream size                              : 279 MiB (93%)

Audio
ID                                       : 1
Format                                   : MPEG Audio
Format version                           : Version 1
Format profile                           : Layer 3
Mode                                     : Joint stereo
Mode extension                           : MS Stereo
Codec ID                                 : 55
Codec ID/Hint                            : MP3
Duration                                 : 20mn 45s
Bit rate mode                            : Constant
Bit rate                                 : 128 Kbps
Channel(s)                               : 2 channels
Sampling rate                            : 44.1 KHz
Compression mode                         : Lossy
Stream size                              : 19.0 MiB (6%)
Alignment                                : Aligned on interleaves
Interleave, duration                     : 26 ms (0.65 video frame)
info [Профиль]  [ЛС] 
Показать сообщения:    
Ответить на тему

Текущее время: 05-Дек 20:40

Часовой пояс: GMT + 4



Вы не можете начинать темы
Вы не можете отвечать на сообщения
Вы не можете редактировать свои сообщения
Вы не можете удалять свои сообщения
Вы не можете голосовать в опросах
Вы не можете прикреплять файлы к сообщениям
Вы не можете скачивать файлы