Ошибка

Иван Царевич и Серый Волк (Владимир Торопчин) [2011 г., мультфильм, семейный, BDRip-AVC]

Ответить на тему
 
Автор Сообщение

L

Пол: Пол:Муж

Стаж: 6 лет 7 месяцев

Сообщений: 10811

Украина
Рейтинг

post 09-Фев-2012 12:47 1[+]

[Цитировать] 


Название: Иван Царевич и Серый Волк
Год выхода: 2011
Жанр: мультфильм, семейный
Выпущено: Россия
Продолжительность: 01:26:03
Озвучивание: Оригинал
Режиссер: Владимир Торопчин
В ролях:
Никита Ефремов, Иван Охлобыстин, Артур Смольянинов, Лия Ахеджакова, Кристина Асмус, Виктор Сухоруков, Сергей Гармаш, Михаил Боярский, Татьяна Бунина, Сергей Русскин

Описание:
Увлекательная история от создателей богатырской трилогии, в которой героев русских народных сказок ждут новые приключения, опасности и забавные ситуации.
6.405 | | | 6.2/10

Раздача от:
Качество: BDRip-AVC
Автор рипа: L
Исходник: Blu-Ray Disc
Контейнер: MKV
Видео: H.264 / 1280х720/ 1972 Kbps / 16:9 / High@L4.1
Аудио:
  • 48 kHz, AC3, 3/2 (L,C,R,l,r) + LFE ch, ~448.00 kbps avg - оригинал
Субтитры: нет


Код:

---[NoImage] x264 [info]: frame I:1583  Avg QP:13.23  size:133938  PSNR Mean Y:51.60 U:53.94 V:54.00 Avg:52.16 Global:51.74
---[NoImage] x264 [info]: frame P:44256 Avg QP:16.20  size: 14955  PSNR Mean Y:50.46 U:52.81 V:52.88 Avg:50.96 Global:50.51
---[NoImage] x264 [info]: frame B:77945 Avg QP:17.83  size:  5116  PSNR Mean Y:50.50 U:53.92 V:54.00 Avg:51.05 Global:50.44

Код:

Уникальный идентификатор         : 180223527266277214922546860609945169569 (0x8795C9EDC84A78CAAB3903DCCA576EA1)
Полное имя                       : D:\L\Ivan.Carevich.i.Seriy.Volk.BDRip.x.264.AC3.RG.25.Kadr[by.L].mkv
Формат                           : Matroska
Версия формата                   : Version 2
Размер файла                     : 1,46 Гбайт
Продолжительность                : 1 ч. 26 м.
Общий поток                      : 2422 Кбит/сек
Дата кодирования                 : UTC 2012-02-08 06:08:06
Программа кодирования            : mkvmerge v3.2.0 ('Beginnings') built on Feb 12 2010 16:46:17
Библиотека кодирования           : libebml v0.7.9 + libmatroska v0.8.1

Видео
Идентификатор                    : 1
Формат                           : AVC
Формат/Информация                : Advanced Video Codec
Профиль формата                  : High@L4.1
Параметр CABAC формата           : Да
Параметр ReFrames формата        : 9 кадров
Идентификатор кодека             : V_MPEG4/ISO/AVC
Продолжительность                : 1 ч. 26 м.
Битрейт                          : 1972 Кбит/сек
Ширина                           : 1280 пикселей
Высота                           : 720 пикселей
Соотношение сторон               : 16:9
Частота кадров                   : 23,976 кадра/сек
Цветовое пространство            : YUV
Субдискретизация насыщенности    : 4:2:0
Битовая глубина                  : 8 бит
Тип развёртки                    : Прогрессивная
Бит/(Пиксели*Кадры)              : 0.089
Размер потока                    : 1,16 Гбайт (80%)
Библиотека кодирования           : x264 core 116 r2074 2641b9e
Настройки программы              : cabac=1 / ref=9 / deblock=1:1:1 / analyse=0x3:0x113 / me=umh / subme=10 / psy=1 / psy_rd=0.40:0.00 / mixed_ref=1 / me_range=32 / chroma_me=1 / trellis=2 / 8x8dct=1 / cqm=0 / deadzone=21,11 / fast_pskip=1 / chroma_qp_offset=-2 / threads=6 / sliced_threads=0 / nr=0 / decimate=1 / interlaced=0 / bluray_compat=0 / constrained_intra=0 / bframes=8 / b_pyramid=2 / b_adapt=1 / b_bias=0 / direct=1 / weightb=1 / open_gop=0 / weightp=2 / keyint=250 / keyint_min=23 / scenecut=40 / intra_refresh=0 / rc=2pass / mbtree=0 / bitrate=1972 / ratetol=1.0 / qcomp=0.70 / qpmin=10 / qpmax=51 / qpstep=4 / cplxblur=20.0 / qblur=0.5 / ip_ratio=1.40 / pb_ratio=1.30 / aq=2:0.60
Язык                             : English
Default                          : Нет
Forced                           : Нет

Аудио
Идентификатор                    : 2
Формат                           : AC-3
Формат/Информация                : Audio Coding 3
Расширение режима                : CM (complete main)
Идентификатор кодека             : A_AC3
Продолжительность                : 1 ч. 26 м.
Вид битрейта                     : Постоянный
Битрейт                          : 448 Кбит/сек
Каналы                           : 6 каналов
Расположение каналов             : Front: L C R, Side: L R, LFE
Частота                          : 48,0 КГц
Битовая глубина                  : 16 бит
Метод сжатия                     : С потерями
Размер потока                    : 276 Мбайт (18%)
Заголовок                        : Original
Язык                             : Russian
Default                          : Да
Forced                           : Нет
info [Профиль]  [ЛС] 
Показать сообщения:    
Ответить на тему

Текущее время: 07-Дек 12:41

Часовой пояс: GMT + 4



Вы не можете начинать темы
Вы не можете отвечать на сообщения
Вы не можете редактировать свои сообщения
Вы не можете удалять свои сообщения
Вы не можете голосовать в опросах
Вы не можете прикреплять файлы к сообщениям
Вы не можете скачивать файлы