Ошибка

Queen Rock Montreal [2007 г., Rock, Blu-ray Rip 720p]

Ответить на тему
 
Автор Сообщение

Rock Star

Пол: Пол:Муж

Стаж: 5 лет 4 месяца

Сообщений: 782

Рейтинг

post 08-Фев-2012 22:44 0[+]

[Цитировать] 

pic="http://s002.youpic.su/pictures/1328648400/ddbdacbcfa525108dbb6ecadbb1e7c8e.jpg"
Queen Rock Montreal

Год выпуска: 2007
Жанр: Rock
Происхождение исполнителя: UK
Продолжительность: 1:35:00
Происхождение видео: Blu-ray Rip
Формат: MKV
Видео кодек: H.264
Данные видео: 1280х720 23.976 fps, 8318 kbps
Аудио кодек: DTS
Данные аудио: DTS, 48 kHz/24 bit, 1510 kbps, 6 ch
Режиссер:
  • Сауль Свиммер
Состав:
  • Фредди Меркьюри, Роджер Тэйлор, Брайан Мэй, Джон Дикон
Описание:
Queen Rock Montreal - концертный DVD-выпуск английской группы Queen. Официальный выпуск Queen Rock Montreal планировался на 27 октября 2007 года, но вышел он с опозданием на 5 дней, 1 ноября 2007 года. На видео был показан концерт группы в Монреале 24 ноября 1981 года. Вместе с ним вышел бокс-сет «Queen Rock Montreal + Live Aid», состоящий из двух дисков, на одном из которых записан монреальский концерт, а на другом - выступление группы на концерте Live Aid 13 июля 1985 года и различные другие материалы группы. Вместе с ними вышел одноимённый концертный альбом с записью монреальского концерта.
01. Intro
02. We Will Rock You (fast)
03. Let Me Entertain You
04. Play The Game
05. Somebody To Love
06. Killer Queen
07. I'm In Love With My Car
08. Get Down Make Love
09. Save Me
10. Now I'm Here
11. Dragon Attack
12. Now I'm Here (reprise)
13. Love Of My Life
14. Under Pressure
15. Keep Yourself Alive
16. Drum & Timpani Solo
17. Guitar Solo
18. Crazy Little Thing Called Love
19. Jailhouse Rock
20. Bohemian Rhapsody
21. Tie Your Mother Down
22. Another One Bites The Dust
23. Sheer Heart Attack
24. We Will Rock You
25. We Are The Champions
26. God Save The Queen

Код:

Общее
Уникальный идентификатор         : 237484974602762943654670549956261005813 (0xB2A9F140AA15AC0490973CF8E5EF49F5)
Полное имя                       : E:\Videos\Queen - Rock Montreal.mkv
Формат                           : Matroska
Версия формата                   : Version 1
Размер файла                     : 6,53 Гбайт
Продолжительность                : 1 ч. 35 м.
Общий поток                      : 9826 Кбит/сек
Дата кодирования                 : UTC 2007-12-03 21:12:22
Программа кодирования            : mkvmerge v2.1.0 ('Another Place To Fall') built on Aug 19 2007 13:40:07
Библиотека кодирования           : libebml v0.7.7 + libmatroska v0.8.1

Видео
Идентификатор                    : 1
Формат                           : AVC
Формат/Информация                : Advanced Video Codec
Профиль формата                  : High@L5.1
Параметр CABAC формата           : Да
Параметр ReFrames формата        : 9 кадров
Параметр GOP формата             : N=1
Идентификатор кодека             : V_MPEG4/ISO/AVC
Продолжительность                : 1 ч. 35 м.
Битрейт                          : 8318 Кбит/сек
Ширина                           : 1280 пикселей
Высота                           : 720 пикселей
Соотношение сторон               : 16:9
Частота кадров                   : 23,976 кадра/сек
Цветовое пространство            : YUV
Субдискретизация насыщенности    : 4:2:0
Битовая глубина                  : 8 бит
Тип развёртки                    : Прогрессивная
Бит/(Пиксели*Кадры)              : 0.376
Размер потока                    : 5,40 Гбайт (83%)
Библиотека кодирования           : x264 core 57 svn-699C
Настройки программы              : cabac=1 / ref=6 / deblock=1:-3:-3 / analyse=0x3:0x133 / me=umh / fpel_cmp=sad / subme=7 / me-prepass=0 / brdo=1 / mixed_ref=1 / me_range=16 / chroma_me=1 / trellis=1 / 8x8dct=1 / cqm=2 / deadzone=6,4 / chroma_qp_offset=0 / threads=3 / nr=0 / decimate=0 / mbaff=0 / bframes=6 / b_pyramid=1 / b_adapt=1 / b_bias=0 / direct=3 / wpredb=1 / bime=1 / keyint=250 / keyint_min=25 / scenecut=40(pre) / rc=2pass / bitrate=8318 / ratetol=1.0 / rceq='blurCplx^(1-qComp)' / qcomp=0.60 / qpmin=10 / qpmax=51 / qpstep=4 / cplxblur=20.0 / qblur=0.5 / ip_ratio=1.40 / pb_ratio=1.30 / aq=1:0.6:12.0
Язык                             : English
Default                          : Да
Forced                           : Нет

Аудио
Идентификатор                    : 2
Формат                           : DTS
Формат/Информация                : Digital Theater Systems
Идентификатор кодека             : A_DTS
Продолжительность                : 1 ч. 35 м.
Вид битрейта                     : Постоянный
Битрейт                          : 1510 Кбит/сек
Каналы                           : 6 каналов
Расположение каналов             : Front: L C R, Side: L R, LFE
Частота                          : 48,0 КГц
Битовая глубина                  : 24 бит
Метод сжатия                     : С потерями
Размер потока                    : 1,00 Гбайт (15%)
Язык                             : English
Default                          : Да
Forced                           : Нет

Меню
00:00:00.000                     : en:Intro
00:02:05.000                     : en:We Will Rock You
00:05:11.000                     : en:Let Me Entertain You
00:08:14.000                     : en:Play The Game
00:12:09.000                     : en:Somebody To Love
00:19:48.000                     : en:Killer
00:21:49.000                     : en:I'm In Love With my Car
00:23:52.000                     : en:Get Down Make Love
00:28:46.000                     : en:Save Me
00:32:53.000                     : en:Now I'm Here
00:38:23.000                     : en:Dragon Attack
00:41:39.000                     : en:Now I'm Here (reprise)
00:43:39.000                     : en:Love Of My Life
00:47:25.000                     : en:Under Pressure
00:51:07.000                     : en:Keep Yourself Alive
00:54:40.000                     : en:Drum & Timpani solo
00:57:43.000                     : en:Guitar solo
01:03:06.000                     : en:Crazy Little Thing Called Love
01:07:24.000                     : en:Jailhouse Rock
01:10:10.000                     : en:Bohemian Rhapsody
01:15:41.000                     : en:Tie Your Mother Down
01:19:30.000                     : en:Another One Bites The Dust
01:23:33.000                     : en:Sheer Heart Attack
01:27:27.000                     : en:We Will Rock You
01:29:39.000                     : en:We Are The Champions
01:33:05.000                     : en:God Save The Queen

info [Профиль]  [ЛС] 

FrienD

Пол: Пол:Муж

Стаж: 7 лет 2 месяца

Сообщений: 101

Россия
Рейтинг

post 09-Фев-2012 22:50 (спустя 1 день) [-]0[+]

[Цитировать] 

Классно, спасибо!!!
info [Профиль]  [ЛС] 

s0ka

Пол: Пол:Муж

Стаж: 4 года 11 месяцев

Сообщений: 20

Россия
Рейтинг

post 10-Фев-2012 00:45 (спустя 1 час 54 минуты) [-]0[+]

[Цитировать] 

Большое спасибо! Queen рулит!

_________________
Эль Псай Конгуру
info [Профиль]  [ЛС] 
Показать сообщения:    
Ответить на тему

Текущее время: 09-Дек 09:55

Часовой пояс: GMT + 4



Вы не можете начинать темы
Вы не можете отвечать на сообщения
Вы не можете редактировать свои сообщения
Вы не можете удалять свои сообщения
Вы не можете голосовать в опросах
Вы не можете прикреплять файлы к сообщениям
Вы не можете скачивать файлы