Ошибка

(Heavy Metal/Hard Rock/Metalcore) Black Tide - Light from Above (2008) + Post Mortem (2011), FLAC, APE (image+.cue, tracks+.cue), lossless

Ответить на тему
 
Автор Сообщение

The Buzzhorn

Пол: Пол:Муж

Стаж: 6 лет 2 месяца

Сообщений: 901

Германия
Рейтинг

post 05-Фев-2012 14:40 0[+]

[Цитировать] 



Жанр: Heavy Metal / Hard Rock / Metalcore || Происхождение исполнителя: Miami, Florida, United States || Год издания носителей: 2008-2011
Страна-производитель носителя: USA || Тип релиза: image+.cue, tracks+.cue || Аудио кодек: FLAC, APE || Битрейт аудио: lossless || Лейбл: Interscope || Продолжительность: 87:00

Цитата:

Black Tide — американская хэви-метал/металкор группа образованная в 2004 году в Маями, штат Флорида. Подписав контракт с Interscope Records, группа выпустила их дебютный альбом Light from Above в 2008 году, в то время как, их лидеру Gabriel Garcia на момент выпуска пластинки было всего 15 лет. Сегодняшний состав включает в себя: Gabriel Garcia (Вокал/Соло-гитара), Austin Diaz (Ритм-гитара/Бэк-вокал), Zachary Sandler (Бас), и Steven Spence (Барабаны). Второй альбом под названием Post Mortem вышел в августе 2011 года. Группа заметно сменила звучание с привычного Хэви-метала на металкор, добавив больше агрессивности, утяжеленных гитарных рифов под аккомпанемент скриминг вокала Gabriel Garcia.


Трэклист:
1. Shockwave
2. Shout
3. Warriors Of Time
4. Give Me A Chance
5. Let Me
6. Show Me The Way
7. Enterprise
8. Live Fast Die Young
9. Hit The Lights (Metallica cover)
10. Black Abyss
11. Light From Above

Код:

Exact Audio Copy V0.99 prebeta 4 from 23. January 2008

EAC extraction logfile from 10. October 2009, 16:11

Black Tide / Light From Above

Used drive : ATAPI DVD A DH20A3P Adapter: 0 ID: 2

Read mode : Secure
Utilize accurate stream : Yes
Defeat audio cache : Yes
Make use of C2 pointers : No

Read offset correction : 6
Overread into Lead-In and Lead-Out : No
Fill up missing offset samples with silence : Yes
Delete leading and trailing silent blocks : No
Null samples used in CRC calculations : Yes
Used interface : Native Win32 interface for Win NT & 2000

Used output format : User Defined Encoder
Selected bitrate : 128 kBit/s
Quality : High
Add ID3 tag : No
Command line compressor : C:\Program Files\Exact Audio Copy\Flac\flac.exe
Additional command line options : -8 -V %s

TOC of the extracted CD

Track | Start | Length | Start sector | End sector
---------------------------------------------------------
1 | 0:00.00 | 3:37.40 | 0 | 16314
2 | 3:37.40 | 3:25.39 | 16315 | 31728
3 | 7:03.04 | 5:52.43 | 31729 | 58171
4 | 12:55.47 | 3:34.32 | 58172 | 74253
5 | 16:30.04 | 3:29.37 | 74254 | 89965
6 | 19:59.41 | 3:58.60 | 89966 | 107875
7 | 23:58.26 | 4:30.35 | 107876 | 128160
8 | 28:28.61 | 3:00.65 | 128161 | 141725
9 | 31:29.51 | 3:41.49 | 141726 | 158349
10 | 35:11.25 | 4:05.61 | 158350 | 176785
11 | 39:17.11 | 5:45.51 | 176786 | 202711

Range status and errors

Selected range

Filename C:\Documents and Settings\Dacha\Desktop\Black Tide - Light From Above.wav

Peak level 100.0 %
Range quality 100.0 %
Copy CRC 8285AD18
Copy OK

No errors occurred

AccurateRip summary

Track 1 accurately ripped (confidence 16) [18CF88E2]
Track 2 accurately ripped (confidence 15) [E40D66BF]
Track 3 accurately ripped (confidence 16) [E4384565]
Track 4 accurately ripped (confidence 15) [4F076BD2]
Track 5 accurately ripped (confidence 15) [578E6546]
Track 6 accurately ripped (confidence 15) [14D91E04]
Track 7 accurately ripped (confidence 15) [924C7CC3]
Track 8 accurately ripped (confidence 15) [B6720CA2]
Track 9 accurately ripped (confidence 15) [E0A9E925]
Track 10 accurately ripped (confidence 15) [43B258C9]
Track 11 accurately ripped (confidence 14) [E0FD8331]

All tracks accurately ripped

End of status report

Код:

REM GENRE "Hard Rock"
REM DATE 2008
REM DISCID 850A8E0B
REM COMMENT "ExactAudioCopy v0.99pb3"
PERFORMER "Black Tide"
TITLE "Light From Above"
FILE "Black Tide - Light From Above.ape" WAVE
  TRACK 01 AUDIO
    TITLE "Shockwave"
    PERFORMER "Black Tide"
    INDEX 01 00:00:00
  TRACK 02 AUDIO
    TITLE "Shout"
    PERFORMER "Black Tide"
    INDEX 01 03:37:40
  TRACK 03 AUDIO
    TITLE "Warriors Of Time"
    PERFORMER "Black Tide"
    INDEX 01 07:03:04
  TRACK 04 AUDIO
    TITLE "Give Me A Chance"
    PERFORMER "Black Tide"
    INDEX 00 12:55:40
    INDEX 01 12:55:47
  TRACK 05 AUDIO
    TITLE "Let Me"
    PERFORMER "Black Tide"
    INDEX 00 16:29:72
    INDEX 01 16:30:04
  TRACK 06 AUDIO
    TITLE "Show Me The Way"
    PERFORMER "Black Tide"
    INDEX 00 19:59:39
    INDEX 01 19:59:41
  TRACK 07 AUDIO
    TITLE "Enterprise"
    PERFORMER "Black Tide"
    INDEX 01 23:58:26
  TRACK 08 AUDIO
    TITLE "Live Fast Die Young"
    PERFORMER "Black Tide"
    INDEX 01 28:28:61
  TRACK 09 AUDIO
    TITLE "Hit The Lights"
    PERFORMER "Black Tide"
    INDEX 01 31:29:51
  TRACK 10 AUDIO
    TITLE "Black Abyss"
    PERFORMER "Black Tide"
    INDEX 01 35:11:25
  TRACK 11 AUDIO
    TITLE "Light From Above"
    PERFORMER "Black Tide"
    INDEX 01 39:17:11
Трэклист:
01. Ashes (4:09)
02. Bury Me (s3:53)
03. Let It Out (5:06)
04. Honest Eyes (3:54)
05. That Fire (3:31)
06. Fight Til The Bitter End (3:44)
07. Take It Easy (4:34)
08. Lost In The Sound (4:59)
09. Walking Dead Man (4:16)
10. Into The Sky (4:52)

Код:

Exact Audio Copy V1.0 beta 1 from 15. November 2010

EAC extraction logfile from 2. October 2011, 20:18

Black Tide / Post Mortem

Used drive  : TSSTcorpCD/DVDW TS-H652L   Adapter: 5  ID: 0

Read mode               : Secure
Utilize accurate stream : Yes
Defeat audio cache      : Yes
Make use of C2 pointers : No

Read offset correction                      : 6
Overread into Lead-In and Lead-Out          : No
Fill up missing offset samples with silence : Yes
Delete leading and trailing silent blocks   : No
Null samples used in CRC calculations       : Yes
Used interface                              : Native Win32 interface for Win NT & 2000
Gap handling                                : Appended to previous track

Used output format              : User Defined Encoder
Selected bitrate                : 128 kBit/s
Quality                         : High
Add ID3 tag                     : No
Command line compressor         : C:\Program Files\Exact Audio Copy\Flac\flac.exe
Additional command line options : -V -8 -T "artist=%a" -T "title=%t" -T "album=%g" -T "date=%y" -T "tracknumber=%n" -T "genre=%m" %s

TOC of the extracted CD

     Track |   Start  |  Length  | Start sector | End sector
    ---------------------------------------------------------
        1  |  0:00.00 |  4:09.74 |         0    |    18748
        2  |  4:09.74 |  3:53.38 |     18749    |    36261
        3  |  8:03.37 |  5:06.12 |     36262    |    59223
        4  | 13:09.49 |  3:55.32 |     59224    |    76880
        5  | 17:05.06 |  3:30.65 |     76881    |    92695
        6  | 20:35.71 |  3:44.56 |     92696    |   109551
        7  | 24:20.52 |  4:35.11 |    109552    |   130187
        8  | 28:55.63 |  4:59.61 |    130188    |   152673
        9  | 33:55.49 |  4:16.57 |    152674    |   171930
       10  | 38:12.31 |  4:52.04 |    171931    |   193834

Track  1

     Filename M:\Downloads\Black Tide - Post Mortem (2011) [FLAC]\01 - Ashes (featuring Matt Tuck).wav

     Pre-gap length  0:00:02.00

     Peak level 99.9 %
     Extraction speed 4.9 X
     Track quality 100.0 %
     Test CRC 94839BE0
     Copy CRC 94839BE0
     Accurately ripped (confidence 2)  [2B64C8C3]
     Copy OK

Track  2

     Filename M:\Downloads\Black Tide - Post Mortem (2011) [FLAC]\02 - Bury Me.wav

     Pre-gap length  0:00:00.57

     Peak level 99.9 %
     Extraction speed 5.3 X
     Track quality 100.0 %
     Test CRC 9D8866C6
     Copy CRC 9D8866C6
     Accurately ripped (confidence 2)  [2305C761]
     Copy OK

Track  3

     Filename M:\Downloads\Black Tide - Post Mortem (2011) [FLAC]\03 - Let It Out.wav

     Pre-gap length  0:00:00.01

     Peak level 99.9 %
     Extraction speed 5.4 X
     Track quality 99.9 %
     Test CRC 11F6ADBB
     Copy CRC 11F6ADBB
     Accurately ripped (confidence 2)  [7B284D50]
     Copy OK

Track  4

     Filename M:\Downloads\Black Tide - Post Mortem (2011) [FLAC]\04 - Honest Eyes.wav

     Pre-gap length  0:00:00.28

     Peak level 99.9 %
     Extraction speed 5.4 X
     Track quality 99.9 %
     Test CRC 9604C531
     Copy CRC 9604C531
     Accurately ripped (confidence 2)  [E8477450]
     Copy OK

Track  5

     Filename M:\Downloads\Black Tide - Post Mortem (2011) [FLAC]\05 - That Fire.wav

     Pre-gap length  0:00:01.36

     Peak level 98.8 %
     Extraction speed 5.5 X
     Track quality 99.9 %
     Test CRC 49D96812
     Copy CRC 49D96812
     Accurately ripped (confidence 2)  [09CB6BEE]
     Copy OK

Track  6

     Filename M:\Downloads\Black Tide - Post Mortem (2011) [FLAC]\06 - Fight Til the Bitter End.wav

     Pre-gap length  0:00:00.36

     Peak level 98.8 %
     Extraction speed 6.7 X
     Track quality 100.0 %
     Test CRC 6DA27566
     Copy CRC 6DA27566
     Accurately ripped (confidence 2)  [0654421E]
     Copy OK

Track  7

     Filename M:\Downloads\Black Tide - Post Mortem (2011) [FLAC]\07 - Take It Easy.wav

     Pre-gap length  0:00:01.10

     Peak level 99.9 %
     Extraction speed 7.1 X
     Track quality 100.0 %
     Test CRC AF553FD1
     Copy CRC AF553FD1
     Accurately ripped (confidence 2)  [59F39D7C]
     Copy OK

Track  8

     Filename M:\Downloads\Black Tide - Post Mortem (2011) [FLAC]\08 - Lost In the Sound.wav

     Pre-gap length  0:00:01.53

     Peak level 99.9 %
     Extraction speed 7.5 X
     Track quality 100.0 %
     Test CRC 0A4C1054
     Copy CRC 0A4C1054
     Accurately ripped (confidence 2)  [9FB2D738]
     Copy OK

Track  9

     Filename M:\Downloads\Black Tide - Post Mortem (2011) [FLAC]\09 - Walking Dead Man.wav

     Pre-gap length  0:00:00.54

     Peak level 98.8 %
     Extraction speed 7.7 X
     Track quality 100.0 %
     Test CRC 5A68E332
     Copy CRC 5A68E332
     Accurately ripped (confidence 2)  [4A34FF44]
     Copy OK

Track 10

     Filename M:\Downloads\Black Tide - Post Mortem (2011) [FLAC]\10 - Into the Sky.wav

     Pre-gap length  0:00:00.86

     Peak level 99.9 %
     Extraction speed 8.1 X
     Track quality 100.0 %
     Test CRC 0BC30C4B
     Copy CRC 0BC30C4B
     Accurately ripped (confidence 2)  [2E2C730D]
     Copy OK

All tracks accurately ripped

No errors occurred

End of status report

==== Log checksum 8EF45052E9185E52359E2FAD197E9ECEA5DF7348134112B13D94CFBA2B18A8A7 ====

Код:

REM GENRE Rock
REM DATE 2011
REM DISCID 7F0A180A
REM COMMENT "ExactAudioCopy v1.0b1"
PERFORMER "Black Tide"
TITLE "Post Mortem"
FILE "01 - Ashes (featuring Matt Tuck).wav" WAVE
  TRACK 01 AUDIO
    TITLE "Ashes (featuring Matt Tuck)"
    PERFORMER "Black Tide"
    INDEX 01 00:00:00
  TRACK 02 AUDIO
    TITLE "Bury Me"
    PERFORMER "Black Tide"
    INDEX 00 04:09:31
FILE "02 - Bury Me.wav" WAVE
    INDEX 01 00:00:00
  TRACK 03 AUDIO
    TITLE "Let It Out"
    PERFORMER "Black Tide"
    INDEX 00 03:53:37
FILE "03 - Let It Out.wav" WAVE
    INDEX 01 00:00:00
  TRACK 04 AUDIO
    TITLE "Honest Eyes"
    PERFORMER "Black Tide"
    INDEX 00 05:05:66
FILE "04 - Honest Eyes.wav" WAVE
    INDEX 01 00:00:00
  TRACK 05 AUDIO
    TITLE "That Fire"
    PERFORMER "Black Tide"
    INDEX 00 03:54:05
FILE "05 - That Fire.wav" WAVE
    INDEX 01 00:00:00
  TRACK 06 AUDIO
    TITLE "Fight Til the Bitter End"
    PERFORMER "Black Tide"
    INDEX 00 03:30:38
FILE "06 - Fight Til the Bitter End.wav" WAVE
    INDEX 01 00:00:00
  TRACK 07 AUDIO
    TITLE "Take It Easy"
    PERFORMER "Black Tide"
    INDEX 00 03:43:48
FILE "07 - Take It Easy.wav" WAVE
    INDEX 01 00:00:00
  TRACK 08 AUDIO
    TITLE "Lost In the Sound"
    PERFORMER "Black Tide"
    INDEX 00 04:33:46
FILE "08 - Lost In the Sound.wav" WAVE
    INDEX 01 00:00:00
  TRACK 09 AUDIO
    TITLE "Walking Dead Man"
    PERFORMER "Black Tide"
    INDEX 00 04:59:20
FILE "09 - Walking Dead Man.wav" WAVE
    INDEX 01 00:00:00
  TRACK 10 AUDIO
    TITLE "Into the Sky"
    PERFORMER "Black Tide"
    INDEX 00 04:15:67
FILE "10 - Into the Sky.wav" WAVE
    INDEX 01 00:00:00


info [Профиль]  [ЛС] 

The Buzzhorn

Пол: Пол:Муж

Стаж: 6 лет 2 месяца

Сообщений: 901

Германия
Рейтинг

post 05-Фев-2012 16:43 (спустя 2 часа 3 минуты) [-]0[+]

[Цитировать] 

          
info [Профиль]  [ЛС] 

post 05-Фев-2012 16:54 (спустя 11 минут) [-]0[+]

Топик был перенесен из форума Оформление раздач в форум Mеtаl (losslеss)

The Buzzhorn
 

Raa

Пол: Пол:Муж

Стаж: 6 лет 8 месяцев

Сообщений: 1099

Рейтинг

post 05-Фев-2012 17:48 (спустя 1 час 5 минут) [-]0[+]

[Цитировать] 

The Buzzhorn
Дискографии от 3-х релизов
Пропишите названия двух альбомов в заголовке как это сделано здесь http://tapochek.net/viewtopic.php?t=80783
Если уж делать релизы лося от РГ, то стараться делать их одного формата и типа tracks или image...
info [Профиль]  [ЛС] 
Показать сообщения:    
Ответить на тему

Текущее время: 04-Дек 18:11

Часовой пояс: GMT + 4



Вы не можете начинать темы
Вы не можете отвечать на сообщения
Вы не можете редактировать свои сообщения
Вы не можете удалять свои сообщения
Вы не можете голосовать в опросах
Вы не можете прикреплять файлы к сообщениям
Вы не можете скачивать файлы