Ошибка

(Ethno-Thrash-Core Metal) Ektomorf - Discography (9 СDs) - 1996-2010, FLAC (image+.cue, tracks+.cue), lossless+covers

Ответить на тему
 
Автор Сообщение

The Buzzhorn

Пол: Пол:Муж

Стаж: 6 лет 1 месяц

Сообщений: 901

Германия
Рейтинг

post 28-Янв-2012 18:39 0[+]

[Цитировать] 



Жанр: Ethno-Thrash-Core Metal || Происхождение исполнителя: Mezőkovácsháza, Hungary || Год издания носителей:1996-2010
Страна-производитель носителя: Hungary, USA || Тип релиза: image+.cue, tracks+.cue || Аудио кодек: FLAC || Битрейт аудио: lossless
Год первого издания: 1996 || Лейбл: PIAS Recordings (2000-2002), Silverdust-Records (2002-2004), Nuclear Blast (2004-2008), AFM-Records (2008- ) || Продолжительность: 04:29:56

Цитата:

Ektomorf — венгерская группа, была основана в 1994 году, братьями Zoltán Farkas (вокал, гитара) и Csaba Farkas (бас гитара) Дебютная пластинка «Hangok» (1996), сочетающая hardcore, thrash metal и цыганские мелодии, принесла группе известность на родине. Следующему, одноимённому альбому «Ektomorf» (1998) сопутствовал необыкновенный успех в Европе. В скором времени к группе присоединился барабанщик József Szakács, и трио записало великолепный «Kalyi Jag» (чёрное пламя), всемирный релиз которого состоялся в 2000 году. Пластинка получила прекрасные рецензии в прессе, не удержавшейся от сравнений с Sepultura и Soulfly из-за агрессивных, безудержных риффов и текстов социально-критического содержания.


Трэклист:
1. Nekem Ne Mondd Meg (1:42)
2. Shalom (3:54)
3. Engedélyezett Gyilkosság (2:36)
4. Hangok (3:51)
5. Üvöltő Félelem (1:53)
6. Kívülről Nézve (2:41)
7. Jóvátehetetlen (3:15)
8. Terror (2:28)
9. A Romok Alatt (2:54)
10. Jézus Vár (3:12)
11. Statisztika (2:09)
12. Belülről (2:41)
13. Ellenállás (2:00)
14. A Világ Szenved (5:39)
15. Háború Szindróma (0:43)

Код:

Exact Audio Copy V0.99 prebeta 5 from 4. May 2009

EAC extraction logfile from 23. August 2010, 2:25

Ektomorf / Hangok

Used drive  : PIONEER DVD-RW  DVR-218L   Adapter: 1  ID: 0

Read mode               : Secure
Utilize accurate stream : Yes
Defeat audio cache      : Yes
Make use of C2 pointers : No

Read offset correction                      : 6
Overread into Lead-In and Lead-Out          : No
Fill up missing offset samples with silence : Yes
Delete leading and trailing silent blocks   : No
Null samples used in CRC calculations       : Yes
Used interface                              : Native Win32 interface for Win NT & 2000
Gap handling                                : Appended to previous track

Used output format              : User Defined Encoder
Selected bitrate                : 1024 kBit/s
Quality                         : High
Add ID3 tag                     : No
Command line compressor         : C:\Program Files (x86)\FLAC\flac.exe
Additional command line options : -V -8 -T "artist=%a" -T "title=%t" -T "album=%g" -T "date=%y" -T "tracknumber=%n" -T "genre=%m" %s

TOC of the extracted CD

     Track |   Start  |  Length  | Start sector | End sector
    ---------------------------------------------------------
        1  |  0:00.00 |  1:42.62 |         0    |     7711
        2  |  1:42.62 |  3:54.37 |      7712    |    25298
        3  |  5:37.24 |  2:36.22 |     25299    |    37020
        4  |  8:13.46 |  3:51.66 |     37021    |    54411
        5  | 12:05.37 |  1:53.18 |     54412    |    62904
        6  | 13:58.55 |  2:41.46 |     62905    |    75025
        7  | 16:40.26 |  3:15.14 |     75026    |    89664
        8  | 19:55.40 |  2:28.22 |     89665    |   100786
        9  | 22:23.62 |  2:54.35 |    100787    |   113871
       10  | 25:18.22 |  3:12.26 |    113872    |   128297
       11  | 28:30.48 |  2:09.35 |    128298    |   138007
       12  | 30:40.08 |  2:41.33 |    138008    |   150115
       13  | 33:21.41 |  2:00.57 |    150116    |   159172
       14  | 35:22.23 |  5:39.61 |    159173    |   184658
       15  | 41:02.09 |  0:43.36 |    184659    |   187919

Track  1

     Filename D:\dTa\sound\grabba\Ektomorf\1996 - Hangok\(01) - Nekem Ne Mondd Meg.wav

     Pre-gap length  0:00:02.00

     Peak level 100.0 %
     Track quality 100.0 %
     Test CRC 359B36C3
     Copy CRC 359B36C3
     Track not present in AccurateRip database
     Copy OK

Track  2

     Filename D:\dTa\sound\grabba\Ektomorf\1996 - Hangok\(02) - Shalom.wav

     Peak level 100.0 %
     Track quality 100.0 %
     Test CRC 0BA638A3
     Copy CRC 0BA638A3
     Track not present in AccurateRip database
     Copy OK

Track  3

     Filename D:\dTa\sound\grabba\Ektomorf\1996 - Hangok\(03) - Engedélyezett Gyilkosság.wav

     Peak level 100.0 %
     Track quality 100.0 %
     Test CRC 231C92CB
     Copy CRC 231C92CB
     Track not present in AccurateRip database
     Copy OK

Track  4

     Filename D:\dTa\sound\grabba\Ektomorf\1996 - Hangok\(04) - Hangok.wav

     Peak level 100.0 %
     Track quality 100.0 %
     Test CRC 38B7B54A
     Copy CRC 38B7B54A
     Track not present in AccurateRip database
     Copy OK

Track  5

     Filename D:\dTa\sound\grabba\Ektomorf\1996 - Hangok\(05) - Üvöltõ Félelem.wav

     Peak level 100.0 %
     Track quality 99.9 %
     Test CRC D12E77ED
     Copy CRC D12E77ED
     Track not present in AccurateRip database
     Copy OK

Track  6

     Filename D:\dTa\sound\grabba\Ektomorf\1996 - Hangok\(06) - Kívülrõl Nézve.wav

     Peak level 100.0 %
     Track quality 100.0 %
     Test CRC AA928305
     Copy CRC AA928305
     Track not present in AccurateRip database
     Copy OK

Track  7

     Filename D:\dTa\sound\grabba\Ektomorf\1996 - Hangok\(07) - Jóvátehetetlen.wav

     Peak level 100.0 %
     Track quality 100.0 %
     Test CRC 29AE6E60
     Copy CRC 29AE6E60
     Track not present in AccurateRip database
     Copy OK

Track  8

     Filename D:\dTa\sound\grabba\Ektomorf\1996 - Hangok\(08) - Terror.wav

     Peak level 100.0 %
     Track quality 100.0 %
     Test CRC 99B7C2B5
     Copy CRC 99B7C2B5
     Track not present in AccurateRip database
     Copy OK

Track  9

     Filename D:\dTa\sound\grabba\Ektomorf\1996 - Hangok\(09) - A Romok Alatt.wav

     Peak level 100.0 %
     Track quality 100.0 %
     Test CRC F645CE60
     Copy CRC F645CE60
     Track not present in AccurateRip database
     Copy OK

Track 10

     Filename D:\dTa\sound\grabba\Ektomorf\1996 - Hangok\(10) - Jézus Vár.wav

     Peak level 100.0 %
     Track quality 100.0 %
     Test CRC 52C63F13
     Copy CRC 52C63F13
     Track not present in AccurateRip database
     Copy OK

Track 11

     Filename D:\dTa\sound\grabba\Ektomorf\1996 - Hangok\(11) - Statisztika.wav

     Peak level 100.0 %
     Track quality 100.0 %
     Test CRC A17A2EF5
     Copy CRC A17A2EF5
     Track not present in AccurateRip database
     Copy OK

Track 12

     Filename D:\dTa\sound\grabba\Ektomorf\1996 - Hangok\(12) - Belülrõl.wav

     Peak level 100.0 %
     Track quality 100.0 %
     Test CRC 44D0986B
     Copy CRC 44D0986B
     Track not present in AccurateRip database
     Copy OK

Track 13

     Filename D:\dTa\sound\grabba\Ektomorf\1996 - Hangok\(13) - Ellenállás.wav

     Peak level 100.0 %
     Track quality 100.0 %
     Test CRC C75264D7
     Copy CRC C75264D7
     Track not present in AccurateRip database
     Copy OK

Track 14

     Filename D:\dTa\sound\grabba\Ektomorf\1996 - Hangok\(14) - A Világ Szenved.wav

     Peak level 100.0 %
     Track quality 100.0 %
     Test CRC 2931C0A9
     Copy CRC 2931C0A9
     Track not present in AccurateRip database
     Copy OK

Track 15

     Filename D:\dTa\sound\grabba\Ektomorf\1996 - Hangok\(15) - Háború Szindróma.wav

     Peak level 100.0 %
     Track quality 99.7 %
     Test CRC A029FD1C
     Copy CRC A029FD1C
     Track not present in AccurateRip database
     Copy OK

None of the tracks are present in the AccurateRip database

No errors occurred

End of status report

Код:

REM GENRE Metal
REM DATE 1996
REM DISCID A609C90F
REM COMMENT "ExactAudioCopy v0.99pb5"
FILE "(01) - Nekem Ne Mondd Meg.wav" WAVE
  TRACK 01 AUDIO
    FLAGS DCP
    INDEX 01 00:00:00
FILE "(02) - Shalom.wav" WAVE
  TRACK 02 AUDIO
    FLAGS DCP
    INDEX 01 00:00:00
FILE "(03) - Engedelyezett Gyilkossag.wav" WAVE
  TRACK 03 AUDIO
    FLAGS DCP
    INDEX 01 00:00:00
FILE "(04) - Hangok.wav" WAVE
  TRACK 04 AUDIO
    FLAGS DCP
    INDEX 01 00:00:00
FILE "(05) - Uvolto Felelem.wav" WAVE
  TRACK 05 AUDIO
    FLAGS DCP
    INDEX 01 00:00:00
FILE "(06) - Kivulrol Nezve.wav" WAVE
  TRACK 06 AUDIO
    FLAGS DCP
    INDEX 01 00:00:00
FILE "(07) - Jovatehetetlen.wav" WAVE
  TRACK 07 AUDIO
    FLAGS DCP
    INDEX 01 00:00:00
FILE "(08) - Terror.wav" WAVE
  TRACK 08 AUDIO
    FLAGS DCP
    INDEX 01 00:00:00
FILE "(09) - A Romok Alatt.wav" WAVE
  TRACK 09 AUDIO
    FLAGS DCP
    INDEX 01 00:00:00
FILE "(10) - Jezus Var.wav" WAVE
  TRACK 10 AUDIO
    FLAGS DCP
    INDEX 01 00:00:00
FILE "(11) - Statisztika.wav" WAVE
  TRACK 11 AUDIO
    FLAGS DCP
    INDEX 01 00:00:00
FILE "(12) - Belulrol.wav" WAVE
  TRACK 12 AUDIO
    FLAGS DCP
    INDEX 01 00:00:00
FILE "(13) - Ellenallas.wav" WAVE
  TRACK 13 AUDIO
    FLAGS DCP
    INDEX 01 00:00:00
FILE "(14) - A Vilag Szenved.wav" WAVE
  TRACK 14 AUDIO
    FLAGS DCP
    INDEX 01 00:00:00
FILE "(15) - Haboru Szindroma.wav" WAVE
  TRACK 15 AUDIO
    FLAGS DCP
    INDEX 01 00:00:00
Трэклист:
01. Nem Engedem
02. Vér
03. 393
04. Örök Vesztések
05. Magamért
06. 100 % Gyülölet
07. Fereg
08. Ervágas
09. Ez Vagyok Én
10. Menekülés
11. Eutanazia
12. Egyedül

Код:

Exact Audio Copy V0.99 prebeta 5 from 4. May 2009

EAC extraction logfile from 15. June 2010, 15:34

Ektomorf / Ektomorf

Used drive  : HL-DT-STRW/DVD GCC-4247N   Adapter: 1  ID: 0

Read mode               : Secure
Utilize accurate stream : Yes
Defeat audio cache      : Yes
Make use of C2 pointers : No

Read offset correction                      : 102
Overread into Lead-In and Lead-Out          : No
Fill up missing offset samples with silence : Yes
Delete leading and trailing silent blocks   : No
Null samples used in CRC calculations       : Yes
Used interface                              : Native Win32 interface for Win NT & 2000
Gap handling                                : Appended to previous track

Used output format              : User Defined Encoder
Selected bitrate                : 320 kBit/s
Quality                         : High
Add ID3 tag                     : No
Command line compressor         : C:\Program Files\FLAC\flac.exe
Additional command line options : -V -8 -T "artist=%a" -T "title=%t" -T "album=%g" -T "date=%y" -T "tracknumber=%n" -T "genre=%m" %s

TOC of the extracted CD

     Track |   Start  |  Length  | Start sector | End sector
    ---------------------------------------------------------
        1  |  0:00.00 |  2:52.54 |         0    |    12953
        2  |  2:52.54 |  2:20.07 |     12954    |    23460
        3  |  5:12.61 |  4:21.22 |     23461    |    43057
        4  |  9:34.08 |  4:08.17 |     43058    |    61674
        5  | 13:42.25 |  3:44.20 |     61675    |    78494
        6  | 17:26.45 |  4:00.35 |     78495    |    96529
        7  | 21:27.05 |  1:51.06 |     96530    |   104860
        8  | 23:18.11 |  3:04.36 |    104861    |   118696
        9  | 26:22.47 |  2:18.09 |    118697    |   129055
       10  | 28:40.56 |  2:43.41 |    129056    |   141321
       11  | 31:24.22 |  4:26.28 |    141322    |   161299
       12  | 35:50.50 |  5:18.26 |    161300    |   185175

Track  1

     Filename H:\Ektomorf - 1998 - Ektomorf\01 - Nem Engedem.wav

     Pre-gap length  0:00:02.00

     Peak level 96.6 %
     Track quality 100.0 %
     Test CRC 92ED6603
     Copy CRC 92ED6603
     Track not present in AccurateRip database
     Copy OK

Track  2

     Filename H:\Ektomorf - 1998 - Ektomorf\02 - Ver.wav

     Pre-gap length  0:00:02.60

     Peak level 96.6 %
     Track quality 99.9 %
     Test CRC 7486E903
     Copy CRC 7486E903
     Track not present in AccurateRip database
     Copy OK

Track  3

     Filename H:\Ektomorf - 1998 - Ektomorf\03 - 393.wav

     Pre-gap length  0:00:02.60

     Peak level 96.6 %
     Track quality 100.0 %
     Test CRC 7F0EFC8A
     Copy CRC 7F0EFC8A
     Track not present in AccurateRip database
     Copy OK

Track  4

     Filename H:\Ektomorf - 1998 - Ektomorf\04 - Цrцk Vesztesek.wav

     Peak level 96.6 %
     Track quality 100.0 %
     Test CRC 9AEB2E35
     Copy CRC 9AEB2E35
     Track not present in AccurateRip database
     Copy OK

Track  5

     Filename H:\Ektomorf - 1998 - Ektomorf\05 - Magamert.wav

     Peak level 96.6 %
     Track quality 100.0 %
     Test CRC F945499C
     Copy CRC F945499C
     Track not present in AccurateRip database
     Copy OK

Track  6

     Filename H:\Ektomorf - 1998 - Ektomorf\06 - 100% Gyьlцlet.wav

     Peak level 96.6 %
     Track quality 100.0 %
     Test CRC 96E015D3
     Copy CRC 96E015D3
     Track not present in AccurateRip database
     Copy OK

Track  7

     Filename H:\Ektomorf - 1998 - Ektomorf\07 - Fereg.wav

     Peak level 96.6 %
     Track quality 100.0 %
     Test CRC E41B8D91
     Copy CRC E41B8D91
     Track not present in AccurateRip database
     Copy OK

Track  8

     Filename H:\Ektomorf - 1998 - Ektomorf\08 - Ervagas.wav

     Peak level 96.6 %
     Track quality 100.0 %
     Test CRC FB782D70
     Copy CRC FB782D70
     Track not present in AccurateRip database
     Copy OK

Track  9

     Filename H:\Ektomorf - 1998 - Ektomorf\09 - Ez Vagyok.wav

     Pre-gap length  0:00:01.60

     Peak level 96.6 %
     Track quality 99.9 %
     Test CRC EA09427E
     Copy CRC EA09427E
     Track not present in AccurateRip database
     Copy OK

Track 10

     Filename H:\Ektomorf - 1998 - Ektomorf\10 - Menekьles.wav

     Peak level 96.6 %
     Track quality 100.0 %
     Test CRC B5A9E6FF
     Copy CRC B5A9E6FF
     Track not present in AccurateRip database
     Copy OK

Track 11

     Filename H:\Ektomorf - 1998 - Ektomorf\11 - Eutanzia.wav

     Peak level 96.6 %
     Track quality 100.0 %
     Test CRC 7FA82929
     Copy CRC 7FA82929
     Track not present in AccurateRip database
     Copy OK

Track 12

     Filename H:\Ektomorf - 1998 - Ektomorf\12 - Egyedьl.wav

     Peak level 96.6 %
     Track quality 100.0 %
     Test CRC 78E46BC9
     Copy CRC 78E46BC9
     Track not present in AccurateRip database
     Copy OK

None of the tracks are present in the AccurateRip database

No errors occurred

End of status report

Код:

REM GENRE metal
REM DATE 1998
REM DISCID 9B09A50C
REM COMMENT "ExactAudioCopy v0.99pb5"
PERFORMER "Ektomorf"
TITLE "Ektomorf"
FILE "01 - Nem Engedem.wav" WAVE
  TRACK 01 AUDIO
    TITLE "Nem Engedem"
    PERFORMER "Ektomorf"
    INDEX 01 00:00:00
  TRACK 02 AUDIO
    TITLE "Ver"
    PERFORMER "Ektomorf"
    INDEX 00 02:50:09
FILE "02 - Ver.wav" WAVE
    INDEX 01 00:00:00
  TRACK 03 AUDIO
    TITLE "393"
    PERFORMER "Ektomorf"
    INDEX 00 02:17:37
FILE "03 - 393.wav" WAVE
    INDEX 01 00:00:00
FILE "04 - Orok Vesztesek.wav" WAVE
  TRACK 04 AUDIO
    TITLE "Orok Vesztesek"
    PERFORMER "Ektomorf"
    INDEX 01 00:00:00
FILE "05 - Magamert.wav" WAVE
  TRACK 05 AUDIO
    TITLE "Magamert"
    PERFORMER "Ektomorf"
    INDEX 01 00:00:00
FILE "06 - 100% Gyulolet.wav" WAVE
  TRACK 06 AUDIO
    TITLE "100% Gyulolet"
    PERFORMER "Ektomorf"
    INDEX 01 00:00:00
FILE "07 - Fereg.wav" WAVE
  TRACK 07 AUDIO
    TITLE "Fereg"
    PERFORMER "Ektomorf"
    INDEX 01 00:00:00
FILE "08 - Ervagas.wav" WAVE
  TRACK 08 AUDIO
    TITLE "Ervagas"
    PERFORMER "Ektomorf"
    INDEX 01 00:00:00
  TRACK 09 AUDIO
    TITLE "Ez Vagyok"
    PERFORMER "Ektomorf"
    INDEX 00 03:02:66
FILE "09 - Ez Vagyok.wav" WAVE
    INDEX 01 00:00:00
FILE "10 - Menekules.wav" WAVE
  TRACK 10 AUDIO
    TITLE "Menekules"
    PERFORMER "Ektomorf"
    INDEX 01 00:00:00
FILE "11 - Eutanzia.wav" WAVE
  TRACK 11 AUDIO
    TITLE "Eutanzia"
    PERFORMER "Ektomorf"
    INDEX 01 00:00:00
FILE "12 - Egyedul.wav" WAVE
  TRACK 12 AUDIO
    TITLE "Egyedul"
    PERFORMER "Ektomorf"
    INDEX 01 00:00:00
Трэклист:
01 son of the fire
02 sunto del mulo
03 freely
04 romungro
05 for you
06 for the last time
07 avilem
08 always belive in yourself
09 open up you eyes
10 save my soul
11 the way i do
12 sírok apám sírok
13 brothersong
14 dont't need
15 fly
16 kalyi jag
17 forgotten fire

Код:

Exact Audio Copy V0.99 prebeta 4 from 23. January 2008

EAC Auslese-Logdatei vom 5. Dezember 2008, 18:14

Ektomorf / Kalyi Jag

Benutztes Laufwerk : Optiarc BD ROM BC-5500S   Adapter: 0  ID: 1

Lesemodus                      : Sicher
Benutze Accurate Stream        : Ja
Audio Puffer abgeschaltet      : Ja
Benutze C2 Fehlerinformationen : Nein

Leseoffset Korrektur                           : 48
Ьberlesen in das Lead-In und Lead-Out          : Nein
Fьlle fehlende Offsetsample mit Stille auf     : Ja
Lцsche fьhrende und nachfolgende stille Blцcke : Nein
Null Samples gehen in CRC Berechnungen ein     : Ja
Benutzte Schnittstelle                         : Natьrliche Win32 Schnittstelle fьr Win NT/2000/XP

Benutztes Ausgabeformat            : Benutzerdefinierter Komprimierer
Gewдhlte Bitrate                   : 1024 kBit/s
Qualitдt                           : Hoch
Fьge ID3 Tag hinzu                 : Nein
Kommandozeilen Komprimierer        : C:\Program Files\Exact Audio Copy\Flac\flac.exe

TOC der ausgelesenen CD

     Track |   Start  |   Lдnge  | Startsektor | Endsektor
    -------------------------------------------------------
        1  |  0:00.00 |  4:51.35 |        0    |   21859   
        2  |  4:51.35 |  7:02.31 |    21860    |   53540   
        3  | 11:53.66 |  3:17.34 |    53541    |   68349   
        4  | 15:11.25 |  3:41.19 |    68350    |   84943   
        5  | 18:52.44 |  2:24.25 |    84944    |   95768   
        6  | 21:16.69 |  5:36.41 |    95769    |  121009   
        7  | 26:53.35 |  1:47.22 |   121010    |  129056   
        8  | 28:40.57 |  2:35.52 |   129057    |  140733   
        9  | 31:16.34 |  6:02.34 |   140734    |  167917   
       10  | 37:18.68 |  2:43.16 |   167918    |  180158   
       11  | 40:02.09 |  3:09.38 |   180159    |  194371   
       12  | 43:11.47 |  2:36.33 |   194372    |  206104   
       13  | 45:48.05 |  3:35.19 |   206105    |  222248   
       14  | 49:23.24 |  3:00.72 |   222249    |  235820   
       15  | 52:24.21 |  4:03.36 |   235821    |  254081   
       16  | 56:27.57 |  2:54.03 |   254082    |  267134   
       17  | 59:21.60 |  5:23.38 |   267135    |  291397   

Bereichsstatus und Fehler

Gewдhlter Bereich

     Dateiname D:\Downloads\Ektomorf - Kalyi Jag\Ektomorf - Kalyi Jag.wav

     Spitzenpegel 100.0 %
     Bereichsqualitдt 100.0 %
     Test CRC 1B877EC4
     Kopie CRC 1B877EC4
     Kopie OK

Keine Fehler aufgetreten

 
AccurateRip Ьbersicht
 
Track  1  nicht in Datenbank enthalten
Track  2  nicht in Datenbank enthalten
Track  3  nicht in Datenbank enthalten
Track  4  nicht in Datenbank enthalten
Track  5  nicht in Datenbank enthalten
Track  6  nicht in Datenbank enthalten
Track  7  nicht in Datenbank enthalten
Track  8  nicht in Datenbank enthalten
Track  9  nicht in Datenbank enthalten
Track 10  nicht in Datenbank enthalten
Track 11  nicht in Datenbank enthalten
Track 12  nicht in Datenbank enthalten
Track 13  nicht in Datenbank enthalten
Track 14  nicht in Datenbank enthalten
Track 15  nicht in Datenbank enthalten
Track 16  nicht in Datenbank enthalten
Track 17  nicht in Datenbank enthalten
 
Keiner der Tracks ist in der AccurateRip Datenbank vorhanden

Ende des Statusreports

Код:

REM GENRE "Trash Metal"
REM DATE 2000
REM DISCID F50F2D11
REM COMMENT "ExactAudioCopy v0.99pb4"
PERFORMER "Ektomorf"
TITLE "Kalyi Jag"
FILE "Ektomorf - Kalyi Jag.flac" WAVE
  TRACK 01 AUDIO
    TITLE "Son Of The Fire"
    PERFORMER "Ektomorf"
    INDEX 01 00:00:00
  TRACK 02 AUDIO
    TITLE "Sunto Dйl Mulo"
    PERFORMER "Ektomorf"
    INDEX 01 04:51:35
  TRACK 03 AUDIO
    TITLE "Freely"
    PERFORMER "Ektomorf"
    INDEX 01 11:53:66
  TRACK 04 AUDIO
    TITLE "Romungro"
    PERFORMER "Ektomorf"
    INDEX 01 15:11:25
  TRACK 05 AUDIO
    TITLE "For You"
    PERFORMER "Ektomorf"
    INDEX 01 18:52:44
  TRACK 06 AUDIO
    TITLE "For The Last Time"
    PERFORMER "Ektomorf"
    INDEX 01 21:16:69
  TRACK 07 AUDIO
    TITLE "Avilem"
    PERFORMER "Ektomorf"
    INDEX 01 26:53:35
  TRACK 08 AUDIO
    TITLE "Always Believe In Yourself"
    PERFORMER "Ektomorf"
    INDEX 01 28:40:57
  TRACK 09 AUDIO
    TITLE "Open Up Your Eyes"
    PERFORMER "Ektomorf"
    INDEX 01 31:16:34
  TRACK 10 AUDIO
    TITLE "Save My Soul"
    PERFORMER "Ektomorf"
    INDEX 01 37:18:68
  TRACK 11 AUDIO
    TITLE "The Way I Do"
    PERFORMER "Ektomorf"
    INDEX 01 40:02:09
  TRACK 12 AUDIO
    TITLE "Sнrok Apбm Sнrok"
    PERFORMER "Ektomorf"
    INDEX 01 43:11:47
  TRACK 13 AUDIO
    TITLE "Brothersong"
    PERFORMER "Ektomorf"
    INDEX 01 45:48:05
  TRACK 14 AUDIO
    TITLE "Melodic Bonus"
    PERFORMER "Ektomorf"
    INDEX 01 49:23:24
  TRACK 15 AUDIO
    TITLE "Don't Need"
    PERFORMER "Ektomorf"
    INDEX 01 52:24:21
  TRACK 16 AUDIO
    TITLE "Fly"
    PERFORMER "Ektomorf"
    INDEX 01 56:27:57
  TRACK 17 AUDIO
    TITLE "Kalyi Jag-Forgotten Fire"
    PERFORMER "Ektomorf"
    INDEX 01 59:21:60
Трэклист:
01.I Scream Up To The Sky
02.You Leech
03.Fire
04.I Miss You
05.An Les Devla
06.I'm Free (02:01)
07.A Hard Day's Night
08.If I Weren't
09.Fajdalom Konnyei
10.You Are
11.Scum
12.Serial Men
13.Blood in Blood

Код:

Exact Audio Copy V0.99 prebeta 5 from 4. May 2009

EAC extraction logfile from 11. December 2010, 0:48

Ektomorf / I Scream Up To The Sky

Used drive : Optiarc BD ROM BC-5500S Adapter: 0 ID: 1

Read mode : Secure
Utilize accurate stream : Yes
Defeat audio cache : Yes
Make use of C2 pointers : No

Read offset correction : 48
Overread into Lead-In and Lead-Out : No
Fill up missing offset samples with silence : Yes
Delete leading and trailing silent blocks : No
Null samples used in CRC calculations : Yes
Used interface : Native Win32 interface for Win NT & 2000

Used output format : User Defined Encoder
Selected bitrate : 1024 kBit/s
Quality : High
Add ID3 tag : No
Command line compressor : C:\Program Files\Exact Audio Copy\Flac\flac.exe

TOC of the extracted CD

Track | Start | Length | Start sector | End sector
---------------------------------------------------------
1 | 0:00.00 | 3:36.39 | 0 | 16238
2 | 3:36.39 | 3:22.62 | 16239 | 31450
3 | 6:59.26 | 3:28.04 | 31451 | 47054
4 | 10:27.30 | 2:00.63 | 47055 | 56117
5 | 12:28.18 | 3:16.27 | 56118 | 70844
6 | 15:44.45 | 2:01.11 | 70845 | 79930
7 | 17:45.56 | 3:04.20 | 79931 | 93750
8 | 20:50.01 | 3:21.25 | 93751 | 108850
9 | 24:11.26 | 4:37.01 | 108851 | 129626
10 | 28:48.27 | 2:20.33 | 129627 | 140159
11 | 31:08.60 | 1:52.26 | 140160 | 148585
12 | 33:01.11 | 1:31.70 | 148586 | 155480
13 | 34:33.06 | 11:41.53 | 155481 | 208108

Range status and errors

Selected range

Filename D:\Downloads\Ektomorf\2002-I Scream Up To The Sky\I Scream Up To The Sky(flac)\Ektomorf - I Scream Up To The Sky.wav

Peak level 100.0 %
Range quality 100.0 %
Test CRC E9F5D0AD
Copy CRC E9F5D0AD
Copy OK

No errors occurred

AccurateRip summary

Track 1 accurately ripped (confidence 2) [B800C974]
Track 2 accurately ripped (confidence 2) [7B8E46C8]
Track 3 accurately ripped (confidence 2) [03262000]
Track 4 accurately ripped (confidence 2) [A450EEBB]
Track 5 accurately ripped (confidence 2) [DCAFADB1]
Track 6 accurately ripped (confidence 2) [AD7B03D8]
Track 7 accurately ripped (confidence 2) [6C6EA39E]
Track 8 accurately ripped (confidence 2) [27B7C4F6]
Track 9 accurately ripped (confidence 2) [FC6C48B3]
Track 10 accurately ripped (confidence 2) [45367D1A]
Track 11 accurately ripped (confidence 2) [53C6D4CC]
Track 12 accurately ripped (confidence 2) [CF8D7C33]
Track 13 accurately ripped (confidence 2) [138E9037]

All tracks accurately ripped

End of status report

Код:

PERFORMER "Ektomorf"
TITLE "I Scream Up To The Sky"
FILE "I Scream Up To The Sky.flac" WAVE
  TRACK 01 AUDIO
    TITLE "I Scream Up To The Sky"
    PERFORMER "Ektomorf"
    INDEX 01 00:00:00
  TRACK 02 AUDIO
    TITLE "You Leech"
    PERFORMER "Ektomorf"
    INDEX 01 03:36:39
  TRACK 03 AUDIO
    TITLE "Fire"
    PERFORMER "Ektomorf"
    INDEX 00 06:56:15
    INDEX 01 06:59:26
  TRACK 04 AUDIO
    TITLE "I Miss You"
    PERFORMER "Ektomorf"
    INDEX 01 10:27:30
  TRACK 05 AUDIO
    TITLE "An Les Devla"
    PERFORMER "Ektomorf"
    INDEX 01 12:28:18
  TRACK 06 AUDIO
    TITLE "I'm Free"
    PERFORMER "Ektomorf"
    INDEX 01 15:44:45
  TRACK 07 AUDIO
    TITLE "A Hard Day's Night"
    PERFORMER "Ektomorf"
    INDEX 01 17:45:56
  TRACK 08 AUDIO
    TITLE "If I Weren't"
    PERFORMER "Ektomorf"
    INDEX 01 20:50:01
  TRACK 09 AUDIO
    TITLE "Fajdalom Kцnnyei"
    PERFORMER "Ektomorf"
    INDEX 01 24:11:26
  TRACK 10 AUDIO
    TITLE "You Are"
    PERFORMER "Ektomorf"
    INDEX 01 28:48:27
  TRACK 11 AUDIO
    TITLE "Scum"
    PERFORMER "Ektomorf"
    INDEX 01 31:08:60
  TRACK 12 AUDIO
    TITLE "Serial Men"
    PERFORMER "Ektomorf"
    INDEX 01 33:01:11
  TRACK 13 AUDIO
    TITLE "Blood In Blood"
    PERFORMER "Ektomorf"
    INDEX 01 34:33:06
Трэклист:
01. I Know Them
02. Destroy
03. Gypsy
04. No Compromise
05. Everything
06. From Far Away
07. Painful But True
08. Only God
09. You Are My Shelter
10. A.E.A.
11. From My Heart
12. Tear Apart
13. A Romok Alatt (Bonustrack)
14. Nem Engedem (Bonustrack)
15. Kalyi Jag (Bonustrack)

Код:

Exact Audio Copy V0.99 prebeta 5 from 4. May 2009

EAC extraction logfile from 10. December 2010, 20:17

Ektomorf / Destroy Special Edition

Used drive : Optiarc BD ROM BC-5500S Adapter: 0 ID: 1

Read mode : Secure
Utilize accurate stream : Yes
Defeat audio cache : Yes
Make use of C2 pointers : No

Read offset correction : 48
Overread into Lead-In and Lead-Out : No
Fill up missing offset samples with silence : Yes
Delete leading and trailing silent blocks : No
Null samples used in CRC calculations : Yes
Used interface : Native Win32 interface for Win NT & 2000

Used output format : User Defined Encoder
Selected bitrate : 1024 kBit/s
Quality : High
Add ID3 tag : No
Command line compressor : C:\Program Files\Exact Audio Copy\Flac\flac.exe

TOC of the extracted CD

Track | Start | Length | Start sector | End sector
---------------------------------------------------------
1 | 0:00.00 | 4:38.41 | 0 | 20890
2 | 4:38.41 | 3:49.68 | 20891 | 38133
3 | 8:28.34 | 4:36.70 | 38134 | 58903
4 | 13:05.29 | 2:51.02 | 58904 | 71730
5 | 15:56.31 | 3:08.13 | 71731 | 85843
6 | 19:04.44 | 4:49.72 | 85844 | 107590
7 | 23:54.41 | 5:05.26 | 107591 | 130491
8 | 28:59.67 | 2:34.34 | 130492 | 142075
9 | 31:34.26 | 5:00.07 | 142076 | 164582
10 | 36:34.33 | 5:08.26 | 164583 | 187708
11 | 41:42.59 | 4:17.55 | 187709 | 207038
12 | 46:00.39 | 1:51.73 | 207039 | 215436
13 | 47:52.37 | 3:57.25 | 215437 | 233236
14 | 51:49.62 | 3:44.53 | 233237 | 250089
15 | 55:34.40 | 2:35.70 | 250090 | 261784
16 | 60:42.35 | 5:54.51 | 273185 | 299785

Range status and errors

Selected range

Filename D:\Downloads\Ektomorf\2004-Destroy Special Edition\2004-Destroy Special Edition(flac)\Ektomorf - Destroy Special Edition.wav

Peak level 100.0 %
Range quality 100.0 %
Test CRC C1C33142
Copy CRC C1C33142
Copy OK

No errors occurred

AccurateRip summary

Track 1 accurately ripped (confidence 5) [676F0333]
Track 2 accurately ripped (confidence 5) [60C1CD3F]
Track 3 accurately ripped (confidence 5) [5319B227]
Track 4 accurately ripped (confidence 5) [39A8390A]
Track 5 accurately ripped (confidence 5) [F82A82E7]
Track 6 accurately ripped (confidence 5) [420ED1F1]
Track 7 accurately ripped (confidence 5) [E962ABC6]
Track 8 accurately ripped (confidence 5) [B137BB96]
Track 9 accurately ripped (confidence 5) [983FEB8C]
Track 10 accurately ripped (confidence 5) [C60961FB]
Track 11 accurately ripped (confidence 5) [34872BBD]
Track 12 accurately ripped (confidence 5) [4D665F9F]
Track 13 accurately ripped (confidence 5) [E6033213]
Track 14 accurately ripped (confidence 5) [0CFE59BE]
Track 15 accurately ripped (confidence 5) [1CC1B49F]

All tracks accurately ripped

End of status report

Код:

PERFORMER "Ektomorf"
TITLE "Destroy Special Edition"
FILE "EKTOMORF - Destroy Special Edition.APE" WAVE
  TRACK 01 AUDIO
    TITLE "I Know Them"
    PERFORMER "Ektomorf"
    INDEX 01 00:00:00
  TRACK 02 AUDIO
    TITLE "Destroy"
    PERFORMER "Ektomorf"
    INDEX 01 04:38:41
  TRACK 03 AUDIO
    TITLE "Gypsy"
    PERFORMER "Ektomorf"
    INDEX 01 08:28:34
  TRACK 04 AUDIO
    TITLE "No Compromise"
    PERFORMER "Ektomorf"
    INDEX 01 13:05:29
  TRACK 05 AUDIO
    TITLE "Everything"
    PERFORMER "Ektomorf"
    INDEX 01 15:56:31
  TRACK 06 AUDIO
    TITLE "From Far Away"
    PERFORMER "Ektomorf"
    INDEX 01 19:04:44
  TRACK 07 AUDIO
    TITLE "Painful But True"
    PERFORMER "Ektomorf"
    INDEX 01 23:54:41
  TRACK 08 AUDIO
    TITLE "Only God"
    PERFORMER "Ektomorf"
    INDEX 01 28:59:67
  TRACK 09 AUDIO
    TITLE "You Are My Shelter"
    PERFORMER "Ektomorf"
    INDEX 01 31:34:26
  TRACK 10 AUDIO
    TITLE "A.E.A."
    PERFORMER "Ektomorf"
    INDEX 01 36:34:33
  TRACK 11 AUDIO
    TITLE "From My Heart"
    PERFORMER "Ektomorf"
    INDEX 01 41:42:59
  TRACK 12 AUDIO
    TITLE "Tear Apart"
    PERFORMER "Ektomorf"
    INDEX 01 46:00:39
  TRACK 13 AUDIO
    TITLE "A Romok Alatt (Bonustrack)"
    PERFORMER "Ektomorf"
    INDEX 00 47:49:34
    INDEX 01 47:52:37
  TRACK 14 AUDIO
    TITLE "Nem Engedem (Bonustrack)"
    PERFORMER "Ektomorf"
    INDEX 00 51:48:24
    INDEX 01 51:49:62
  TRACK 15 AUDIO
    TITLE "Kalyi Jag (Bonustrack)"
    PERFORMER "Ektomorf"
    INDEX 00 55:33:15
    INDEX 01 55:34:40
Трэклист:
01. Set Me Free
02. Show Your Fist
03. Instinct
04. Burn
05. The Holy Noise
06. Fuck You All
07. United Nations
08. Land Of Pain
09. I Break You
10. You Get What You Give
11. Until The End
12. I Will

Код:

Exact Audio Copy V0.99 prebeta 5 from 4. May 2009

EAC extraction logfile from 21. December 2010, 21:17

Ektomorf / Instinct

Used drive : Optiarc BD ROM BC-5500S Adapter: 0 ID: 1

Read mode : Secure
Utilize accurate stream : Yes
Defeat audio cache : Yes
Make use of C2 pointers : No

Read offset correction : 48
Overread into Lead-In and Lead-Out : No
Fill up missing offset samples with silence : Yes
Delete leading and trailing silent blocks : No
Null samples used in CRC calculations : Yes
Used interface : Native Win32 interface for Win NT & 2000

Used output format : User Defined Encoder
Selected bitrate : 1024 kBit/s
Quality : High
Add ID3 tag : No
Command line compressor : C:\Program Files\Exact Audio Copy\Flac\flac.exe

TOC of the extracted CD

Track | Start | Length | Start sector | End sector
---------------------------------------------------------
1 | 0:00.00 | 3:10.64 | 0 | 14313
2 | 3:10.64 | 3:28.53 | 14314 | 29966
3 | 6:39.42 | 3:58.68 | 29967 | 47884
4 | 10:38.35 | 4:16.69 | 47885 | 67153
5 | 14:55.29 | 3:41.74 | 67154 | 83802
6 | 18:37.28 | 3:10.19 | 83803 | 98071
7 | 21:47.47 | 5:04.27 | 98072 | 120898
8 | 26:51.74 | 2:12.06 | 120899 | 130804
9 | 29:04.05 | 3:50.48 | 130805 | 148102
10 | 32:54.53 | 2:47.41 | 148103 | 160668
11 | 35:42.19 | 3:55.10 | 160669 | 178303
12 | 39:37.29 | 3:52.29 | 178304 | 195732
13 | 46:01.58 | 16:15.63 | 207133 | 280320

Range status and errors

Selected range

Filename D:\Downloads\Ektomorf\2005-Instinct\Instinct(flac)\Ektomorf - Instinct.wav

Peak level 99.9 %
Range quality 100.0 %
Test CRC 0AC51511
Copy CRC 0AC51511
Copy OK

No errors occurred

AccurateRip summary

Track 1 accurately ripped (confidence 10) [1EADC116]
Track 2 accurately ripped (confidence 10) [EFF19C93]
Track 3 accurately ripped (confidence 10) [3B3FC906]
Track 4 accurately ripped (confidence 10) [497C990C]
Track 5 accurately ripped (confidence 10) [87B5E180]
Track 6 accurately ripped (confidence 10) [B4A4FF47]
Track 7 accurately ripped (confidence 10) [98F705BA]
Track 8 accurately ripped (confidence 10) [9DA91AD2]
Track 9 accurately ripped (confidence 10) [6C060E9C]
Track 10 accurately ripped (confidence 10) [7573E464]
Track 11 accurately ripped (confidence 10) [61515090]
Track 12 accurately ripped (confidence 10) [375E1BF4]

All tracks accurately ripped

End of status report

Код:

REM GENRE "Thrash Metal"
REM DATE 2005
REM DISCID B40E990D
REM COMMENT "ExactAudioCopy v0.99pb5"
PERFORMER "Ektomorf"
TITLE "Instinct"
FILE "Ektomorf - Instinct.flac" WAVE
  TRACK 01 AUDIO
    TITLE "Set me free"
    PERFORMER "Ektomorf"
    INDEX 01 00:00:00
  TRACK 02 AUDIO
    TITLE "Show your fist"
    PERFORMER "Ektomorf"
    INDEX 00 03:08:64
    INDEX 01 03:10:64
  TRACK 03 AUDIO
    TITLE "Instinct"
    PERFORMER "Ektomorf"
    INDEX 00 06:37:42
    INDEX 01 06:39:42
  TRACK 04 AUDIO
    TITLE "Burn"
    PERFORMER "Ektomorf"
    INDEX 00 10:36:35
    INDEX 01 10:38:35
  TRACK 05 AUDIO
    TITLE "The holy noise"
    PERFORMER "Ektomorf"
    INDEX 00 14:53:29
    INDEX 01 14:55:29
  TRACK 06 AUDIO
    TITLE "Fuck you all"
    PERFORMER "Ektomorf"
    INDEX 00 18:35:28
    INDEX 01 18:37:28
  TRACK 07 AUDIO
    TITLE "United Nations"
    PERFORMER "Ektomorf"
    INDEX 00 21:45:47
    INDEX 01 21:47:47
  TRACK 08 AUDIO
    TITLE "Land of pain"
    PERFORMER "Ektomorf"
    INDEX 00 26:49:74
    INDEX 01 26:51:74
  TRACK 09 AUDIO
    TITLE "I break you"
    PERFORMER "Ektomorf"
    INDEX 00 29:02:05
    INDEX 01 29:04:05
  TRACK 10 AUDIO
    TITLE "You get what you give"
    PERFORMER "Ektomorf"
    INDEX 00 32:52:53
    INDEX 01 32:54:53
  TRACK 11 AUDIO
    TITLE "Until the end"
    PERFORMER "Ektomorf"
    INDEX 00 35:40:19
    INDEX 01 35:42:19
  TRACK 12 AUDIO
    TITLE "I will"
    PERFORMER "Ektomorf"
    INDEX 00 39:35:29
    INDEX 01 39:37:29
Трэклист:
01. Outcast
02. I Choke
03. Ambush In The Night
04. I'm Against
05. We Rise
06. Red I
07. Who Can I Trust (Prayer)
08. Leave Me Alone
09. Fuel My Fire (Prodigy cover)
10. I Confront My Enemy
11. Hell Is Here
12. Chamunda
13. Serial Man (taken from rehearsal at Antfarm)
14. Fire (taken from rehearsal at Antfarm)
15. You Leech (taken from rehearsal at Antfarm)

Код:

Exact Audio Copy V0.99 prebeta 5 from 4. May 2009

EAC extraction logfile from 10. December 2010, 19:12

Ektomorf / Outcast

Used drive : Optiarc BD ROM BC-5500S Adapter: 0 ID: 1

Read mode : Secure
Utilize accurate stream : Yes
Defeat audio cache : Yes
Make use of C2 pointers : No

Read offset correction : 48
Overread into Lead-In and Lead-Out : No
Fill up missing offset samples with silence : Yes
Delete leading and trailing silent blocks : No
Null samples used in CRC calculations : Yes
Used interface : Native Win32 interface for Win NT & 2000

Used output format : User Defined Encoder
Selected bitrate : 1024 kBit/s
Quality : High
Add ID3 tag : No
Command line compressor : C:\Program Files\Exact Audio Copy\Flac\flac.exe

TOC of the extracted CD

Track | Start | Length | Start sector | End sector
---------------------------------------------------------
1 | 0:00.00 | 4:07.29 | 0 | 18553
2 | 4:07.29 | 2:24.57 | 18554 | 29410
3 | 6:32.11 | 3:19.72 | 29411 | 44407
4 | 9:52.08 | 3:07.48 | 44408 | 58480
5 | 12:59.56 | 3:03.06 | 58481 | 72211
6 | 16:02.62 | 2:54.38 | 72212 | 85299
7 | 18:57.25 | 4:05.45 | 85300 | 103719
8 | 23:02.70 | 2:43.52 | 103720 | 115996
9 | 25:46.47 | 4:11.53 | 115997 | 134874
10 | 29:58.25 | 3:32.33 | 134875 | 150807
11 | 33:30.58 | 3:12.30 | 150808 | 165237
12 | 36:43.13 | 2:08.16 | 165238 | 174853
13 | 38:51.29 | 1:30.40 | 174854 | 181643
14 | 40:21.69 | 3:04.16 | 181644 | 195459
15 | 43:26.10 | 3:08.47 | 195460 | 209606

Range status and errors

Selected range

Filename D:\Downloads\Ektomorf\2006-Outcast\2006-Outcast(flac)\Ektomorf - Outcast.wav

Peak level 99.9 %
Range quality 100.0 %
Test CRC C56C3288
Copy CRC C56C3288
Copy OK

No errors occurred

AccurateRip summary

Track 1 accurately ripped (confidence 6) [D3297956]
Track 2 accurately ripped (confidence 6) [BCA3D3CB]
Track 3 accurately ripped (confidence 6) [B9C97979]
Track 4 accurately ripped (confidence 6) [DEA671D9]
Track 5 accurately ripped (confidence 6) [9A8300DE]
Track 6 accurately ripped (confidence 6) [2C9AE008]
Track 7 accurately ripped (confidence 6) [743B8822]
Track 8 accurately ripped (confidence 6) [ADB66CB8]
Track 9 accurately ripped (confidence 6) [E941F94C]
Track 10 accurately ripped (confidence 6) [D6994AC9]
Track 11 accurately ripped (confidence 6) [AA3A3D0F]
Track 12 accurately ripped (confidence 6) [4AFFD5AD]
Track 13 accurately ripped (confidence 6) [0ACFA04D]
Track 14 accurately ripped (confidence 6) [3F4116EB]
Track 15 accurately ripped (confidence 6) [C2E8E21E]

All tracks accurately ripped

End of status report

Код:

REM GENRE Metal
REM DATE 2006
REM DISCID C30AEA0F
REM COMMENT "ExactAudioCopy v0.99pb4"
PERFORMER "Ektomorf"
TITLE "Outcast"
FILE "Ektomorf - (2006) Outcast.flac" WAVE
  TRACK 01 AUDIO
    TITLE "Outcast"
    PERFORMER "Ektomorf"
    INDEX 01 00:00:00
  TRACK 02 AUDIO
    TITLE "I Choke"
    PERFORMER "Ektomorf"
    INDEX 01 04:07:29
  TRACK 03 AUDIO
    TITLE "Ambush in the Night"
    PERFORMER "Ektomorf"
    INDEX 01 06:32:11
  TRACK 04 AUDIO
    TITLE "I'm Against"
    PERFORMER "Ektomorf"
    INDEX 01 09:52:08
  TRACK 05 AUDIO
    TITLE "We Rise"
    PERFORMER "Ektomorf"
    INDEX 01 12:59:56
  TRACK 06 AUDIO
    TITLE "Red I"
    PERFORMER "Ektomorf"
    INDEX 01 16:02:62
  TRACK 07 AUDIO
    TITLE "Who can I Trust (Prayer)"
    PERFORMER "Ektomorf"
    INDEX 01 18:57:25
  TRACK 08 AUDIO
    TITLE "Leave Me Alone"
    PERFORMER "Ektomorf"
    INDEX 01 23:02:70
  TRACK 09 AUDIO
    TITLE "Fuel My Fire (Prodigy cover)"
    PERFORMER "Ektomorf"
    INDEX 01 25:46:47
  TRACK 10 AUDIO
    TITLE "I Confront My Enemy"
    PERFORMER "Ektomorf"
    INDEX 01 29:58:25
  TRACK 11 AUDIO
    TITLE "Hell is Here"
    PERFORMER "Ektomorf"
    INDEX 01 33:30:58
  TRACK 12 AUDIO
    TITLE "Chamunda"
    PERFORMER "Ektomorf"
    INDEX 01 36:43:13
  TRACK 13 AUDIO
    TITLE "Serial Man [taken from rehearsal at Antfarm]"
    PERFORMER "Ektomorf"
    INDEX 01 38:51:29
  TRACK 14 AUDIO
    TITLE "Fire [taken from rehearsal at Antfarm]"
    PERFORMER "Ektomorf"
    INDEX 01 40:21:69
  TRACK 15 AUDIO
    TITLE "You Leech [taken from rehearsal at Antfarm] "
    PERFORMER "Ektomorf"
    INDEX 01 43:26:10
Трэклист:
01 rat war
02 nothing left
03 what doesn't kill me...
04 rewenge to all
05 love and live
06 i can see you
07 i got it all
08 new life
09 sick of it all
10 it's up to you
11 envy
12 scream
13 breed the fire
bonus track:
14 born for destruction

Код:

Exact Audio Copy V0.99 prebeta 4 from 23. January 2008

EAC Auslese-Logdatei vom 23. März 2009, 20:19

Ektomorf / What Doesn't Kill Me

Benutztes Laufwerk : Optiarc BD ROM BC-5500S Adapter: 0 ID: 1

Lesemodus : Sicher
Benutze Accurate Stream : Ja
Audio Puffer abgeschaltet : Ja
Benutze C2 Fehlerinformationen : Nein

Leseoffset Korrektur : 48
Überlesen in das Lead-In und Lead-Out : Nein
Fülle fehlende Offsetsample mit Stille auf : Ja
Lösche führende und nachfolgende stille Blöcke : Nein
Null Samples gehen in CRC Berechnungen ein : Ja
Benutzte Schnittstelle : Natürliche Win32 Schnittstelle für Win NT/2000/XP

Benutztes Ausgabeformat : Benutzerdefinierter Komprimierer
Gewählte Bitrate : 1024 kBit/s
Qualität : Hoch
Füge ID3 Tag hinzu : Nein
Kommandozeilen Komprimierer : C:\Program Files\Exact Audio Copy\Flac\flac.exe

TOC der ausgelesenen CD

Track | Start | Länge | Startsektor | Endsektor
-------------------------------------------------------
1 | 0:00.00 | 2:04.43 | 0 | 9342
2 | 2:04.43 | 2:17.70 | 9343 | 19687
3 | 4:22.38 | 2:31.06 | 19688 | 31018
4 | 6:53.44 | 3:12.31 | 31019 | 45449
5 | 10:06.00 | 3:13.48 | 45450 | 59972
6 | 13:19.48 | 3:38.01 | 59973 | 76323
7 | 16:57.49 | 3:02.12 | 76324 | 89985
8 | 19:59.61 | 3:17.16 | 89986 | 104776
9 | 23:17.02 | 3:04.50 | 104777 | 118626
10 | 26:21.52 | 2:54.27 | 118627 | 131703
11 | 29:16.04 | 2:54.34 | 131704 | 144787
12 | 32:10.38 | 3:04.64 | 144788 | 158651
13 | 35:15.27 | 3:03.72 | 158652 | 172448
14 | 38:19.24 | 2:14.45 | 172449 | 182543
15 | 43:05.69 | 20:05.22 | 193944 | 284340

Bereichsstatus und Fehler

Gewählter Bereich

Dateiname D:\Downloads\2009-what doesn't kill me\2009-what doesn't kill me(flac)\Ektomorf - What Doesn't Kill Me.wav

Spitzenpegel 100.0 %
Bereichsqualität 100.0 %
Test CRC 9539D3AC
Kopie CRC 9539D3AC
Kopie OK

Keine Fehler aufgetreten

AccurateRip Übersicht

Track 1 nicht in Datenbank enthalten
Track 2 nicht in Datenbank enthalten
Track 3 nicht in Datenbank enthalten
Track 4 nicht in Datenbank enthalten
Track 5 nicht in Datenbank enthalten
Track 6 nicht in Datenbank enthalten
Track 7 nicht in Datenbank enthalten
Track 8 nicht in Datenbank enthalten
Track 9 nicht in Datenbank enthalten
Track 10 nicht in Datenbank enthalten
Track 11 nicht in Datenbank enthalten
Track 12 nicht in Datenbank enthalten
Track 13 nicht in Datenbank enthalten
Track 14 nicht in Datenbank enthalten

Keiner der Tracks ist in der AccurateRip Datenbank vorhanden

Ende des Statusreports

Код:

REM GENRE "Thrash Metal"
REM DATE 2009
REM DISCID B90ECF0F
REM COMMENT "ExactAudioCopy v0.99pb4"
PERFORMER "Ektomorf"
TITLE "What Doesn't Kill Me"
FILE "Ektomorf - What Doesn't Kill Me.flac" WAVE
  TRACK 01 AUDIO
    TITLE "Rat War"
    PERFORMER "Ektomorf"
    INDEX 01 00:00:00
  TRACK 02 AUDIO
    TITLE "Nothing Left"
    PERFORMER "Ektomorf"
    INDEX 01 02:04:43
  TRACK 03 AUDIO
    TITLE "What Doesn't Kill Me"
    PERFORMER "Ektomorf"
    INDEX 01 04:22:38
  TRACK 04 AUDIO
    TITLE "Revenge To All"
    PERFORMER "Ektomorf"
    INDEX 01 06:53:44
  TRACK 05 AUDIO
    TITLE "Love And Live"
    PERFORMER "Ektomorf"
    INDEX 01 10:06:00
  TRACK 06 AUDIO
    TITLE "I Can See You"
    PERFORMER "Ektomorf"
    INDEX 01 13:19:48
  TRACK 07 AUDIO
    TITLE "I Got It All"
    PERFORMER "Ektomorf"
    INDEX 01 16:57:49
  TRACK 08 AUDIO
    TITLE "New Life"
    PERFORMER "Ektomorf"
    INDEX 01 19:59:61
  TRACK 09 AUDIO
    TITLE "Sick Of It All"
    PERFORMER "Ektomorf"
    INDEX 01 23:17:02
  TRACK 10 AUDIO
    TITLE "It's Up To You"
    PERFORMER "Ektomorf"
    INDEX 01 26:21:52
  TRACK 11 AUDIO
    TITLE "Envy REremix"
    PERFORMER "Ektomorf"
    INDEX 01 29:16:04
  TRACK 12 AUDIO
    TITLE "Scream"
    PERFORMER "Ektomorf"
    INDEX 01 32:10:38
  TRACK 13 AUDIO
    TITLE "Breed The Fire"
    PERFORMER "Ektomorf"
    INDEX 01 35:15:27
  TRACK 14 AUDIO
    TITLE "Born For Destruction"
    PERFORMER "Ektomorf"
    INDEX 01 38:19:24
Трэклист:
01. Last Fight
02. Redemption
03. I’m In Hate
04. God Will Cut You Down
05. Stay Away
06. Never Should
07. Sea Of My Misery
08. The One (feat. Danko Jones)
09. Revolution
10. Cigany
11. Stigmatized
12. Anger

Код:

Exact Audio Copy V0.99 prebeta 5 from 4. May 2009

EAC extraction logfile from 21. December 2010, 20:21

Ektomorf / Redemption

Used drive : Optiarc BD ROM BC-5500S Adapter: 0 ID: 1

Read mode : Secure
Utilize accurate stream : Yes
Defeat audio cache : Yes
Make use of C2 pointers : No

Read offset correction : 48
Overread into Lead-In and Lead-Out : No
Fill up missing offset samples with silence : Yes
Delete leading and trailing silent blocks : No
Null samples used in CRC calculations : Yes
Used interface : Native Win32 interface for Win NT & 2000

Used output format : User Defined Encoder
Selected bitrate : 1024 kBit/s
Quality : High
Add ID3 tag : No
Command line compressor : C:\Program Files\Exact Audio Copy\Flac\flac.exe

TOC of the extracted CD

Track | Start | Length | Start sector | End sector
---------------------------------------------------------
1 | 0:00.00 | 4:16.58 | 0 | 19257
2 | 4:16.58 | 2:51.19 | 19258 | 32101
3 | 7:08.02 | 3:25.03 | 32102 | 47479
4 | 10:33.05 | 3:04.70 | 47480 | 61349
5 | 13:38.00 | 2:25.45 | 61350 | 72269
6 | 16:03.45 | 4:21.14 | 72270 | 91858
7 | 20:24.59 | 2:12.49 | 91859 | 101807
8 | 22:37.33 | 3:40.06 | 101808 | 118313
9 | 26:17.39 | 3:48.47 | 118314 | 135460
10 | 30:06.11 | 2:59.64 | 135461 | 148949
11 | 33:06.00 | 3:08.64 | 148950 | 163113
12 | 36:14.64 | 4:38.67 | 163114 | 184030
13 | 40:53.56 | 3:28.27 | 184031 | 199657
14 | 46:54.08 | 14:31.33 | 211058 | 276415

Range status and errors

Selected range

Filename D:\Downloads\Ektomorf\2010-Redemption\Redemption(flac)\Ektomorf - Redemption.wav

Peak level 98.8 %
Range quality 100.0 %
Test CRC 497CAC61
Copy CRC 497CAC61
Copy OK

No errors occurred

AccurateRip summary

Track 1 not present in database
Track 2 not present in database
Track 3 not present in database
Track 4 not present in database
Track 5 not present in database
Track 6 not present in database
Track 7 not present in database
Track 8 not present in database
Track 9 not present in database
Track 10 not present in database
Track 11 not present in database
Track 12 not present in database
Track 13 not present in database

None of the tracks are present in the AccurateRip database

End of status report

Код:

REM GENRE "Thrash Metal"
REM DATE 2010
REM DISCID D30E650E
REM COMMENT "ExactAudioCopy v0.99pb5"
PERFORMER "Ektomorf"
TITLE "Redemption"
FILE "Ektomorf - Redemption.flac" WAVE
  TRACK 01 AUDIO
    TITLE "Last Fight"
    PERFORMER "Ektomorf"
    INDEX 01 00:00:00
  TRACK 02 AUDIO
    TITLE "Redemption"
    PERFORMER "Ektomorf"
    INDEX 01 04:16:58
  TRACK 03 AUDIO
    TITLE "I'm In Hate"
    PERFORMER "Ektomorf"
    INDEX 01 07:08:02
  TRACK 04 AUDIO
    TITLE "God Will Cut You Down"
    PERFORMER "Ektomorf"
    INDEX 01 10:33:05
  TRACK 05 AUDIO
    TITLE "Stay Away"
    PERFORMER "Ektomorf"
    INDEX 01 13:38:00
  TRACK 06 AUDIO
    TITLE "Never Should"
    PERFORMER "Ektomorf"
    INDEX 01 16:03:45
  TRACK 07 AUDIO
    TITLE "Sea Of My Misery"
    PERFORMER "Ektomorf"
    INDEX 01 20:24:59
  TRACK 08 AUDIO
    TITLE "The One"
    PERFORMER "Ektomorf"
    INDEX 01 22:37:33
  TRACK 09 AUDIO
    TITLE "Revolution"
    PERFORMER "Ektomorf"
    INDEX 00 26:16:58
    INDEX 01 26:17:39
  TRACK 10 AUDIO
    TITLE "Kill Me Now"
    PERFORMER "Ektomorf"
    INDEX 01 30:06:11
  TRACK 11 AUDIO
    TITLE "Cigany"
    PERFORMER "Ektomorf"
    INDEX 01 33:06:00
  TRACK 12 AUDIO
    TITLE "Stigmatized"
    PERFORMER "Ektomorf"
    INDEX 01 36:14:64
  TRACK 13 AUDIO
    TITLE "Anger"
    PERFORMER "Ektomorf"
    INDEX 01 40:53:56


info [Профиль]  [ЛС] 

post 31-Янв-2012 01:01 (спустя 2 дня 6 часов) [-]0[+]

Топик был перенесен из форума Оформление раздач в форум Mеtаl (losslеss)

The Buzzhorn
 

Loss of Reason

Пол: Пол:Муж

Стаж: 7 лет 8 месяцев

Сообщений: 227

Россия
Рейтинг

post 02-Фев-2012 19:18 (спустя 5 дней) [-]0[+]

[Цитировать] 

Послушал, не плохо. Ритм секция качёвая =) Рок!
Спасибо)
Послушал весь альбом, это нечто =D

_________________
info [Профиль]  [ЛС] 

The Buzzhorn

Пол: Пол:Муж

Стаж: 6 лет 1 месяц

Сообщений: 901

Германия
Рейтинг

post 02-Фев-2012 19:52 (спустя 34 минуты) [-]0[+]

[Цитировать] 

Loss of Reason
Не за что Улыбаюсь
Ознакомьтесь обязательно с Instinct, What Doesn't Kill Me... и Outkast: как по мне, то это лучшие их творения.
info [Профиль]  [ЛС] 

AnDran1k

Пол: Пол:Муж

Стаж: 6 лет

Сообщений: 9

Россия
Рейтинг

post 13-Сен-2012 09:21 (спустя 7 месяцев 10 дней) [-]0[+]

[Цитировать] 

встаньте кто-нибудь на раздачу, позяяяяязяяяя
info [Профиль]  [ЛС] 

The Buzzhorn

Пол: Пол:Муж

Стаж: 6 лет 1 месяц

Сообщений: 901

Германия
Рейтинг

post 13-Сен-2012 14:26 (спустя 5 часов) [-]0[+]

[Цитировать] 

AnDran1k

Цитата:

Сидов: [ 1 | 0 KB/s ]
info [Профиль]  [ЛС] 
Показать сообщения:    
Ответить на тему

Текущее время: 02-Дек 22:05

Часовой пояс: GMT + 4



Вы не можете начинать темы
Вы не можете отвечать на сообщения
Вы не можете редактировать свои сообщения
Вы не можете удалять свои сообщения
Вы не можете голосовать в опросах
Вы не можете прикреплять файлы к сообщениям
Вы не можете скачивать файлы