Ошибка

BBC. Наблюдая звёзды / BBC. Seeing Stars (BBC Horizon) [2011, Документальный, научно-популярный, HDTVRip 720p] VO

Ответить на тему
 
Автор Сообщение

rimo

Пол: Пол:Муж

Стаж: 5 лет 4 месяца

Сообщений: 1752

Украина
Рейтинг

post 16-Янв-2012 02:55 2[+]

[Цитировать] 

BBC. Наблюдая звёзды / BBC. Seeing Stars


Год выпуска: 2011
Страна:
Жанр: Документальный, научно-популярный
Телекананл:
Продолжительность: 00:59:10
Перевод: Любительский (одноголосый)
Субтитры:Отсутствуют
Режиссер:
В ролях:
  • ученые

Описание: По всему миру новое поколение астрономов следит за самыми загадочными явлениями вселенной. Юные звёзды, чёрные дыры и даже экзопланеты. Взгляд на новое создаёт толчки к появлению более совершенной астрономической техники - супертелескопам, что прольют свет на историю небес.
(kolob_200) Конопля: вредная трава?
(kolob_200) Что было до Большого взрыва
(kolob_200) Теория Всего от Athene's
(kolob_200) Бесконечная бесконечность
Качество: HDTVRip
Формат: MKV
Видео кодек: H.264
Аудио кодек: AC3
Видео: 1280x720 (16:9), 25.000 fps, AVC (H264), (High@L4.1), 4000 Kbps avg, ~ 0.174 bit/pixel
Аудио: 48 kHz, AC3 Dolby Digital, 2/0 (L,R) ch, ~192 kbps
General
Unique ID : 183213044881464830948381030343881279705 (0x89D58C86EF936E37B0B4C23718C048D9)
Complete name : H:\seeing_stars.mkv
Format : Matroska
File size : 1.73 GiB
Duration : 59mn 10s
Overall bit rate : 4 193 Kbps
Encoded date : UTC 2011-12-01 21:54:50
Writing application : mkvmerge v2.9.7 ('Tenderness') built on Jul 1 2009 18:43:35
Writing library : libebml v0.7.7 + libmatroska v0.8.1

Video
ID : 1
Format : AVC
Format/Info : Advanced Video Codec
Format profile : High@L4.1
Format settings, CABAC : Yes
Format settings, ReFrames : 6 frames
Codec ID : V_MPEG4/ISO/AVC
Duration : 59mn 10s
Bit rate : 4 000 Kbps
Width : 1 280 pixels
Height : 720 pixels
Display aspect ratio : 16:9
Frame rate : 25.000 fps
Color space : YUV
Chroma subsampling : 4:2:0
Bit depth : 8 bits
Scan type : Progressive
Bits/(Pixel*Frame) : 0.174
Stream size : 1.62 GiB (93%)
Writing library : x264 core 116 r2057 0ba8a9c
Encoding settings : cabac=1 / ref=6 / deblock=1:0:0 / analyse=0x3:0x113 / me=umh / subme=9 / psy=1 / psy_rd=1.00:0.00 / mixed_ref=1 / me_range=24 / chroma_me=1 / trellis=1 / 8x8dct=1 / cqm=0 / deadzone=21,11 / fast_pskip=0 / chroma_qp_offset=-2 / threads=3 / sliced_threads=0 / nr=0 / decimate=1 / interlaced=0 / bluray_compat=0 / constrained_intra=0 / bframes=3 / b_pyramid=2 / b_adapt=1 / b_bias=0 / direct=1 / weightb=1 / open_gop=0 / weightp=2 / keyint=125 / keyint_min=25 / scenecut=40 / intra_refresh=0 / rc_lookahead=40 / rc=2pass / mbtree=1 / bitrate=4000 / ratetol=1.0 / qcomp=0.60 / qpmin=0 / qpmax=69 / qpstep=4 / cplxblur=20.0 / qblur=0.5 / ip_ratio=1.40 / aq=1:1.00
Language : English

Audio
ID : 2
Format : AC-3
Format/Info : Audio Coding 3
Mode extension : CM (complete main)
Codec ID : A_AC3
Duration : 59mn 10s
Bit rate mode : Constant
Bit rate : 192 Kbps
Channel(s) : 2 channels
Channel positions : Front: L R
Sampling rate : 48.0 KHz
Bit depth : 16 bits
Compression mode : Lossy
Stream size : 81.3 MiB (5%)
Title : VO Mona Lisa
Language : Russian
info [Профиль]  [ЛС] 

rimo

Пол: Пол:Муж

Стаж: 5 лет 4 месяца

Сообщений: 1752

Украина
Рейтинг

post 16-Янв-2012 03:02 (спустя 6 минут) [-]0[+]

[Цитировать] 

Перевод на 4+. Очень интересная серия фильмов.
info [Профиль]  [ЛС] 

максим174

Пол: Пол:Муж

Стаж: 6 лет 8 месяцев

Сообщений: 29

Предупреждений: 1

Буркина Фасо
Рейтинг

post 16-Янв-2012 16:19 (спустя 13 часов) [-]1[+]

[Цитировать] 

спасибо как всегда интересный релиз

_________________
info [Профиль]  [ЛС] 

rimo

Пол: Пол:Муж

Стаж: 5 лет 4 месяца

Сообщений: 1752

Украина
Рейтинг

post 16-Янв-2012 16:21 (спустя 2 минуты) [-]0[+]

[Цитировать] 

максим174 Интересного просмотра Улыбаюсь
info [Профиль]  [ЛС] 

Gambit79

Пол: Пол:Муж

Стаж: 6 лет 11 месяцев

Сообщений: 29

Россия
Рейтинг

post 16-Янв-2012 17:33 (спустя 1 час 12 минут) [-]0[+]

[Цитировать] 

обожаю фильмы про космос
info [Профиль]  [ЛС] 

WrexX

Пол: Пол:Муж

Стаж: 6 лет 8 месяцев

Сообщений: 17

Рейтинг

post 16-Янв-2012 19:20 (спустя 1 час 47 минут) [-]0[+]

[Цитировать] 

Благодарю! Подмигиваю

_________________
info [Профиль]  [ЛС] 

Maksimenych

Пол: Пол:Муж

Стаж: 7 лет

Сообщений: 28

Россия
Рейтинг

post 16-Янв-2012 19:29 (спустя 9 минут) [-]0[+]

[Цитировать] 

очень не плохо)
info [Профиль]  [ЛС] 

rimo

Пол: Пол:Муж

Стаж: 5 лет 4 месяца

Сообщений: 1752

Украина
Рейтинг

post 16-Янв-2012 20:06 (спустя 36 минут) [-]0[+]

[Цитировать] 

WrexX Приятного просмотра Улыбаюсь
info [Профиль]  [ЛС] 

Поджог Сараев

Пол: Пол:Муж

Стаж: 6 лет 5 месяцев

Сообщений: 4025

Предупреждений: 3

Французская Гвиана
Рейтинг

post 16-Янв-2012 21:41 (спустя 1 час 35 минут) [-]1[+]

[Цитировать] 

rimo писал(а):

Очень интересная серия фильмов.
Сам люблю такие познавательные фильмы.... Как можно отуплятца и смотреть тратить время на всяких Покемонов с треугольными сисьгами и маленькими противными ртами, зарабатывая коллективную язву мозга, когда есть такие классные фильмы от которых и впечатления приятные и знаний в голове прибавляется не на шутку...

И это хорошо!

Цитата:

Взгляд на новое создаёт толчки к появлению более совершенной астроноической техники-супертелескопам
Я вот не знаю, есть ли в этом фильме про наш супергигантский радиотелескоп, который наши втихушку заканчивают строить с 86-ого года и скоро запускают...

Он в миллион раз по угловому увеличению мощнее Хаббарда американского, то что Хаббард видит вдалеке звезду как едва различимую точку, наш видит как Мяч.

Чаша нашего состоит из многих точек расположенных повсюду на земле и на спутниках в Космосе...
Технология там применена совсем другая. Я как по Россия 24 пердачу про него посмотрел, опух...во наши тихони учёные дают!!!
info [Профиль]  [ЛС] 

rimo

Пол: Пол:Муж

Стаж: 5 лет 4 месяца

Сообщений: 1752

Украина
Рейтинг

post 16-Янв-2012 21:50 (спустя 8 минут) [-]0[+]

[Цитировать] 

Поджог Сараев УПС kolob_107

Спасибо!
info [Профиль]  [ЛС] 
Показать сообщения:    
Ответить на тему

Текущее время: 03-Дек 10:52

Часовой пояс: GMT + 4



Вы не можете начинать темы
Вы не можете отвечать на сообщения
Вы не можете редактировать свои сообщения
Вы не можете удалять свои сообщения
Вы не можете голосовать в опросах
Вы не можете прикреплять файлы к сообщениям
Вы не можете скачивать файлы