Ошибка

Молчание / Tystnaden (Ингмар Бергман) [1963 г., Драма, DVDRip]

Ответить на тему
 
Автор Сообщение

Mephi1000fel

Пол: Пол:Муж

Стаж: 5 лет 2 месяца

Сообщений: 286

СССР
Рейтинг

post 11-Янв-2012 22:42 0[+]

[Цитировать] 

Молчание / Tystnaden



Год выпуска: 1963
Страна: Швеция
Жанр: Драма
Продолжительность: 1:35:38
Перевод: Профессиональный (многоголосый, закадровый)
Язык субтитров: русский
Режиссер:
  • Ингмар Бергман
В ролях:
  • Ингрид Тулин
  • Гуннила Линдблюм
  • Биргер Мальмстен
  • Хокан Янберг
  • Йорген Линдстром

Описание: В основе фильма лежит столкновение между нашими идеями и реальной жизнью... Идея "Молчания", как и "Причастия", связана с музыкальным произведением, а именно с концертом для оркестра Бартока. Первоначальная мысль была сделать фильм по законам музыки, а не драматургии. Фильм с ассоциативным ритмическим воздействием, с главным и побочными мотивами. Единственное, что осталось от Бартока в этом фильме, - начало с его глухим низким тоном и внезапным взрывом!.. И потом меня всегда завораживал незнакомый город... Первоначально я хотел сделать главными персонажами двух мужчин - старого и молодого... Но потом я вдруг увидел в Ингрид Тулин и Гуннель Линдблум интересный контраст двух мощных полюсов. А катализатором послужил... маленький мальчик... Юхан - центральная фигура, потому что обе героини проявляют по отношению к нему свои лучшие качества... При всей своей убогости Эстер для меня - квинтэссенция чего-то неистребимо человеческого... Они (сестры) уже больше не могут разговаривать друг с другом... Когда вышел фильм... я получил анонимное письмо с обрывком использованной туалетной бумаги. Так что этот с точки зрения сегодняшнего дня невинный фильм был принят в штыки.

Доп. информация: Имеется 2 звуковые дорожки - оригинальная шведская и русская, плюс внешние русские субтитры
Качество: DVDRip
Формат: AVI
Видео кодек: XviD
Аудио кодек: AC3
Видео: 720x544 (1.32:1), 23.976 fps, XviD build 47 ~1654 kbps avg, 0.18 bit/pixel
Аудио #1: 48 kHz, AC3 Dolby Digital, 1/0 (C) ch, ~192.00 kbps avg
Аудио #2: 48 kHz, AC3 Dolby Digital, 2/0 (L,R) ch, ~192.00 kbps avg

Код:

Формат                           : AVI
Формат/Информация                : Audio Video Interleave
Размер файла                     : 1,37 Гбайт
Продолжительность                : 1 ч. 35 м.
Общий поток                      : 2047 Кбит/сек
Программа кодирования            : VirtualDubMod 1.5.4.1 (build 2178/release)
Библиотека кодирования           : VirtualDubMod build 2178/release

Видео
Идентификатор                    : 0
Формат                           : MPEG-4 Visual
Профиль формата                  : Advanced Simple@L5
Параметр BVOP формата            : 1
Параметр QPel формата            : Нет
Параметр GMC формата             : Без точки перехода
Параметр матрицы формата         : Выборочная
Идентификатор кодека             : XVID
Идентификатор кодека/Подсказка   : XviD
Продолжительность                : 1 ч. 35 м.
Битрейт                          : 1655 Кбит/сек
Ширина                           : 720 пикселей
Высота                           : 544 пикселя
Соотношение сторон               : 4:3
Частота кадров                   : 23,976 кадра/сек
Цветовое пространство            : YUV
Субдискретизация насыщенности    : 4:2:0
Битовая глубина                  : 8 бит
Тип развёртки                    : Прогрессивная
Метод сжатия                     : С потерями
Бит/(Пиксели*Кадры)              : 0.176
Размер потока                    : 1,11 Гбайт (81%)
Библиотека кодирования           : XviD 1.2.0.dev47 (UTC 2006-11-01)

Аудио #1
Идентификатор                    : 1
Формат                           : AC-3
Формат/Информация                : Audio Coding 3
Расширение режима                : CM (complete main)
Идентификатор кодека             : 2000
Продолжительность                : 1 ч. 35 м.
Вид битрейта                     : Постоянный
Битрейт                          : 192 Кбит/сек
Каналы                           : 1 канал
Расположение каналов             : Front: C
Частота                          : 48,0 КГц
Битовая глубина                  : 16 бит
Метод сжатия                     : С потерями
Размер потока                    : 131 Мбайт (9%)
Выравнивание                     : Разделение по промежуткам
Продолжительность промежутка     : 96  мс. (2,30 видеокадра)
Время предзагрузки промежутка    : 96  мс.
Язык                             : Swedish

Аудио #2
Идентификатор                    : 2
Формат                           : AC-3
Формат/Информация                : Audio Coding 3
Расширение режима                : CM (complete main)
Идентификатор кодека             : 2000
Продолжительность                : 1 ч. 35 м.
Вид битрейта                     : Постоянный
Битрейт                          : 192 Кбит/сек
Каналы                           : 2 канала
Расположение каналов             : Front: L R
Частота                          : 48,0 КГц
Битовая глубина                  : 16 бит
Метод сжатия                     : С потерями
Размер потока                    : 131 Мбайт (9%)
Выравнивание                     : Разделение по промежуткам
Продолжительность промежутка     : 96  мс. (2,30 видеокадра)
Время предзагрузки промежутка    : 96  мс.
Язык                             : Russian

info [Профиль]  [ЛС] 

Dostine

Пол: Пол:Муж

Стаж: 6 лет 7 месяцев

Сообщений: 13

СССР
Рейтинг

post 12-Янв-2012 19:22 (спустя 20 часов) [-]0[+]

[Цитировать] 

моя любимая женщина тулин
info [Профиль]  [ЛС] 
Показать сообщения:    
Ответить на тему

Текущее время: 06-Дек 16:12

Часовой пояс: GMT + 4



Вы не можете начинать темы
Вы не можете отвечать на сообщения
Вы не можете редактировать свои сообщения
Вы не можете удалять свои сообщения
Вы не можете голосовать в опросах
Вы не можете прикреплять файлы к сообщениям
Вы не можете скачивать файлы