Ошибка

(Old School Californian Punk Rock) Social Distortion - 6 альбомов - 1983-2004, FLAC (tracks+.cue), lossless

Ответить на тему
 
Автор Сообщение

The Royal

Пол: Пол:Муж

Стаж: 7 лет 3 месяца

Сообщений: 659

Россия
Рейтинг

post 07-Янв-2012 17:28 0[+]

[Цитировать] 

Social Distortion

Жанр: Old School Californian Punk Rock
Происхождение исполнителя: Фуллертон, Калифорния, США
Год: 1983-2004
Тип релиза: tracks+.cue
Аудио кодек: FLAC
Битрейт аудио: lossless
Продолжительность: 04:03:49
Полиграфия: отсутствует
Треклист:
01. The Creeps (2:03)
02. Another State Of Mind (2:38)
03. It Wasn't A Pretty Picture (3:11)
04. Telling Them (3:11)
05. Hour Of Darkness (2:46)
06. Mommy's Little Monster (3:36)
07. Anti-Fashion (2:19)
08. All The Answers (2:22)
09. Moral Threat (5:16)
10. Under My Thumb (1:59)
11. Playpen (2:57)
EAC extraction logfile from 20. February 2007, 22:37 for CD 
Social Distortion / Mommy's Little Monster

Used drive : HL-DT-STCD-ROM GCR-8483B Adapter: 0 ID: 0
Read mode : Secure with NO C2, accurate stream, disable cache
Read offset correction : -24
Overread into Lead-In and Lead-Out : No

Used output format : C:\Program Files\Exact Audio Copy\bin\flac.exe (User Defined Encoder)
320 kBit/s
Additional command line options : -V -8 -T "artist=%a" -T "title=%t" -T "album=%g" -T "date=%y" -T "tracknumber=%n" -T "genre=%m" %s

Other options :
Fill up missing offset samples with silence : Yes
Delete leading and trailing silent blocks : No
Installed external ASPI interface

Track 1
Filename C:\Documents and Settings\Charles\My Documents\My Music\New Rips\Social Distortion-1983-Mommy's Little Monster FLAC\01 The Creeps.wav

Pre-gap length 0:00:02.37

Peak level 87.7 %
Track quality 99.9 %
Copy CRC 03111FC6
Copy OK

Track 2
Filename C:\Documents and Settings\Charles\My Documents\My Music\New Rips\Social Distortion-1983-Mommy's Little Monster FLAC\02 Another State Of Mind.wav

Peak level 86.5 %
Track quality 100.0 %
Copy CRC A0B8DEAE
Copy OK

Track 3
Filename C:\Documents and Settings\Charles\My Documents\My Music\New Rips\Social Distortion-1983-Mommy's Little Monster FLAC\03 It Wasn't A Pretty Picture.wav

Peak level 76.8 %
Track quality 99.9 %
Copy CRC A8D0AEC2
Copy OK

Track 4
Filename C:\Documents and Settings\Charles\My Documents\My Music\New Rips\Social Distortion-1983-Mommy's Little Monster FLAC\04 Telling Them.wav

Peak level 82.2 %
Track quality 100.0 %
Copy CRC 84A97560
Copy OK

Track 5
Filename C:\Documents and Settings\Charles\My Documents\My Music\New Rips\Social Distortion-1983-Mommy's Little Monster FLAC\05 Hour Of Darkness.wav

Peak level 79.4 %
Track quality 100.0 %
Copy CRC 0D46FF17
Copy OK

Track 6
Filename C:\Documents and Settings\Charles\My Documents\My Music\New Rips\Social Distortion-1983-Mommy's Little Monster FLAC\06 Mommy's Little Monster.wav

Peak level 86.5 %
Track quality 100.0 %
Copy CRC B030CE80
Copy OK

Track 7
Filename C:\Documents and Settings\Charles\My Documents\My Music\New Rips\Social Distortion-1983-Mommy's Little Monster FLAC\07 Anti-Fashion.wav

Peak level 77.6 %
Track quality 100.0 %
Copy CRC 7F0E99CB
Copy OK

Track 8
Filename C:\Documents and Settings\Charles\My Documents\My Music\New Rips\Social Distortion-1983-Mommy's Little Monster FLAC\08 All The Answers.wav

Peak level 85.3 %
Track quality 100.0 %
Copy CRC 8A25582D
Copy OK

Track 9
Filename C:\Documents and Settings\Charles\My Documents\My Music\New Rips\Social Distortion-1983-Mommy's Little Monster FLAC\09 Moral Threat.wav

Peak level 76.1 %
Track quality 99.9 %
Copy CRC E905A78F
Copy OK

Track 10
Filename C:\Documents and Settings\Charles\My Documents\My Music\New Rips\Social Distortion-1983-Mommy's Little Monster FLAC\10 Under My Thumb.wav

Peak level 85.0 %
Track quality 100.0 %
Copy CRC 5746C99F
Copy OK

Track 11
Filename C:\Documents and Settings\Charles\My Documents\My Music\New Rips\Social Distortion-1983-Mommy's Little Monster FLAC\11 Playpen.wav

Peak level 80.2 %
Track quality 99.9 %
Copy CRC A2946B88
Copy OK

No errors occured

End of status report
REM GENRE Punk 
REM DATE 1983
REM DISCID 8207910B
REM COMMENT "ExactAudioCopy v0.95b4"
CATALOG 1101000015003
PERFORMER "Social Distortion"
TITLE "Mommy's Little Monster"
FILE "01 The Creeps.wav" WAVE
TRACK 01 AUDIO
TITLE "The Creeps"
PERFORMER "Social Distortion"
PREGAP 00:00:37
INDEX 01 00:00:00
FILE "02 Another State Of Mind.wav" WAVE
TRACK 02 AUDIO
TITLE "Another State Of Mind"
PERFORMER "Social Distortion"
INDEX 01 00:00:00
FILE "03 It Wasn't A Pretty Picture.wav" WAVE
TRACK 03 AUDIO
TITLE "It Wasn't A Pretty Picture"
PERFORMER "Social Distortion"
INDEX 01 00:00:00
FILE "04 Telling Them.wav" WAVE
TRACK 04 AUDIO
TITLE "Telling Them"
PERFORMER "Social Distortion"
INDEX 01 00:00:00
FILE "05 Hour Of Darkness.wav" WAVE
TRACK 05 AUDIO
TITLE "Hour Of Darkness"
PERFORMER "Social Distortion"
INDEX 01 00:00:00
FILE "06 Mommy's Little Monster.wav" WAVE
TRACK 06 AUDIO
TITLE "Mommy's Little Monster"
PERFORMER "Social Distortion"
INDEX 01 00:00:00
FILE "07 Anti-Fashion.wav" WAVE
TRACK 07 AUDIO
TITLE "Anti-Fashion"
PERFORMER "Social Distortion"
INDEX 01 00:00:00
FILE "08 All The Answers.wav" WAVE
TRACK 08 AUDIO
TITLE "All The Answers"
PERFORMER "Social Distortion"
INDEX 01 00:00:00
FILE "09 Moral Threat.wav" WAVE
TRACK 09 AUDIO
TITLE "Moral Threat"
PERFORMER "Social Distortion"
INDEX 01 00:00:00
FILE "10 Under My Thumb.wav" WAVE
TRACK 10 AUDIO
TITLE "Under My Thumb"
PERFORMER "Social Distortion"
INDEX 01 00:00:00
FILE "11 Playpen.wav" WAVE
TRACK 11 AUDIO
TITLE "Playpen"
PERFORMER "Social Distortion"
INDEX 01 00:00:00
01. It's The Law (2:38)
02. Indulgence (4:35)
03. Like An Outlaw (For You) (5:22)
04. Backstreet Girl (4:23)
05. Prison Bound (5:25)
06. No Pain No Gain (3:43)
07. On My Nerves (4:24)
08. I Want What I Want (3:02)
09. Lawless (3:21)
10. Lost Child (4:19)
EAC extraction logfile from 2. March 2007, 14:18 for CD 
Social Distortion / Prison Bound

Used drive : BENQ DVD DD DW1640 Adapter: 0 ID: 0
Read mode : Secure with NO C2, accurate stream, disable cache
Read offset correction : 618
Overread into Lead-In and Lead-Out : No

Used output format : C:\Program Files\FLAC\flac.exe (User Defined Encoder)
128 kBit/s
Additional command line options : -V -8 -T "artist=%a" -T "title=%t" -T "album=%g" -T "date=%y" -T "tracknumber=%n" -T "genre=%m" %s

Other options :
Fill up missing offset samples with silence : Yes
Delete leading and trailing silent blocks : No
Native Win32 interface for Win NT & 2000

Track 1
Filename C:\Documents and Settings\Glyn\Desktop\Social Distortion - Prison Bound\01 - It's The Law.wav

Pre-gap length 0:00:02.42

Peak level 99.9 %
Track quality 99.9 %
Test CRC 759060BC
Copy CRC 759060BC
Copy OK

Track 2
Filename C:\Documents and Settings\Glyn\Desktop\Social Distortion - Prison Bound\02 - Indulgence.wav

Peak level 99.9 %
Track quality 100.0 %
Test CRC 01797931
Copy CRC 01797931
Copy OK

Track 3
Filename C:\Documents and Settings\Glyn\Desktop\Social Distortion - Prison Bound\03 - Like An Outlaw (For You).wav

Peak level 99.8 %
Track quality 100.0 %
Test CRC 68319F2D
Copy CRC 68319F2D
Copy OK

Track 4
Filename C:\Documents and Settings\Glyn\Desktop\Social Distortion - Prison Bound\04 - Backstreet Girl.wav

Peak level 99.9 %
Track quality 100.0 %
Test CRC CE04F269
Copy CRC CE04F269
Copy OK

Track 5
Filename C:\Documents and Settings\Glyn\Desktop\Social Distortion - Prison Bound\05 - Prison Bound.wav

Peak level 99.9 %
Track quality 100.0 %
Test CRC 6C2DD983
Copy CRC 6C2DD983
Copy OK

Track 6
Filename C:\Documents and Settings\Glyn\Desktop\Social Distortion - Prison Bound\06 - No Pain No Gain.wav

Pre-gap length 0:00:01.49

Peak level 99.9 %
Track quality 100.0 %
Test CRC DD7A9AF9
Copy CRC DD7A9AF9
Copy OK

Track 7
Filename C:\Documents and Settings\Glyn\Desktop\Social Distortion - Prison Bound\07 - On My Nerves.wav

Peak level 99.9 %
Track quality 100.0 %
Test CRC E8617201
Copy CRC E8617201
Copy OK

Track 8
Filename C:\Documents and Settings\Glyn\Desktop\Social Distortion - Prison Bound\08 - I Want What I Want.wav

Peak level 99.9 %
Track quality 100.0 %
Test CRC E6251AA9
Copy CRC E6251AA9
Copy OK

Track 9
Filename C:\Documents and Settings\Glyn\Desktop\Social Distortion - Prison Bound\09 - Lawless.wav

Peak level 99.9 %
Track quality 100.0 %
Test CRC 31D5B4FD
Copy CRC 31D5B4FD
Copy OK

Track 10
Filename C:\Documents and Settings\Glyn\Desktop\Social Distortion - Prison Bound\10 - Lost Child.wav

Peak level 99.9 %
Track quality 99.9 %
Test CRC AB058054
Copy CRC AB058054
Copy OK

No errors occured

End of status report
REM GENRE Rock 
REM DATE 1988
REM DISCID 6D09A70A
REM COMMENT "ExactAudioCopy v0.95b4"
PERFORMER "Social Distortion"
TITLE "Prison Bound"
FILE "01 - It's The Law.wav" WAVE
TRACK 01 AUDIO
TITLE "It's The Law"
PERFORMER "Social Distortion"
PREGAP 00:00:32
INDEX 01 00:00:00
FILE "02 - Indulgence.wav" WAVE
TRACK 02 AUDIO
TITLE "Indulgence"
PERFORMER "Social Distortion"
INDEX 01 00:00:00
FILE "03 - Like An Outlaw (For You).wav" WAVE
TRACK 03 AUDIO
TITLE "Like An Outlaw (For You)"
PERFORMER "Social Distortion"
INDEX 01 00:00:00
FILE "04 - Backstreet Girl.wav" WAVE
TRACK 04 AUDIO
TITLE "Backstreet Girl"
PERFORMER "Social Distortion"
INDEX 01 00:00:00
FILE "05 - Prison Bound.wav" WAVE
TRACK 05 AUDIO
TITLE "Prison Bound"
PERFORMER "Social Distortion"
INDEX 01 00:00:00
TRACK 06 AUDIO
TITLE "No Pain No Gain"
PERFORMER "Social Distortion"
INDEX 00 05:23:33
FILE "06 - No Pain No Gain.wav" WAVE
INDEX 01 00:00:00
FILE "07 - On My Nerves.wav" WAVE
TRACK 07 AUDIO
TITLE "On My Nerves"
PERFORMER "Social Distortion"
INDEX 01 00:00:00
FILE "08 - I Want What I Want.wav" WAVE
TRACK 08 AUDIO
TITLE "I Want What I Want"
PERFORMER "Social Distortion"
INDEX 01 00:00:00
FILE "09 - Lawless.wav" WAVE
TRACK 09 AUDIO
TITLE "Lawless"
PERFORMER "Social Distortion"
INDEX 01 00:00:00
FILE "10 - Lost Child.wav" WAVE
TRACK 10 AUDIO
TITLE "Lost Child"
PERFORMER "Social Distortion"
INDEX 01 00:00:00
01. So Far Away (3:37)
02. Let It Be Me (4:16)
03. Story Of My Life (5:48)
04. Sick Boys (3:19)
05. Ring Of Fire (3:52)
06. Ball And Chain (5:44)
07. It Coulda Been Me (3:52)
08. She's A Knockout (3:52)
09. A Place In My Heart (3:15)
10. Drug Train (3:42)
Exact Audio Copy V0.99 prebeta 3 from 28. July 2007 

EAC extraction logfile from 10. December 2007, 16:17

Social Distortion / Social Distortion

Used drive : LITE-ON DVDRW SHW-160P6S Adapter: 1 ID: 0

Read mode : Secure
Utilize accurate stream : Yes
Defeat audio cache : Yes
Make use of C2 pointers : No

Read offset correction : 6
Overread into Lead-In and Lead-Out : No
Fill up missing offset samples with silence : Yes
Delete leading and trailing silent blocks : No
Null samples used in CRC calculations : No
Used interface : Native Win32 interface for Win NT & 2000
Gap handling : Not detected, thus appended to previous track

Used output format : User Defined Encoder
Selected bitrate : 1024 kBit/s
Quality : High
Add ID3 tag : No
Command line compressor : C:\Program Files\Exact Audio Copy\FLAC\FLAC.EXE
Additional command line options : -6 -V -T "ARTIST=%a" -T "TITLE=%t" -T "ALBUM=%g" -T "DATE=%y" -T "TRACKNUMBER=%n" -T "GENRE=%m" -T "COMMENT=%e" %s -o %d

TOC of the extracted CD

Track | Start | Length | Start sector | End sector
---------------------------------------------------------
1 | 0:00.00 | 3:37.20 | 0 | 16294
2 | 3:37.20 | 4:16.22 | 16295 | 35516
3 | 7:53.42 | 5:48.10 | 35517 | 61626
4 | 13:41.52 | 3:19.00 | 61627 | 76551
5 | 17:00.52 | 3:51.63 | 76552 | 93939
6 | 20:52.40 | 5:43.72 | 93940 | 119736
7 | 26:36.37 | 3:52.28 | 119737 | 137164
8 | 30:28.65 | 3:52.15 | 137165 | 154579
9 | 34:21.05 | 3:15.20 | 154580 | 169224
10 | 37:36.25 | 3:42.00 | 169225 | 185874

Track 1

Filename C:\TORRENTS\Social Distortion - Social Distortion\Social Distortion - Social Distortion - 01 - So Far Away.wav

Peak level 93.9 %
Track quality 100.0 %
Copy CRC F681DF58
Accurately ripped (confidence 3) [84D439FC]
Copy OK

Track 2

Filename C:\TORRENTS\Social Distortion - Social Distortion\Social Distortion - Social Distortion - 02 - Let It Be Me.wav

Peak level 93.9 %
Track quality 100.0 %
Copy CRC 8624DFD0
Accurately ripped (confidence 3) [C9BA6792]
Copy OK

Track 3

Filename C:\TORRENTS\Social Distortion - Social Distortion\Social Distortion - Social Distortion - 03 - Story Of My Life.wav

Peak level 99.2 %
Track quality 100.0 %
Copy CRC 936EEF9F
Accurately ripped (confidence 4) [CA0CB4A2]
Copy OK

Track 4

Filename C:\TORRENTS\Social Distortion - Social Distortion\Social Distortion - Social Distortion - 04 - Sick Boys.wav

Peak level 98.9 %
Track quality 100.0 %
Copy CRC 688F5133
Accurately ripped (confidence 4) [20FD6509]
Copy OK

Track 5

Filename C:\TORRENTS\Social Distortion - Social Distortion\Social Distortion - Social Distortion - 05 - Ring Of Fire.wav

Peak level 100.0 %
Track quality 100.0 %
Copy CRC AFE2A8A9
Accurately ripped (confidence 4) [185E54F4]
Copy OK

Track 6

Filename C:\TORRENTS\Social Distortion - Social Distortion\Social Distortion - Social Distortion - 06 - Ball And Chain.wav

Peak level 99.1 %
Track quality 100.0 %
Copy CRC 93A6E289
Accurately ripped (confidence 3) [ACB57E61]
Copy OK

Track 7

Filename C:\TORRENTS\Social Distortion - Social Distortion\Social Distortion - Social Distortion - 07 - It Coulda Been Me.wav

Peak level 93.9 %
Track quality 100.0 %
Copy CRC 48FDDF4A
Accurately ripped (confidence 4) [86E3B6CD]
Copy OK

Track 8

Filename C:\TORRENTS\Social Distortion - Social Distortion\Social Distortion - Social Distortion - 08 - She's A Knockout.wav

Peak level 89.0 %
Track quality 100.0 %
Copy CRC 1B60032A
Accurately ripped (confidence 4) [E8350A7D]
Copy OK

Track 9

Filename C:\TORRENTS\Social Distortion - Social Distortion\Social Distortion - Social Distortion - 09 - A Place In My Heart.wav

Peak level 93.8 %
Track quality 99.9 %
Copy CRC FEB77E70
Accurately ripped (confidence 4) [233B2DAB]
Copy OK

Track 10

Filename C:\TORRENTS\Social Distortion - Social Distortion\Social Distortion - Social Distortion - 10 - Drug Train.wav

Peak level 98.9 %
Track quality 100.0 %
Copy CRC E2F89039
Accurately ripped (confidence 3) [E68D3DCF]
Copy OK

All tracks accurately ripped

No errors occurred

End of status report
REM GENRE Rock 
REM DATE 1990
REM DISCID 7B09AE0A
REM COMMENT "ExactAudioCopy v0.99pb3"
PERFORMER "Social Distortion"
TITLE "Social Distortion"
FILE "Social Distortion - Social Distortion - 01 - So Far Away.wav" WAVE
TRACK 01 AUDIO
TITLE "So Far Away"
PERFORMER "Social Distortion"
INDEX 01 00:00:00
FILE "Social Distortion - Social Distortion - 02 - Let It Be Me.wav" WAVE
TRACK 02 AUDIO
TITLE "Let It Be Me"
PERFORMER "Social Distortion"
INDEX 01 00:00:00
TRACK 03 AUDIO
TITLE "Story Of My Life"
PERFORMER "Social Distortion"
INDEX 00 04:15:25
FILE "Social Distortion - Social Distortion - 03 - Story Of My Life.wav" WAVE
INDEX 01 00:00:00
TRACK 04 AUDIO
TITLE "Sick Boys"
PERFORMER "Social Distortion"
INDEX 00 05:46:38
FILE "Social Distortion - Social Distortion - 04 - Sick Boys.wav" WAVE
INDEX 01 00:00:00
FILE "Social Distortion - Social Distortion - 05 - Ring Of Fire.wav" WAVE
TRACK 05 AUDIO
TITLE "Ring Of Fire"
PERFORMER "Social Distortion"
INDEX 01 00:00:00
TRACK 06 AUDIO
TITLE "Ball And Chain"
PERFORMER "Social Distortion"
INDEX 00 03:50:63
FILE "Social Distortion - Social Distortion - 06 - Ball And Chain.wav" WAVE
INDEX 01 00:00:00
TRACK 07 AUDIO
TITLE "It Coulda Been Me"
PERFORMER "Social Distortion"
INDEX 00 05:43:17
FILE "Social Distortion - Social Distortion - 07 - It Coulda Been Me.wav" WAVE
INDEX 01 00:00:00
TRACK 08 AUDIO
TITLE "She's A Knockout"
PERFORMER "Social Distortion"
INDEX 00 03:52:13
FILE "Social Distortion - Social Distortion - 08 - She's A Knockout.wav" WAVE
INDEX 01 00:00:00
FILE "Social Distortion - Social Distortion - 09 - A Place In My Heart.wav" WAVE
TRACK 09 AUDIO
TITLE "A Place In My Heart"
PERFORMER "Social Distortion"
INDEX 01 00:00:00
TRACK 10 AUDIO
TITLE "Drug Train"
PERFORMER "Social Distortion"
INDEX 00 03:15:13
FILE "Social Distortion - Social Distortion - 10 - Drug Train.wav" WAVE
INDEX 01 00:00:00
01. Cold Feelings (3:32)
02. Bad Luck (4:26)
03. Making Believe (4:13)
04. Born to Lose (4:09)
05. Bye Bye Baby (3:06)
06. When She Begins (5:04)
07. 99 to Life (4:29)
08. King of Fools (2:50)
09. Sometimes I Do (4:01)
10. This Time Darlin' (4:09)
11. Ghost Town Blues (4:38)
EAC extraction logfile from 20. February 2007, 22:01 for CD 
Social Distortion / Somewhere Between Heaven And Hell

Used drive : HL-DT-STCD-ROM GCR-8483B Adapter: 0 ID: 0
Read mode : Secure with NO C2, accurate stream, disable cache
Read offset correction : -24
Overread into Lead-In and Lead-Out : No

Used output format : C:\Program Files\Exact Audio Copy\bin\flac.exe (User Defined Encoder)
320 kBit/s
Additional command line options : -V -8 -T "artist=%a" -T "title=%t" -T "album=%g" -T "date=%y" -T "tracknumber=%n" -T "genre=%m" %s

Other options :
Fill up missing offset samples with silence : Yes
Delete leading and trailing silent blocks : No
Installed external ASPI interface

Track 1
Filename C:\Documents and Settings\Charles\My Documents\My Music\New Rips\Social Distortion-1992-Somewhere Between Heaven And Hell FLAC\01 Cold Feelings.wav

Pre-gap length 0:00:02.00

Peak level 86.7 %
Track quality 99.9 %
Copy CRC 7991DF1A
Copy OK

Track 2
Filename C:\Documents and Settings\Charles\My Documents\My Music\New Rips\Social Distortion-1992-Somewhere Between Heaven And Hell FLAC\02 Bad Luck.wav

Pre-gap length 0:00:01.27

Peak level 87.9 %
Track quality 100.0 %
Copy CRC 086560F4
Copy OK

Track 3
Filename C:\Documents and Settings\Charles\My Documents\My Music\New Rips\Social Distortion-1992-Somewhere Between Heaven And Hell FLAC\03 Making Believe.wav

Pre-gap length 0:00:00.65

Peak level 100.0 %
Track quality 99.9 %
Copy CRC 47E800E2
Copy OK

Track 4
Filename C:\Documents and Settings\Charles\My Documents\My Music\New Rips\Social Distortion-1992-Somewhere Between Heaven And Hell FLAC\04 Born to Lose.wav

Peak level 92.0 %
Track quality 100.0 %
Copy CRC FF3B700A
Copy OK

Track 5
Filename C:\Documents and Settings\Charles\My Documents\My Music\New Rips\Social Distortion-1992-Somewhere Between Heaven And Hell FLAC\05 Bye Bye Baby.wav

Pre-gap length 0:00:00.44

Peak level 88.3 %
Track quality 100.0 %
Copy CRC 3A600873
Copy OK

Track 6
Filename C:\Documents and Settings\Charles\My Documents\My Music\New Rips\Social Distortion-1992-Somewhere Between Heaven And Hell FLAC\06 When She Begins.wav

Pre-gap length 0:00:00.49

Peak level 85.8 %
Track quality 100.0 %
Copy CRC 0DEF7B04
Copy OK

Track 7
Filename C:\Documents and Settings\Charles\My Documents\My Music\New Rips\Social Distortion-1992-Somewhere Between Heaven And Hell FLAC\07 99 to Life.wav

Pre-gap length 0:00:00.72

Peak level 85.3 %
Track quality 99.9 %
Copy CRC 4C43B4D0
Copy OK

Track 8
Filename C:\Documents and Settings\Charles\My Documents\My Music\New Rips\Social Distortion-1992-Somewhere Between Heaven And Hell FLAC\08 King of Fools.wav

Peak level 100.0 %
Track quality 100.0 %
Copy CRC 017F709A
Copy OK

Track 9
Filename C:\Documents and Settings\Charles\My Documents\My Music\New Rips\Social Distortion-1992-Somewhere Between Heaven And Hell FLAC\09 Sometimes I Do.wav

Pre-gap length 0:00:00.57

Peak level 90.4 %
Track quality 99.9 %
Copy CRC DC2364DD
Copy OK

Track 10
Filename C:\Documents and Settings\Charles\My Documents\My Music\New Rips\Social Distortion-1992-Somewhere Between Heaven And Hell FLAC\10 This Time Darlin'.wav

Pre-gap length 0:00:01.14

Peak level 93.4 %
Track quality 99.9 %
Copy CRC C3B8D770
Copy OK

Track 11
Filename C:\Documents and Settings\Charles\My Documents\My Music\New Rips\Social Distortion-1992-Somewhere Between Heaven And Hell FLAC\11 Ghost Town Blues.wav

Pre-gap length 0:00:00.04

Peak level 97.6 %
Track quality 99.9 %
Copy CRC 50E2EDB1
Copy OK

No errors occured

End of status report
REM GENRE Punk 
REM DATE 1992
REM DISCID 7C0A740B
REM COMMENT "ExactAudioCopy v0.95b4"
CATALOG 1101000015004
PERFORMER "Social Distortion"
TITLE "Somewhere Between Heaven And Hell"
FILE "01 Cold Feelings.wav" WAVE
TRACK 01 AUDIO
TITLE "Cold Feelings"
PERFORMER "Social Distortion"
INDEX 01 00:00:00
TRACK 02 AUDIO
TITLE "Bad Luck"
PERFORMER "Social Distortion"
INDEX 00 03:30:13
FILE "02 Bad Luck.wav" WAVE
INDEX 01 00:00:00
TRACK 03 AUDIO
TITLE "Making Believe"
PERFORMER "Social Distortion"
INDEX 00 04:25:13
FILE "03 Making Believe.wav" WAVE
INDEX 01 00:00:00
FILE "04 Born to Lose.wav" WAVE
TRACK 04 AUDIO
TITLE "Born to Lose"
PERFORMER "Social Distortion"
INDEX 01 00:00:00
TRACK 05 AUDIO
TITLE "Bye Bye Baby"
PERFORMER "Social Distortion"
INDEX 00 04:08:48
FILE "05 Bye Bye Baby.wav" WAVE
INDEX 01 00:00:00
TRACK 06 AUDIO
TITLE "When She Begins"
PERFORMER "Social Distortion"
INDEX 00 03:05:31
FILE "06 When She Begins.wav" WAVE
INDEX 01 00:00:00
TRACK 07 AUDIO
TITLE "99 to Life"
PERFORMER "Social Distortion"
INDEX 00 05:03:23
FILE "07 99 to Life.wav" WAVE
INDEX 01 00:00:00
FILE "08 King of Fools.wav" WAVE
TRACK 08 AUDIO
TITLE "King of Fools"
PERFORMER "Social Distortion"
INDEX 01 00:00:00
TRACK 09 AUDIO
TITLE "Sometimes I Do"
PERFORMER "Social Distortion"
INDEX 00 02:49:25
FILE "09 Sometimes I Do.wav" WAVE
INDEX 01 00:00:00
TRACK 10 AUDIO
TITLE "This Time Darlin'"
PERFORMER "Social Distortion"
INDEX 00 03:59:71
FILE "10 This Time Darlin'.wav" WAVE
INDEX 01 00:00:00
TRACK 11 AUDIO
TITLE "Ghost Town Blues"
PERFORMER "Social Distortion"
INDEX 00 04:08:51
FILE "11 Ghost Town Blues.wav" WAVE
INDEX 01 00:00:00
01. Dear Lover (4:44)
02. Don't Drag Me Down (3:51)
03. Untitled (4:46)
04. I Was Wrong (3:59)
05. Through These Eyes (3:16)
06. Down On The World Again (3:22)
07. When The Angels Sing (4:15)
08. Gotta Know The Rules (3:28)
09. Crown Of Thorns (4:16)
10. Pleasure Seeker (3:33)
11. Down Here (With The Rest Of Us) (4:20)
12. Under My Thumb (2:50)
EAC extraction logfile from 2. March 2007, 13:03 for CD 
Social Distortion / White Light White Heat White Trash

Used drive : BENQ DVD DD DW1640 Adapter: 0 ID: 0
Read mode : Secure with NO C2, accurate stream, disable cache
Read offset correction : 618
Overread into Lead-In and Lead-Out : No

Used output format : C:\Program Files\FLAC\flac.exe (User Defined Encoder)
128 kBit/s
Additional command line options : -V -8 -T "artist=%a" -T "title=%t" -T "album=%g" -T "date=%y" -T "tracknumber=%n" -T "genre=%m" %s

Other options :
Fill up missing offset samples with silence : Yes
Delete leading and trailing silent blocks : No
Native Win32 interface for Win NT & 2000

Track 1
Filename C:\Documents and Settings\Glyn\Desktop\Social Distortion - White Light, White Heat, White Trash\01 - Dear Lover.wav

Pre-gap length 0:00:02.00

Peak level 100.0 %
Track quality 99.9 %
Test CRC 69DB2543
Copy CRC 69DB2543
Copy OK

Track 2
Filename C:\Documents and Settings\Glyn\Desktop\Social Distortion - White Light, White Heat, White Trash\02 - Don't Drag Me Down.wav

Peak level 100.0 %
Track quality 100.0 %
Test CRC 4D29E55F
Copy CRC 4D29E55F
Copy OK

Track 3
Filename C:\Documents and Settings\Glyn\Desktop\Social Distortion - White Light, White Heat, White Trash\03 - Untitled.wav

Pre-gap length 0:00:00.70

Peak level 100.0 %
Track quality 100.0 %
Test CRC B7CB5E06
Copy CRC B7CB5E06
Copy OK

Track 4
Filename C:\Documents and Settings\Glyn\Desktop\Social Distortion - White Light, White Heat, White Trash\04 - I Was Wrong.wav

Pre-gap length 0:00:00.86

Peak level 100.0 %
Track quality 100.0 %
Test CRC 0DD74938
Copy CRC 0DD74938
Copy OK

Track 5
Filename C:\Documents and Settings\Glyn\Desktop\Social Distortion - White Light, White Heat, White Trash\05 - Through These Eyes.wav

Pre-gap length 0:00:01.06

Peak level 100.0 %
Track quality 100.0 %
Test CRC FBEC1C2A
Copy CRC FBEC1C2A
Copy OK

Track 6
Filename C:\Documents and Settings\Glyn\Desktop\Social Distortion - White Light, White Heat, White Trash\06 - Down On The World Again.wav

Pre-gap length 0:00:01.24

Peak level 100.0 %
Track quality 100.0 %
Test CRC 485DE06A
Copy CRC 485DE06A
Copy OK

Track 7
Filename C:\Documents and Settings\Glyn\Desktop\Social Distortion - White Light, White Heat, White Trash\07 - When The Angels Sing.wav

Pre-gap length 0:00:01.29

Peak level 100.0 %
Track quality 100.0 %
Test CRC 1F0391F1
Copy CRC 1F0391F1
Copy OK

Track 8
Filename C:\Documents and Settings\Glyn\Desktop\Social Distortion - White Light, White Heat, White Trash\08 - Gotta Know The Rules.wav

Pre-gap length 0:00:00.76

Peak level 100.0 %
Track quality 99.9 %
Test CRC A640EF35
Copy CRC A640EF35
Copy OK

Track 9
Filename C:\Documents and Settings\Glyn\Desktop\Social Distortion - White Light, White Heat, White Trash\09 - Crown Of Thorns.wav

Pre-gap length 0:00:00.46

Peak level 100.0 %
Track quality 99.9 %
Test CRC 567C1658
Copy CRC 567C1658
Copy OK

Track 10
Filename C:\Documents and Settings\Glyn\Desktop\Social Distortion - White Light, White Heat, White Trash\10 - Pleasure Seeker.wav

Pre-gap length 0:00:00.24

Peak level 100.0 %
Track quality 100.0 %
Test CRC BBBEF99A
Copy CRC BBBEF99A
Copy OK

Track 11
Filename C:\Documents and Settings\Glyn\Desktop\Social Distortion - White Light, White Heat, White Trash\11 - Down Here (With The Rest Of Us).wav

Pre-gap length 0:00:00.89

Peak level 100.0 %
Track quality 100.0 %
Test CRC 25E5134C
Copy CRC 25E5134C
Copy OK

Track 12
Filename C:\Documents and Settings\Glyn\Desktop\Social Distortion - White Light, White Heat, White Trash\12 - Under My Thumb.wav

Pre-gap length 0:00:00.93

Peak level 100.0 %
Track quality 100.0 %
Test CRC 01250E23
Copy CRC 01250E23
Copy OK

No errors occured

End of status report
REM GENRE Punk 
REM DATE 1996
REM DISCID 930AEF0C
REM COMMENT "ExactAudioCopy v0.95b4"
PERFORMER "Social Distortion"
TITLE "White Light White Heat White Trash"
FILE "01 - Dear Lover.wav" WAVE
TRACK 01 AUDIO
TITLE "Dear Lover"
PERFORMER "Social Distortion"
INDEX 01 00:00:00
FILE "02 - Don't Drag Me Down.wav" WAVE
TRACK 02 AUDIO
TITLE "Don't Drag Me Down"
PERFORMER "Social Distortion"
INDEX 01 00:00:00
TRACK 03 AUDIO
TITLE "Untitled"
PERFORMER "Social Distortion"
INDEX 00 03:50:15
FILE "03 - Untitled.wav" WAVE
INDEX 01 00:00:00
TRACK 04 AUDIO
TITLE "I Was Wrong"
PERFORMER "Social Distortion"
INDEX 00 04:44:72
FILE "04 - I Was Wrong.wav" WAVE
INDEX 01 00:00:00
TRACK 05 AUDIO
TITLE "Through These Eyes"
PERFORMER "Social Distortion"
INDEX 00 03:57:68
FILE "05 - Through These Eyes.wav" WAVE
INDEX 01 00:00:00
TRACK 06 AUDIO
TITLE "Down On The World Again"
PERFORMER "Social Distortion"
INDEX 00 03:14:32
FILE "06 - Down On The World Again.wav" WAVE
INDEX 01 00:00:00
TRACK 07 AUDIO
TITLE "When The Angels Sing"
PERFORMER "Social Distortion"
INDEX 00 03:21:00
FILE "07 - When The Angels Sing.wav" WAVE
INDEX 01 00:00:00
TRACK 08 AUDIO
TITLE "Gotta Know The Rules"
PERFORMER "Social Distortion"
INDEX 00 04:14:33
FILE "08 - Gotta Know The Rules.wav" WAVE
INDEX 01 00:00:00
TRACK 09 AUDIO
TITLE "Crown Of Thorns"
PERFORMER "Social Distortion"
INDEX 00 03:27:53
FILE "09 - Crown Of Thorns.wav" WAVE
INDEX 01 00:00:00
TRACK 10 AUDIO
TITLE "Pleasure Seeker"
PERFORMER "Social Distortion"
INDEX 00 04:15:32
FILE "10 - Pleasure Seeker.wav" WAVE
INDEX 01 00:00:00
TRACK 11 AUDIO
TITLE "Down Here (With The Rest Of Us)"
PERFORMER "Social Distortion"
INDEX 00 03:32:10
FILE "11 - Down Here (With The Rest Of Us).wav" WAVE
INDEX 01 00:00:00
TRACK 12 AUDIO
TITLE "Under My Thumb"
PERFORMER "Social Distortion"
INDEX 00 04:18:73
FILE "12 - Under My Thumb.wav" WAVE
INDEX 01 00:00:00
01. Reach For The Sky (3:32)
02. Highway 101 (3:45)
03. Don't Take Me For Granted (3:48)
04. Footprints On My Ceiling (5:09)
05. Nickels and Dimes (3:05)
06. Wasn't Born To Follow (2:56)
07. Winners and Losers (4:45)
08. Faithless (3:02)
09. Live Before You Die (2:48)
10. Angel's Wings (4:59)
AUDIOCHECKER v2.0 beta (build 457) - by Dester - opdester@freemail.hu 
~~~~~~~~~~~~~~~~~~~~~~~~~~~~~~~~~~

Начато: воскресенье, 08. 01. 2012. - 13:57.30
Найдено файлов: 10

01 -===- H:\Music (lossless)\Social Distortion\2004 - Sex Love ang RockNRoll\01 - Reach For The Sky.flac
Извлечение успешно выполнено
Заключение: этот трек - CDDA с вероятностью 100%
Временный файл удалён.

02 -===- H:\Music (lossless)\Social Distortion\2004 - Sex Love ang RockNRoll\02 - Highway 101.flac
Извлечение успешно выполнено
Заключение: этот трек - CDDA с вероятностью 100%
Временный файл удалён.

03 -===- H:\Music (lossless)\Social Distortion\2004 - Sex Love ang RockNRoll\03 - Don't Take Me For Granted.flac
Извлечение успешно выполнено
Заключение: этот трек - CDDA с вероятностью 100%
Временный файл удалён.

04 -===- H:\Music (lossless)\Social Distortion\2004 - Sex Love ang RockNRoll\04 - Footprints On My Ceiling.flac
Извлечение успешно выполнено
Заключение: этот трек - CDDA с вероятностью 100%
Временный файл удалён.

05 -===- H:\Music (lossless)\Social Distortion\2004 - Sex Love ang RockNRoll\05 - Nickels and Dimes.flac
Извлечение успешно выполнено
Заключение: этот трек - CDDA с вероятностью 99%
Временный файл удалён.

06 -===- H:\Music (lossless)\Social Distortion\2004 - Sex Love ang RockNRoll\06 - Wasn't Born To Follow.flac
Извлечение успешно выполнено
Заключение: этот трек - CDDA с вероятностью 100%
Временный файл удалён.

07 -===- H:\Music (lossless)\Social Distortion\2004 - Sex Love ang RockNRoll\07 - Winners and Losers.flac
Извлечение успешно выполнено
Заключение: этот трек - CDDA с вероятностью 99%
Временный файл удалён.

08 -===- H:\Music (lossless)\Social Distortion\2004 - Sex Love ang RockNRoll\08 - Faithless.flac
Извлечение успешно выполнено
Заключение: этот трек - CDDA с вероятностью 100%
Временный файл удалён.

09 -===- H:\Music (lossless)\Social Distortion\2004 - Sex Love ang RockNRoll\09 - Live Before You Die.flac
Извлечение успешно выполнено
Заключение: этот трек - CDDA с вероятностью 100%
Временный файл удалён.

10 -===- H:\Music (lossless)\Social Distortion\2004 - Sex Love ang RockNRoll\10 - Angel's Wings.flac
Извлечение успешно выполнено
Заключение: этот трек - CDDA с вероятностью 100%
Временный файл удалён.

Завершено: воскресенье, 08. 01. 2012. - 14:00.27 (Время операции: 0:02.57)
info [Профиль]  [ЛС] 

Raa

Пол: Пол:Муж

Стаж: 7 лет

Сообщений: 1099

Рейтинг

post 08-Янв-2012 13:12 (спустя 19 часов) [-]0[+]

[Цитировать] 

Timа
Лог и куе, должны быть в тэге

Код:

[pre]
Где лога нет, нужно сделать проверку аудиочекером.
http://tapochek.net/viewtopic.php?t=91646 Лог аудиочекера должен быть в составе раздач.
info [Профиль]  [ЛС] 

The Royal

Пол: Пол:Муж

Стаж: 7 лет 3 месяца

Сообщений: 659

Россия
Рейтинг

post 08-Янв-2012 14:43 (спустя 1 час 30 минут) [-]0[+]

[Цитировать] 

Raa, вроде сделал все
info [Профиль]  [ЛС] 
Показать сообщения:    
Ответить на тему

Текущее время: 30-Мар 14:49

Часовой пояс: GMT + 4



Вы не можете начинать темы
Вы не можете отвечать на сообщения
Вы не можете редактировать свои сообщения
Вы не можете удалять свои сообщения
Вы не можете голосовать в опросах
Вы не можете прикреплять файлы к сообщениям
Вы не можете скачивать файлы