Ошибка

До окончания фрилича осталось:


Кошачья жизнь / Une vie de chat (Жан-Луи Фелисиоли, Ален Ганьоль / Jean-Loup Felicioli, Alain Gagnol) [2010 г., Мультфильм, криминал, детектив, DVDRip]

Ответить на тему
 
Автор Сообщение

Kostantin

Пол: Пол:Муж

Стаж: 5 лет 4 месяца

Сообщений: 23

Россия
Рейтинг

post 25-Дек-2011 11:47 1[+]

[Цитировать] 

Кошачья жизнь / Une vie de chat

Год выпуска: 2010
Страна: Франция, Нидерланды, Швейцария, Бельгия
Жанр: Мультфильм, криминал, детектив
Продолжительность: 01:04:31

Режиссер: Жан-Луи Фелисиоли, Ален Ганьоль / Jean-Loup Felicioli, Alain Gagnol
Продюссер: Жак-Реми Жерар, Эммануель Бернард, Annemie Degryse
Сценарий: Ален Ганьоль, Жак-Реми Жерар
Премьера в мире: 15 октября 2010

7.10 (314)
В ролях: Доминик Блан, Бруно Саломон, Жан Бенгиги, Бернадетт Лафон, Ориан Зани, Бернард Буллон, Жак Рамад, Патрик Дешам
Описание: Дино - кот, ведущий двойную жизнь. Днем он живет с девочкой Зои и ее матерью офицером полиции, а по ночам участвует в ограблениях. Но однажды Зои проследила за котом Дино...
Качество: DVDRip
Озвучивание: Любительское (одноголосое)

Формат: AVI
Видео кодек: XviD
Аудио кодек: MP3
Видео: Xvid 720x384 23.98fps 1 371Kbps
Аудио 1: MPEG Audio Layer 3 44100Hz stereo 128kbps [Rus]
Аудио 2: MPEG Audio Layer 3 44100Hz stereo 128kbps [Franz] (оригинал)
Субтитры: Русские (отдельным файлом)


Format : AVI
Format/Info : Audio Video Interleave
File size : 757 MiB
Duration : 1h 4mn
Overall bit rate : 1 641 Kbps
Writing application : VirtualDubMod 1.5.10.2 (build 2540/release)
Writing library : VirtualDubMod build 2540/release

Video
ID : 0
Format : MPEG-4 Visual
Format profile : Advanced Simple@L5
Format settings, BVOP : 2
Format settings, QPel : No
Format settings, GMC : No warppoints
Format settings, Matrix : Default (H.263)
Codec ID : XVID
Codec ID/Hint : XviD
Duration : 1h 4mn
Bit rate : 1 371 Kbps
Width : 720 pixels
Height : 384 pixels
Display aspect ratio : 1.875
Frame rate : 23.976 fps
Color space : YUV
Chroma subsampling : 4:2:0
Bit depth : 8 bits
Scan type : Progressive
Compression mode : Lossy
Bits/(Pixel*Frame) : 0.207
Stream size : 633 MiB (84%)
Writing library : XviD 1.2.1 (UTC 2008-12-04)

Audio #1
ID : 1
Format : MPEG Audio
Format version : Version 1
Format profile : Layer 3
Codec ID : 55
Codec ID/Hint : MP3
Duration : 1h 4mn
Bit rate mode : Constant
Bit rate : 128 Kbps
Channel(s) : 2 channels
Sampling rate : 44.1 KHz
Compression mode : Lossy
Stream size : 59.1 MiB (8%)
Alignment : Split accross interleaves
Interleave, duration : 42 ms (1.00 video frame)
Interleave, preload duration : 500 ms
Writing library : LAME3.98r
Encoding settings : -m s -V 4 -q 3 -lowpass 17 -b 128

Audio #2
ID : 2
Format : MPEG Audio
Format version : Version 1
Format profile : Layer 3
Codec ID : 55
Codec ID/Hint : MP3
Duration : 1h 4mn
Bit rate mode : Constant
Bit rate : 128 Kbps
Channel(s) : 2 channels
Sampling rate : 48.0 KHz
Compression mode : Lossy
Stream size : 59.1 MiB (8%)
Alignment : Split accross interleaves
Interleave, duration : 42 ms (1.00 video frame)
Interleave, preload duration : 500 ms
Убедительная просьба - скачал сам, помоги скачать другим, не уходи с раздачи kolob_117
info [Профиль]  [ЛС] 

C@ym@n

Пол: Пол:Муж

Стаж: 7 лет 2 месяца

Сообщений: 486

Рейтинг

post 25-Дек-2011 20:38 (спустя 8 часов) [-]0[+]

[Цитировать] 

Спасибо, посмотрим. У французов хорошие, добротные мультфильмы.
info [Профиль]  [ЛС] 
Показать сообщения:    
Ответить на тему

Текущее время: 10-Дек 09:02

Часовой пояс: GMT + 4



Вы не можете начинать темы
Вы не можете отвечать на сообщения
Вы не можете редактировать свои сообщения
Вы не можете удалять свои сообщения
Вы не можете голосовать в опросах
Вы не можете прикреплять файлы к сообщениям
Вы не можете скачивать файлы