Ошибка

Борн (Трилогия) / The Bourne (Trilogy) (Даг Лайман / Doug Liman, Пол Гринграсс / Paul Greengrass) [2002-2007, Боевик, детектив, триллер, Blu-Ray Disc]

Ответить на тему
 
Автор Сообщение

LiLS

Пол: Пол:Муж

Стаж: 5 лет 5 месяцев

Сообщений: 125

СССР
Рейтинг

post 23-Дек-2011 07:40 2[+]

[Цитировать] 

pic="http://lostpic.net/images/87ce92eb7f08cc26fa19cedf688a2025.png"
Борн (Трилогия)
The Bourne (Trilogy)


"Год выпуска: 2002
Страна: США , Германия , Чехия
Жанр: Боевик, детектив, триллер
Продолжительность: 01:58:36
Перевод: Дублированный
Субтитры: Английские, хорватские, чешские, греческие, иврит, венгерские, исландские, польские, португальские, румынские, испанские, тайские, турецкие
Режиссер: Даг Лайман / Doug Liman
В ролях: Мэтт Дэймон / Matt Damon, Франка Потенте / Franka Potente, Крис Купер / Chris Cooper, Клайв Оуэн / Clive Owen, Брайан Кокс / Brian Cox, Адевале Акиннуойе-Агбадже / Adewale Akinnuoye-Agbaje, Гэбриел Манн / Gabriel Mann, Джулия Стайлз / Julia Stiles и другие
Описание:Команда итальянского рыболовецкого судна находит в водах Средиземного моря тело мужчины. У него два пулевых ранения в спине и имплантированный в бедро микрофильм, помеченный номером швейцарского банка. Когда незнакомец приходит в себя, оказывается, что он не помнит кто он, и что с ним случилось, однако он может говорить на нескольких языках и обладает другими необычными способностями.
Получив в Цюрихе деньги с указанного банковского счета, он узнает свое имя Джейсон Борн. Но настоящее это его имя или нет? Пытаясь восстановить свое прошлое, он находит свой адрес в Париже, но вместе с этим понимает, что отслеживается убийцей. Борн уговаривает немецкую студентку Мэри отвезти его в Париж, чтобы выяснить все о своем прошлом и понять, кто хочет его убить…
Качество: Blu-Ray Disc 50
Формат: BDMV
Видео кодек: VC-1
Аудио кодек: Digital Theater Systems
Видео: 1920x1080, VC-1, 39.2 Mbps, 23,976 fps, 1080p, 16:9
Аудио#1: DTS-HD Master Audio, English, 4308 kbps, 5.1, 48 kHz, 4308kbps, 24-bit (DTS Core : 5.1, 48 kHz, 1509 kbps, 24-bit)
Аудио#2: DTS Audio, Czech, 768 kbps, 5.1, 48 kHz, 768 kbps, 24-bit
Аудио#3: DTS Audio, Hungarian, 768 kbps, 5.1, 48 kHz, 768 kbps, 24-bit
Аудио#4: DTS Audio, Polish, 768 kbps, 5.1, 48 kHz, 768 kbps, 24-bit
Аудио#5: DTS Audio, Portuguese, 768 kbps, 5.1, 48 kHz, 768 kbps, 24-bit
Аудио#6: DTS Audio, Russian, 768 kbps, 5.1, 48 kHz, 768 kbps, 24-bit
Аудио#7: DTS Audio, Spanish, 768 kbps, 5.1, 48 kHz, 768 kbps, 24-bit
Аудио#8: DTS Audio, Thai, 768 kbps, 5.1, 48 kHz, 768 kbps, 24-bit
Аудио#9: Dolby Digital Audio, English, 192 kbps, 2.0, 48 kHz, 192 kbps, DN -4dB, Dolby Surround
Аудио#10: DTS Express, English, 192 kbps, 2.0, 48 kHz, 192 kbps, 24-bit
DISC INFO:
Disc Size: 44,990,051,580 bytes
Protection: AACS
BD-Java: Yes
BDInfo: 0.5.3

PLAYLIST REPORT:

Name: 00000.MPLS
Length: 1:58:36 (h:m:s)
Size: 25,400,535,552 bytes
Total Bitrate: 28,55 Mbps

Звезда Indicates included stream hidden by this playlist.

VIDEO:

Codec Bitrate Description
----- ------- -----------
VC-1 Video 25547 kbps 1080p / 23,976 fps / 16:9 / Advanced Profile 3
VC-1 Video 968 kbps 480p / 23,976 fps / 4:3 / Advanced Profile 2
* VC-1 Video 904 kbps 480p / 23,976 fps / 4:3 / Advanced Profile 2

AUDIO:

Codec Language Bitrate Description
----- -------- ------- -----------
DTS-HD Master Audio English 4308 kbps 5.1 / 48 kHz / 4308 kbps / 24-bit (DTS Core: 5.1 / 48 kHz / 1509 kbps / 24-bit)
DTS Audio Czech 768 kbps 5.1 / 48 kHz / 768 kbps / 24-bit
DTS Audio Hungarian 768 kbps 5.1 / 48 kHz / 768 kbps / 24-bit
DTS Audio Polish 768 kbps 5.1 / 48 kHz / 768 kbps / 24-bit
DTS Audio Portuguese 768 kbps 5.1 / 48 kHz / 768 kbps / 24-bit
DTS Audio Russian 768 kbps 5.1 / 48 kHz / 768 kbps / 24-bit
DTS Audio Spanish 768 kbps 5.1 / 48 kHz / 768 kbps / 24-bit
DTS Audio Thai 768 kbps 5.1 / 48 kHz / 768 kbps / 24-bit
Dolby Digital Audio English 192 kbps 2.0 / 48 kHz / 192 kbps / DN -4dB / Dolby Surround
DTS Express English 192 kbps 2.0 / 48 kHz / 192 kbps / 24-bit

SUBTITLES:

Codec Language Bitrate Description
----- -------- ------- -----------
Presentation Graphics English 30,165 kbps
Presentation Graphics English 2,090 kbps
Presentation Graphics Bulgarian 25,916 kbps
Presentation Graphics Croatian 24,296 kbps
Presentation Graphics Czech 23,671 kbps
Presentation Graphics Czech 2,192 kbps
Presentation Graphics Greek 28,967 kbps
Presentation Graphics Hebrew 18,993 kbps
Presentation Graphics Hungarian 26,410 kbps
Presentation Graphics Hungarian 2,361 kbps
Presentation Graphics Icelandic 25,752 kbps
Presentation Graphics Polish 25,623 kbps
Presentation Graphics Portuguese 27,994 kbps
Presentation Graphics Portuguese 2,510 kbps
Presentation Graphics Romanian 23,989 kbps
Presentation Graphics Russian 2,561 kbps
Presentation Graphics Spanish 27,563 kbps
Presentation Graphics Spanish 2,459 kbps
Presentation Graphics Thai 20,328 kbps
Presentation Graphics Thai 1,764 kbps
Presentation Graphics Turkish 27,388 kbps
General
ID : 0 (0x0)
Complete name : P:\Видео\Фильмы\BORN_TRILOGY_BD_BLUEBIRD\BOURNE_IDENT_G52\BDMV\STREAM\00009.m2ts
Format : BDAV
Format/Info : Blu-ray Video
File size : 32.5 GiB
Duration : 1h 58mn
Overall bit rate : 39.2 Mbps
Maximum Overall bit rate : 48.0 Mbps

Video #1
ID : 4113 (0x1011)
Menu ID : 1 (0x1)
Format : VC-1
Format profile : AP@L3
Codec ID : 234
Duration : 1h 58mn
Width : 1 920 pixels
Height : 1 080 pixels
Display aspect ratio : 16:9
Frame rate : 23.976 fps
Chroma subsampling : 4:2:0
Bit depth : 8 bits
Scan type : Progressive
Compression mode : Lossy

Video #2
ID : 6912 (0x1B00)
Menu ID : 1 (0x1)
Format : VC-1
Format profile : AP@L2
Codec ID : 234
Duration : 1h 58mn
Width : 720 pixels
Height : 480 pixels
Display aspect ratio : 4:3
Frame rate : 23.976 fps
Standard : NTSC
Chroma subsampling : 4:2:0
Bit depth : 8 bits
Scan type : Progressive
Compression mode : Lossy

Video #3
ID : 6913 (0x1B01)
Menu ID : 1 (0x1)
Format : VC-1
Format profile : AP@L2
Codec ID : 234
Duration : 1h 58mn
Width : 720 pixels
Height : 480 pixels
Display aspect ratio : 4:3
Frame rate : 23.976 fps
Standard : NTSC
Chroma subsampling : 4:2:0
Bit depth : 8 bits
Scan type : Progressive
Compression mode : Lossy

Audio #1
ID : 4352 (0x1100)
Menu ID : 1 (0x1)
Format : DTS
Format/Info : Digital Theater Systems
Format profile : MA / Core
Muxing mode : Stream extension
Codec ID : 134
Duration : 1h 58mn
Bit rate mode : Variable
Bit rate : 1 783 Kbps / 1 510 Kbps
Channel(s) : 6 channels
Channel positions : Front: L C R, Side: L R, LFE
Sampling rate : 48.0 KHz
Bit depth : 24 bits
Compression mode : Lossless / Lossy

Audio #2
ID : 4353 (0x1101)
Menu ID : 1 (0x1)
Format : DTS
Format/Info : Digital Theater Systems
Codec ID : 130
Duration : 1h 58mn
Bit rate mode : Constant
Bit rate : 755 Kbps
Channel(s) : 6 channels
Channel positions : Front: L C R, Side: L R, LFE
Sampling rate : 48.0 KHz
Bit depth : 24 bits
Compression mode : Lossy
Stream size : 640 MiB (2%)

Audio #3
ID : 4354 (0x1102)
Menu ID : 1 (0x1)
Format : DTS
Format/Info : Digital Theater Systems
Codec ID : 130
Duration : 1h 58mn
Bit rate mode : Constant
Bit rate : 755 Kbps
Channel(s) : 6 channels
Channel positions : Front: L C R, Side: L R, LFE
Sampling rate : 48.0 KHz
Bit depth : 24 bits
Compression mode : Lossy
Stream size : 640 MiB (2%)

Audio #4
ID : 4355 (0x1103)
Menu ID : 1 (0x1)
Format : DTS
Format/Info : Digital Theater Systems
Codec ID : 130
Duration : 1h 58mn
Bit rate mode : Constant
Bit rate : 755 Kbps
Channel(s) : 6 channels
Channel positions : Front: L C R, Side: L R, LFE
Sampling rate : 48.0 KHz
Bit depth : 24 bits
Compression mode : Lossy
Stream size : 640 MiB (2%)

Audio #5
ID : 4356 (0x1104)
Menu ID : 1 (0x1)
Format : DTS
Format/Info : Digital Theater Systems
Codec ID : 130
Duration : 1h 58mn
Bit rate mode : Constant
Bit rate : 755 Kbps
Channel(s) : 6 channels
Channel positions : Front: L C R, Side: L R, LFE
Sampling rate : 48.0 KHz
Bit depth : 24 bits
Compression mode : Lossy
Stream size : 640 MiB (2%)

Audio #6
ID : 4357 (0x1105)
Menu ID : 1 (0x1)
Format : DTS
Format/Info : Digital Theater Systems
Codec ID : 130
Duration : 1h 58mn
Bit rate mode : Constant
Bit rate : 755 Kbps
Channel(s) : 6 channels
Channel positions : Front: L C R, Side: L R, LFE
Sampling rate : 48.0 KHz
Bit depth : 24 bits
Compression mode : Lossy
Stream size : 640 MiB (2%)

Audio #7
ID : 4358 (0x1106)
Menu ID : 1 (0x1)
Format : DTS
Format/Info : Digital Theater Systems
Codec ID : 130
Duration : 1h 58mn
Bit rate mode : Constant
Bit rate : 755 Kbps
Channel(s) : 6 channels
Channel positions : Front: L C R, Side: L R, LFE
Sampling rate : 48.0 KHz
Bit depth : 24 bits
Compression mode : Lossy
Stream size : 640 MiB (2%)

Audio #8
ID : 4359 (0x1107)
Menu ID : 1 (0x1)
Format : DTS
Format/Info : Digital Theater Systems
Codec ID : 130
Duration : 1h 58mn
Bit rate mode : Constant
Bit rate : 755 Kbps
Channel(s) : 6 channels
Channel positions : Front: L C R, Side: L R, LFE
Sampling rate : 48.0 KHz
Bit depth : 24 bits
Compression mode : Lossy
Stream size : 640 MiB (2%)

Audio #9
ID : 4360 (0x1108)
Menu ID : 1 (0x1)
Format : AC-3
Format/Info : Audio Coding 3
Format profile : Dolby Digital
Mode extension : CM (complete main)
Codec ID : 129
Duration : 1h 58mn
Bit rate mode : Constant
Bit rate : 192 Kbps
Channel(s) : 2 channels
Channel positions : Front: L R
Sampling rate : 48.0 KHz
Bit depth : 16 bits
Compression mode : Lossy
Stream size : 163 MiB (0%)

Audio #10
ID : 6656 (0x1A00)
Menu ID : 1 (0x1)
Format : DTS
Format/Info : Digital Theater Systems
Format profile : Express
Codec ID : 162
Duration : 1h 58mn
Bit rate mode : Constant
Bit rate : 192 Kbps
Channel(s) : 2 channels
Channel positions : Front: L R
Sampling rate : 48.0 KHz
Bit depth : 24 bits
Compression mode : Lossy
Stream size : 163 MiB (0%)
Комментарии режиссера ДагаЛаймана
Идентификация Луалэма
Превосходство Луд лэма
Ультиматум Лудлэма
Альтернативные версии начала и концовки
Удаленные сцены
Расширенная версия эпизода "На ферме"
Появление "Идентификации Борна"
Создатель Борна: Роберт Лудлэм
Добро пожаловать: Интервью с одним из сценаристов Тони Гилроем
От Идентификации к Превосходству: Джейсон и Мари
Диагноз Борна
Шпионаж - секретные операции
Как снимали драки
Видеоклип Moby "Extreme Ways"
* По графику выход картины был намечен на июнь 2001 года. Задержка была обусловлена желанием режиссера Дага Лимана переснять некоторые сцены фильма. В частности, знаменитую сцену погони в середине фильма.
* Режиссер Даг Лиман не разрешил сценаристу Тони Гилрою прочитать одноименную повесть «Идентификация Борна», по мотивам которой и снимался кинофильм. Вместо этого Даг подготовил набросок сценария, с которым и пришлось возиться господину Гилрою.
* Персонаж Клайва Оуэна в картине катается на автомобиле марки BMW. Любопытно, что Клайв является рекламным лицом BMW — на его счету несколько рекламных роликов.
* Брайан Кокс (Уорд Эббот) уже играл в фильме об убийце, страдающем потерей памяти после перенесенной травмы, в картине 1996 года «Долгий поцелуй на ночь».
* Один из редких фильмов, не обремененных нагрузкой в виде начальных титров.
* Большинство статистов, американских солдат при американском посольстве в Цюрихе, были настоящими морскими пехотинцами, отправленными в Европу по требованию продюсера Фрэнка Маршалла. Разумеется, специальной униформой снабжать их не потребовалось. Вместе с режиссером они работали над диалогами (которые все-таки выкинули из фильма), и разрабатывали тактические схемы для съемок операции в посольстве.
* Композитор Картер Барвелл активно работал над звуковой дорожкой к кинофильму, однако из-за задержки релиза был вынужден покинуть проект в 2001 году.
* В специальном издании фильма на DVD для второго региона отсутствует титр с названием картины как в театральной, так и альтернативной версиях. В начале фильма зритель видит только логотип студии Universal, однако титры появляются только в концовке картины, но в них также отсутствует титр с названием фильма.
* В начале фильма, Джейсон Борн смотрит на себя в зеркало и говорит на голландском: «Weet je wie ik ben? Hou dan godverdomme op met dat gezeik en zeg het me», - что означает: «Ты знаешь, кто я? Тогда хватит нести чушь и скажи мне».
* Винтовка Профессора - Swiss SIG 550 Sniper.
* Пистолет, который Борн обнаруживает в ячейке банка в Цюрихе, - SIG-Sauer SIG Pro SP2009 (9mm).
* В первой версии сценария, Мари была американской, её фамилия – Парселл, и у неё были зеленые волосы. В фильме, она – немка, её фамилия – Кройц, и она несколько раз меняет цвет своих волос по ходу действия картины.
* Изначально фильм должен был выйти на экраны 7 сентября 2001 года. Но когда авторы картины решили переделать концовку, премьеру отодвинули на 31 мая 2002 года. После чего дата выхода изменилась еще раз на 14 июня 2002.
* Роберт Ладлэм, автор книг о Джейсоне Борне, умер во время постпродакшна, 12 марта 2001 года.
* Роль Джейсона Борна была предложена Брэду Питту, однако он предпочел сыграть в «Шпионских играх» (2001).
* Съёмки сцен с участием Брайана Кокса и Криса Купера заняли около пяти дней. Однако позднее оба актера вновь появились на съёмочной площадке, для того чтобы принять участие в пересъёмках.
* Джуди Парфитт сыграла психолога, однако сцена с её участием была вырезана из фильма. Данный эпизод можно посмотреть на DVD в разделе «Удаленные сцены».
* Техника рукопашного боя Джейсона Борна сочетает в себе Крав Магу и Эскриму/Кали.
* Одним из авторов сценария, датированного 2 сентября 2000, числится Дэвид Селф. Однако в готовом фильме его имени нет среди сценаристов.
* Количество трупов: 8
* Средняя продолжительность кадра – 4 секунды.
* При детальном рассмотрении загранпаспорта «героя-россиянина» взору зрителя предстает беспорядочный набор кириллических знаков. Если имя и фамилия героя по-английски написаны как Foma Kiniaev, то в русском варианте он звучит так: Ащьф Лштшфум. Похоже, создатели картины решили не утруждать себя переводом, а попросту взяли клавиатуру с русскими буквами и нажали на те же клавиши, что и на латинице. Кроме того, в паспорте что-то приписано по-испански. Там же есть слово «Российская Федерация», которая выглядит как «РоссийЖая».
* Среди предметов, которые Борн находит в своём депозитном ящике в Гемайнтшафтбанке в Цюрихе — кредитная карточка Американ Экспресс и довольно редкая карта постоянного клиента Air France Club 2000. Она выдаётся только менеджменту компании Air France, и корпоративным клиентам, которые распоряжаются миллионными бюджетами на перелёты.
"Год выпуска: 2004
Страна: США , Германия
Жанр: Боевик, детектив, триллер
Продолжительность: 01:48:31
Перевод: Дублированный
Субтитры: Английские, болгарские, хорватские, чешские, греческие, иврит, венгерские, исландские, польские, португальские, румынские, русские, испанские, тайские, турецкие
Режиссер: Пол Гринграсс / Paul Greengrass
В ролях: Мэтт Дэймон / Matt Damon, Карл Урбан / Karl Urban, Брайан Кокс / Brian Cox, Джоан Аллен / Joan Allen, Франка Потенте / Franka Potente, Джулия Стайлз / Julia Stiles, Гэбриел Манн / Gabriel Mann, Мишель Монахэн / Michelle Monaghan, Карел Роден / Karel Roden, Оксана Акиньшина и другие
Описание:Суперагент ЦРУ Джейсон Борн вновь оказывается подставленным и вынужден помимо возложенной на него задачи государственного значения спасать себя, а заодно и других небезразличных ему людей.

В процессе выполнения миссии судьба заносит Борна в Россию, где его ждет множество характерных для страны, но непривычных западному человеку сюрпризов.
Качество: Blu-Ray Disc 50
Формат: BDMV
Видео кодек: VC-1
Аудио кодек: Digital Theater Systems, AC-3
Видео: 1920x1080, VC-1, 43.1 Mbps, 23,976 fps, 1080p, 16:9
Аудио#1: DTS-HD Master Audio, English, 4231 kbps, 5.1, 48 kHz, 4308 kbps, 24-bit (DTS Core : 5.1, 48 kHz, 1509 kbps, 24-bit)
Аудио#2: DTS Audio, Czech, 768 kbps, 5.1, 48 kHz, 768 kbps, 24-bit
Аудио#3: DTS Audio, Hungarian, 768 kbps, 5.1, 48 kHz, 768 kbps, 24-bit
Аудио#4: DTS Audio, Polish, 768 kbps, 5.1, 48 kHz, 768 kbps, 24-bit
Аудио#5: DTS Audio, Portuguese, 768 kbps, 5.1, 48 kHz, 768 kbps, 24-bit
Аудио#6: DTS Audio, Russian, 768 kbps, 5.1, 48 kHz, 768 kbps, 24-bit Аудио#7:
Аудио#8: DTS Audio, Spanish, 768 kbps, 5.1, 48 kHz, 768 kbps, 24-bit
Аудио#9: DTS Audio, Thai, 768 kbps, 5.1, 48 kHz, 768 kbps, 24-bit
Аудио#10: Dolby Digital Audio, English, 192 kbps, 2.0, 48 kHz, 192 kbps, DN -4dB, Dolby Surroun
Аудио#11DTS Express, English, 192 kbps, 2.0, 48 kHz, 192 kbps, 24-bit:
DISC INFO:
Disc Size: 44,032,110,995 bytes
Protection: AACS
BD-Java: Yes
BDInfo: 0.5.3

PLAYLIST REPORT:

Name: 00001.MPLS
Length: 1:48:31 (h:m:s)
Size: 35,082,491,904 bytes
Total Bitrate: 43,10 Mbps

Звезда Indicates included stream hidden by this playlist.

VIDEO:

Codec Bitrate Description
----- ------- -----------
VC-1 Video 28031 kbps 1080p / 23,976 fps / 16:9 / Advanced Profile 3
* VC-1 Video 2002 kbps 480p / 23,976 fps / 4:3 / Advanced Profile 2
* VC-1 Video 155 kbps 480p / 23,976 fps / 16:9 / Advanced Profile 2

AUDIO:

Codec Language Bitrate Description
----- -------- ------- -----------
DTS-HD Master Audio English 4231 kbps 5.1 / 48 kHz / 4231 kbps / 24-bit (DTS Core: 5.1 / 48 kHz / 1509 kbps / 24-bit)
DTS Audio Czech 768 kbps 5.1 / 48 kHz / 768 kbps / 24-bit
DTS Audio Hungarian 768 kbps 5.1 / 48 kHz / 768 kbps / 24-bit
DTS Audio Polish 768 kbps 5.1 / 48 kHz / 768 kbps / 24-bit
DTS Audio Portuguese 768 kbps 5.1 / 48 kHz / 768 kbps / 24-bit
DTS Audio Russian 768 kbps 5.1 / 48 kHz / 768 kbps / 24-bit
DTS Audio Spanish 768 kbps 5.1 / 48 kHz / 768 kbps / 24-bit
DTS Audio Thai 768 kbps 5.1 / 48 kHz / 768 kbps / 24-bit
Dolby Digital Audio English 192 kbps 2.0 / 48 kHz / 192 kbps / DN -4dB / Dolby Surround
* DTS Express English 192 kbps 2.0 / 48 kHz / 192 kbps / 24-bit

SUBTITLES:

Codec Language Bitrate Description
----- -------- ------- -----------
Presentation Graphics English 24,677 kbps
Presentation Graphics Bulgarian 18,426 kbps
Presentation Graphics Croatian 17,018 kbps
Presentation Graphics Czech 18,628 kbps
Presentation Graphics Czech 1,418 kbps
Presentation Graphics Greek 19,187 kbps
Presentation Graphics Hebrew 12,879 kbps
Presentation Graphics Hungarian 19,010 kbps
Presentation Graphics Hungarian 1,835 kbps
Presentation Graphics Icelandic 20,327 kbps
Presentation Graphics Polish 19,384 kbps
Presentation Graphics Portuguese 19,190 kbps
Presentation Graphics Portuguese 1,450 kbps
Presentation Graphics Romanian 19,770 kbps
Presentation Graphics Russian 1,261 kbps
Presentation Graphics Spanish 21,909 kbps
Presentation Graphics Spanish 1,208 kbps
Presentation Graphics Thai 18,544 kbps
Presentation Graphics Thai 1,947 kbps
Presentation Graphics Turkish 19,947 kbps
\BORN_TRILOGY_BD_BLUEBIRD\BOURNE_SUPREM_G52\BDMV\STREAM\00009.m2ts
Format : BDAV
Format/Info : Blu-ray Video
File size : 32.7 GiB
Duration : 1h 48mn
Overall bit rate : 43.1 Mbps
Maximum Overall bit rate : 48.0 Mbps

Video #1
ID : 4113 (0x1011)
Menu ID : 1 (0x1)
Format : VC-1
Format profile : AP@L3
Codec ID : 234
Duration : 1h 48mn
Width : 1 920 pixels
Height : 1 080 pixels
Display aspect ratio : 16:9
Frame rate : 23.976 fps
Chroma subsampling : 4:2:0
Bit depth : 8 bits
Scan type : Progressive
Compression mode : Lossy

Video #2
ID : 6912 (0x1B00)
Menu ID : 1 (0x1)
Format : VC-1
Format profile : AP@L2
Codec ID : 234
Duration : 1h 48mn
Width : 720 pixels
Height : 480 pixels
Display aspect ratio : 4:3
Frame rate : 23.976 fps
Standard : NTSC
Chroma subsampling : 4:2:0
Bit depth : 8 bits
Scan type : Progressive
Compression mode : Lossy

Video #3
ID : 6913 (0x1B01)
Menu ID : 1 (0x1)
Format : VC-1
Format profile : AP@L2
Codec ID : 234
Duration : 1h 48mn
Width : 720 pixels
Height : 480 pixels
Display aspect ratio : 16:9
Frame rate : 23.976 fps
Standard : NTSC
Chroma subsampling : 4:2:0
Bit depth : 8 bits
Scan type : Progressive
Compression mode : Lossy

Audio #1
ID : 4352 (0x1100)
Menu ID : 1 (0x1)
Format : DTS
Format/Info : Digital Theater Systems
Codec ID : 130
Duration : 1h 48mn
Bit rate mode : Constant
Bit rate : 755 Kbps
Channel(s) : 6 channels
Channel positions : Front: L C R, Side: L R, LFE
Sampling rate : 48.0 KHz
Bit depth : 24 bits
Compression mode : Lossy
Stream size : 586 MiB (2%)

Audio #2
ID : 4353 (0x1101)
Menu ID : 1 (0x1)
Format : DTS
Format/Info : Digital Theater Systems
Format profile : MA / Core
Muxing mode : Stream extension
Codec ID : 134
Duration : 1h 48mn
Bit rate mode : Variable
Bit rate : 1 783 Kbps / 1 510 Kbps
Channel(s) : 6 channels
Channel positions : Front: L C R, Side: L R, LFE
Sampling rate : 48.0 KHz
Bit depth : 24 bits
Compression mode : Lossless / Lossy

Audio #3
ID : 4354 (0x1102)
Menu ID : 1 (0x1)
Format : DTS
Format/Info : Digital Theater Systems
Codec ID : 130
Duration : 1h 48mn
Bit rate mode : Constant
Bit rate : 755 Kbps
Channel(s) : 6 channels
Channel positions : Front: L C R, Side: L R, LFE
Sampling rate : 48.0 KHz
Bit depth : 24 bits
Compression mode : Lossy
Stream size : 586 MiB (2%)

Audio #4
ID : 4355 (0x1103)
Menu ID : 1 (0x1)
Format : DTS
Format/Info : Digital Theater Systems
Codec ID : 130
Duration : 1h 48mn
Bit rate mode : Constant
Bit rate : 755 Kbps
Channel(s) : 6 channels
Channel positions : Front: L C R, Side: L R, LFE
Sampling rate : 48.0 KHz
Bit depth : 24 bits
Compression mode : Lossy
Stream size : 586 MiB (2%)

Audio #5
ID : 4356 (0x1104)
Menu ID : 1 (0x1)
Format : DTS
Format/Info : Digital Theater Systems
Codec ID : 130
Duration : 1h 48mn
Bit rate mode : Constant
Bit rate : 755 Kbps
Channel(s) : 6 channels
Channel positions : Front: L C R, Side: L R, LFE
Sampling rate : 48.0 KHz
Bit depth : 24 bits
Compression mode : Lossy
Stream size : 586 MiB (2%)

Audio #6
ID : 4357 (0x1105)
Menu ID : 1 (0x1)
Format : DTS
Format/Info : Digital Theater Systems
Codec ID : 130
Duration : 1h 48mn
Bit rate mode : Constant
Bit rate : 755 Kbps
Channel(s) : 6 channels
Channel positions : Front: L C R, Side: L R, LFE
Sampling rate : 48.0 KHz
Bit depth : 24 bits
Compression mode : Lossy
Stream size : 586 MiB (2%)

Audio #7
ID : 4358 (0x1106)
Menu ID : 1 (0x1)
Format : AC-3
Format/Info : Audio Coding 3
Format profile : Dolby Digital
Mode extension : CM (complete main)
Codec ID : 129
Duration : 1h 48mn
Bit rate mode : Constant
Bit rate : 192 Kbps
Channel(s) : 2 channels
Channel positions : Front: L R
Sampling rate : 48.0 KHz
Bit depth : 16 bits
Compression mode : Lossy
Stream size : 149 MiB (0%)

Audio #8
ID : 4359 (0x1107)
Menu ID : 1 (0x1)
Format : DTS
Format/Info : Digital Theater Systems
Codec ID : 130
Duration : 1h 48mn
Bit rate mode : Constant
Bit rate : 755 Kbps
Channel(s) : 6 channels
Channel positions : Front: L C R, Side: L R, LFE
Sampling rate : 48.0 KHz
Bit depth : 24 bits
Compression mode : Lossy
Stream size : 586 MiB (2%)

Audio #9
ID : 4360 (0x1108)
Menu ID : 1 (0x1)
Format : DTS
Format/Info : Digital Theater Systems
Codec ID : 130
Duration : 1h 48mn
Bit rate mode : Constant
Bit rate : 755 Kbps
Channel(s) : 6 channels
Channel positions : Front: L C R, Side: L R, LFE
Sampling rate : 48.0 KHz
Bit depth : 24 bits
Compression mode : Lossy
Stream size : 586 MiB (2%)

Audio #10
ID : 6656 (0x1A00)
Menu ID : 1 (0x1)
Format : DTS
Format/Info : Digital Theater Systems
Format profile : Express
Codec ID : 162
Duration : 1h 48mn
Bit rate mode : Constant
Bit rate : 192 Kbps
Channel(s) : 2 channels
Channel positions : Front: L R
Sampling rate : 48.0 KHz
Bit depth : 24 bits
Compression mode : Lossy
Stream size : 149 MiB (0%)

Text #1
ID : 4608 (0x1200)
Menu ID : 1 (0x1)
Format : PGS
Codec ID : 144

Text #2
ID : 4610 (0x1202)
Menu ID : 1 (0x1)
Format : PGS
Codec ID : 144

Text #3
ID : 4611 (0x1203)
Menu ID : 1 (0x1)
Format : PGS
Codec ID : 144

Text #4
ID : 4612 (0x1204)
Menu ID : 1 (0x1)
Format : PGS
Codec ID : 144

Text #5
ID : 4614 (0x1206)
Menu ID : 1 (0x1)
Format : PGS
Codec ID : 144

Text #6
ID : 4615 (0x1207)
Menu ID : 1 (0x1)
Format : PGS
Codec ID : 144

Text #7
ID : 4616 (0x1208)
Menu ID : 1 (0x1)
Format : PGS
Codec ID : 144

Text #8
ID : 4617 (0x1209)
Menu ID : 1 (0x1)
Format : PGS
Codec ID : 144

Text #9
ID : 4618 (0x120A)
Menu ID : 1 (0x1)
Format : PGS
Codec ID : 144

Text #10
ID : 4619 (0x120B)
Menu ID : 1 (0x1)
Format : PGS
Codec ID : 144

Text #11
ID : 4620 (0x120C)
Menu ID : 1 (0x1)
Format : PGS
Codec ID : 144

Text #12
ID : 4621 (0x120D)
Menu ID : 1 (0x1)
Format : PGS
Codec ID : 144

Text #13
ID : 4622 (0x120E)
Menu ID : 1 (0x1)
Format : PGS
Codec ID : 144

Text #14
ID : 4623 (0x120F)
Menu ID : 1 (0x1)
Format : PGS
Codec ID : 144

Text #15
ID : 4624 (0x1210)
Menu ID : 1 (0x1)
Format : PGS
Codec ID : 144

Text #16
ID : 4625 (0x1211)
Menu ID : 1 (0x1)
Format : PGS
Codec ID : 144

Text #17
ID : 4627 (0x1213)
Menu ID : 1 (0x1)
Format : PGS
Codec ID : 144
Комментарии режиссера Пола Гринграсса
Взрывные удаленные сцены
Идентификация персонажей: кастинг
Чтобы зритель поверил
Взорвать все
Борн - рожденный быть свободным: репетиции боев
Камеры вдребезги: гонки по улицам Москвы
Гоумобипь вперед летит
Анатомия эпизода: погоня на взрывающемся мосту
Музыка с Джоном Пауэлллом
Тот, кто стоит за Борном (часть 2)
Диагноз Борна (часть 2)
* Брайан Хелджлэнд доводил сценарий до ума, однако его имя не упоминается в титрах.
* Для того чтобы достичь эффекта документального кино, подавляющая часть фильма была снята ручными камерами. Режиссер также постарался избежать использования компьютерной графики. Поэтому практически все трюки в фильме выполнялись вживую, без применения спецэффектов.
* Различные приспособления, которые использует Борн на протяжении фильма, существуют на самом деле, и большинство из них можно купить в обычных магазинах.
* Шариковая ручка Борна – Rotring 600.
* Музыка, которую можно услышать в холле отеля «Hotel Brecker», - четвертая баллада Шопена.
* При съёмках сцены допроса в консульстве, Мэтт Дэймон случайно послал в нокаут Тима Гриффина, сыгравшего Джона Невинса.
* Изначально фильм должен был закончиться сценой, в которой Борн рассказывает дочери Нески о смерти её родителей. Однако на тест-просмотрах зрители посчитали такую концовку незаконченной и слишком размытой. Поэтому для фильма были сняты дополнительные сцены, где Борн разговаривает по телефону с Лэнди, и она говорит ему его настоящее имя. Дополнительные съёмки завершились всего за несколько недель до премьеры фильма.
* По большому счету фильм снимался в обратном порядке. Это означает, что съёмки в Москве прошли первыми, а в последнюю очередь снимали сцены на Гоа.
* По словам сценариста фильма Тони Гилроя, он постарался сделать не адаптацию книги для киноэкрана, а её переосмысление.
* В доме в Мюнхене, Джейсон Борн использует в качестве оружия свернутый журнал. Тактика его боя происходит из вида филиппинских единоборств – Эскрима. Данный стиль предполагает активное использование предметов из повседневного обихода, включая шариковые ручки (как это показано в «Идентификации Борна») и свернутые в трубочку газеты.
* Пистолет, которым пользуется Борн в Москве, - Sig Sauer PRO.
* Пистолет Кирилла - Walther P99.
* Количество трупов: 9.
* По первоначальной версии сценария, Борн должен был провести значительное время в индийской тюрьме.
* Сцена погони по московским улицам получила в 2005 году мировую премию в области трюков Таурус (англ. Taurus World Stunt Awards) в номинации «лучшая машина» (англ. Best Vehicle). Руководил постановкой этой автомобильной погони российский каскадер Виктор Иванов.
* Когда Борн звонит Памеле Ленди в Берлине, слышен голос, говорящий «Мне нужно 90 секунд, чтобы определить его положение». Борн прервал диалог спустя 88 секунд.
"Год выпуска: 2007
Страна: США , Германия
Жанр: Боевик, детектив, триллер
Продолжительность: 01:55:13
Перевод: Дублированный
Субтитры: Английские, болгарские, хорватские, чешские, греческие, иврит, венгерские, исландские, польские, португальские, румынские, русские, испанские, тайские, турецкие
Режиссер: Пол Гринграсс / Paul Greengrass
В ролях: Мэтт Дэймон / Matt Damon, Джулия Стайлз / Julia Stiles, Дэвид Стрэтэйрн / David Strathairn, Скотт Гленн / Scott Glenn, Пэдди Консидайн / Paddy Considine, Эдгар Рамирез / Paddy Considine, Эдгар Рамирез / Edgar Ramirez, Альберт Финни / Albert Finney, Джоан Аллен / Joan Allen, Джои Анса / Joey Ansah и другие
Описание:Он хотел одного — исчезнуть. Вместо этого за Борном теперь охотятся люди, которые сделали его таким, какой он есть. Он потерял память и человека, которого он любил. Но его не удается сдержать даже новому поколению профессиональных убийц. У него только одна цель: вернуться к началу и узнать кем он был, Джейсон Борн.

Он мечется от Москвы к Парижу, через Мадрид и Лондон в Танжер и Нью-Йорк, пытаясь раскрыть последние загадки своего прошлого, в то время, как правительственные агенты и Интерпол пытаются помешать ему восстановить всю картину до конца.
Качество: Blu-Ray Disc 50
Формат: BDMV
Видео кодек: VC-1
Аудио кодек: Digital Theater Systems, AC-3
Видео: 1920x1080, VC-1, 27512 kbps, 23,976 fps, 1080p, 16:9
Аудио#1: DTS-HD Master Audio, English, 4196 kbps, 5.1, 48 kHz, 4308 kbps, 24-bit (DTS Core : 5.1, 48 kHz, 1509 kbps, 24-bit)
Аудио#2: DTS Audio, Czech, 768 kbps, 5.1, 48 kHz, 768 kbps, 24-bit
Аудио#3: DTS Audio, Hungarian, 768 kbps, 5.1, 48 kHz 768 kbps 24-bit
Аудио#4: DTS Audio, Polish, 768 kbps, 5.1, 48 kHz, 768 kbps, 24-bit
Аудио#5: DTS Audio, Portuguese, 768 kbps, 5.1, 48 kHz, 768 kbps, 24-bit
Аудио#6: DTS Audio, Russian, 768 kbps, 5.1, 48 kHz, 768 kbps, 24-bit
Аудио#7: DTS Audio, Spanish, 768 kbps, 5.1, 48 kHz 768 kbps, 24-bit
Аудио#8: DTS Audio, Thai, 768 kbps, 5.1, 48 kHz, 768 kbps, 24-bit
Аудио#9: Dolby Digital Audio, English, 192 kbps, 2.0, 48 kHz, 192 kbps, DN -4dB, Dolby Surround
Аудио#10: DTS Express, English, 192 kbps, 2.0, 48 kHz, 192 kbps, 24-bit
DISC INFO:
Disc Size: 43,643,059,522 bytes
Protection: AACS
BD-Java: Yes
BDInfo: 0.5.3

PLAYLIST REPORT:

Name: 00000.MPLS
Length: 1:55:13 (h:m:s)
Size: 28,764,704,640 bytes
Total Bitrate: 33,28 Mbps

VIDEO:

Codec Bitrate Description
----- ------- -----------
VC-1 Video 27512 kbps 1080p / 23,976 fps / 16:9 / Advanced Profile 3
VC-1 Video 1438 kbps 480p / 23,976 fps / 16:9 / Advanced Profile 2
VC-1 Video 89 kbps 480p / 23,976 fps / 16:9 / Advanced Profile 2

AUDIO:

Codec Language Bitrate Description
----- -------- ------- -----------
DTS-HD Master Audio English 4196 kbps 5.1 / 48 kHz / 4196 kbps / 24-bit (DTS Core: 5.1 / 48 kHz / 1509 kbps / 24-bit)
DTS Audio Czech 768 kbps 5.1 / 48 kHz / 768 kbps / 24-bit
DTS Audio Hungarian 768 kbps 5.1 / 48 kHz / 768 kbps / 24-bit
DTS Audio Polish 768 kbps 5.1 / 48 kHz / 768 kbps / 24-bit
DTS Audio Portuguese 768 kbps 5.1 / 48 kHz / 768 kbps / 24-bit
DTS Audio Russian 768 kbps 5.1 / 48 kHz / 768 kbps / 24-bit
DTS Audio Spanish 768 kbps 5.1 / 48 kHz / 768 kbps / 24-bit
DTS Audio Thai 768 kbps 5.1 / 48 kHz / 768 kbps / 24-bit
Dolby Digital Audio English 192 kbps 2.0 / 48 kHz / 192 kbps / DN -4dB / Dolby Surround
DTS Express English 192 kbps 2.0 / 48 kHz / 192 kbps / 24-bit

SUBTITLES:

Codec Language Bitrate Description
----- -------- ------- -----------
Presentation Graphics English 29,636 kbps
Presentation Graphics English 0,782 kbps
Presentation Graphics Bulgarian 21,127 kbps
Presentation Graphics Croatian 18,801 kbps
Presentation Graphics Czech 22,452 kbps
Presentation Graphics Czech 2,787 kbps
Presentation Graphics Greek 22,795 kbps
Presentation Graphics Hebrew 16,343 kbps
Presentation Graphics Hungarian 22,158 kbps
Presentation Graphics Hungarian 2,800 kbps
Presentation Graphics Icelandic 24,510 kbps
Presentation Graphics Polish 18,777 kbps
Presentation Graphics Portuguese 22,103 kbps
Presentation Graphics Portuguese 1,516 kbps
Presentation Graphics Romanian 19,687 kbps
Presentation Graphics Russian 1,925 kbps
Presentation Graphics Spanish 20,659 kbps
Presentation Graphics Spanish 2,252 kbps
Presentation Graphics Thai 18,963 kbps
Presentation Graphics Thai 0,291 kbps
Presentation Graphics Turkish 28,633 kbps
General
ID : 0 (0x0)
Complete name : P:\Видео\Фильмы\BORN_TRILOGY_BD_BLUEBIRD\BOURNE_ULTIM_G52\BDMV\STREAM\00009.m2ts
Format : BDAV
Format/Info : Blu-ray Video
File size : 32.6 GiB
Duration : 1h 55mn
Overall bit rate : 40.5 Mbps
Maximum Overall bit rate : 48.0 Mbps

Video #1
ID : 4113 (0x1011)
Menu ID : 1 (0x1)
Format : VC-1
Format profile : AP@L3
Codec ID : 234
Duration : 1h 55mn
Width : 1 920 pixels
Height : 1 080 pixels
Display aspect ratio : 16:9
Frame rate : 23.976 fps
Chroma subsampling : 4:2:0
Bit depth : 8 bits
Scan type : Progressive
Compression mode : Lossy

Video #2
ID : 6912 (0x1B00)
Menu ID : 1 (0x1)
Format : VC-1
Format profile : AP@L2
Codec ID : 234
Duration : 1h 55mn
Width : 720 pixels
Height : 480 pixels
Display aspect ratio : 16:9
Frame rate : 23.976 fps
Standard : NTSC
Chroma subsampling : 4:2:0
Bit depth : 8 bits
Scan type : Progressive
Compression mode : Lossy

Video #3
ID : 6913 (0x1B01)
Menu ID : 1 (0x1)
Format : VC-1
Format profile : AP@L2
Codec ID : 234
Duration : 1h 55mn
Width : 720 pixels
Height : 480 pixels
Display aspect ratio : 16:9
Frame rate : 23.976 fps
Standard : NTSC
Chroma subsampling : 4:2:0
Bit depth : 8 bits
Scan type : Progressive
Compression mode : Lossy

Audio #1
ID : 4352 (0x1100)
Menu ID : 1 (0x1)
Format : DTS
Format/Info : Digital Theater Systems
Format profile : MA / Core
Muxing mode : Stream extension
Codec ID : 134
Duration : 1h 55mn
Bit rate mode : Variable
Bit rate : 1 783 Kbps / 1 510 Kbps
Channel(s) : 6 channels
Channel positions : Front: L C R, Side: L R, LFE
Sampling rate : 48.0 KHz
Bit depth : 24 bits
Compression mode : Lossless / Lossy

Audio #2
ID : 4353 (0x1101)
Menu ID : 1 (0x1)
Format : DTS
Format/Info : Digital Theater Systems
Codec ID : 130
Duration : 1h 55mn
Bit rate mode : Constant
Bit rate : 755 Kbps
Channel(s) : 6 channels
Channel positions : Front: L C R, Side: L R, LFE
Sampling rate : 48.0 KHz
Bit depth : 24 bits
Compression mode : Lossy
Stream size : 622 MiB (2%)

Audio #3
ID : 4354 (0x1102)
Menu ID : 1 (0x1)
Format : DTS
Format/Info : Digital Theater Systems
Codec ID : 130
Duration : 1h 55mn
Bit rate mode : Constant
Bit rate : 755 Kbps
Channel(s) : 6 channels
Channel positions : Front: L C R, Side: L R, LFE
Sampling rate : 48.0 KHz
Bit depth : 24 bits
Compression mode : Lossy
Stream size : 622 MiB (2%)

Audio #4
ID : 4355 (0x1103)
Menu ID : 1 (0x1)
Format : DTS
Format/Info : Digital Theater Systems
Codec ID : 130
Duration : 1h 55mn
Bit rate mode : Constant
Bit rate : 755 Kbps
Channel(s) : 6 channels
Channel positions : Front: L C R, Side: L R, LFE
Sampling rate : 48.0 KHz
Bit depth : 24 bits
Compression mode : Lossy
Stream size : 622 MiB (2%)

Audio #5
ID : 4356 (0x1104)
Menu ID : 1 (0x1)
Format : DTS
Format/Info : Digital Theater Systems
Codec ID : 130
Duration : 1h 55mn
Bit rate mode : Constant
Bit rate : 755 Kbps
Channel(s) : 6 channels
Channel positions : Front: L C R, Side: L R, LFE
Sampling rate : 48.0 KHz
Bit depth : 24 bits
Compression mode : Lossy
Stream size : 622 MiB (2%)

Audio #6
ID : 4357 (0x1105)
Menu ID : 1 (0x1)
Format : DTS
Format/Info : Digital Theater Systems
Codec ID : 130
Duration : 1h 55mn
Bit rate mode : Constant
Bit rate : 755 Kbps
Channel(s) : 6 channels
Channel positions : Front: L C R, Side: L R, LFE
Sampling rate : 48.0 KHz
Bit depth : 24 bits
Compression mode : Lossy
Stream size : 622 MiB (2%)

Audio #7
ID : 4358 (0x1106)
Menu ID : 1 (0x1)
Format : DTS
Format/Info : Digital Theater Systems
Codec ID : 130
Duration : 1h 55mn
Bit rate mode : Constant
Bit rate : 755 Kbps
Channel(s) : 6 channels
Channel positions : Front: L C R, Side: L R, LFE
Sampling rate : 48.0 KHz
Bit depth : 24 bits
Compression mode : Lossy
Stream size : 622 MiB (2%)

Audio #8
ID : 4359 (0x1107)
Menu ID : 1 (0x1)
Format : DTS
Format/Info : Digital Theater Systems
Codec ID : 130
Duration : 1h 55mn
Bit rate mode : Constant
Bit rate : 755 Kbps
Channel(s) : 6 channels
Channel positions : Front: L C R, Side: L R, LFE
Sampling rate : 48.0 KHz
Bit depth : 24 bits
Compression mode : Lossy
Stream size : 622 MiB (2%)

Audio #9
ID : 4360 (0x1108)
Menu ID : 1 (0x1)
Format : AC-3
Format/Info : Audio Coding 3
Format profile : Dolby Digital
Mode extension : CM (complete main)
Codec ID : 129
Duration : 1h 55mn
Bit rate mode : Constant
Bit rate : 192 Kbps
Channel(s) : 2 channels
Channel positions : Front: L R
Sampling rate : 48.0 KHz
Bit depth : 16 bits
Compression mode : Lossy
Stream size : 158 MiB (0%)

Audio #10
ID : 6656 (0x1A00)
Menu ID : 1 (0x1)
Format : DTS
Format/Info : Digital Theater Systems
Format profile : Express
Codec ID : 162
Duration : 1h 55mn
Bit rate mode : Constant
Bit rate : 192 Kbps
Channel(s) : 2 channels
Channel positions : Front: L R
Sampling rate : 48.0 KHz
Bit depth : 24 bits
Compression mode : Lossy
Stream size : 158 MiB (0%)

Text #1
ID : 4609 (0x1201)
Menu ID : 1 (0x1)
Format : PGS
Codec ID : 144

Text #2
ID : 4610 (0x1202)
Menu ID : 1 (0x1)
Format : PGS
Codec ID : 144

Text #3
ID : 4611 (0x1203)
Menu ID : 1 (0x1)
Format : PGS
Codec ID : 144

Text #4
ID : 4613 (0x1205)
Menu ID : 1 (0x1)
Format : PGS
Codec ID : 144

Text #5
ID : 4614 (0x1206)
Menu ID : 1 (0x1)
Format : PGS
Codec ID : 144

Text #6
ID : 4615 (0x1207)
Menu ID : 1 (0x1)
Format : PGS
Codec ID : 144

Text #7
ID : 4616 (0x1208)
Menu ID : 1 (0x1)
Format : PGS
Codec ID : 144

Text #8
ID : 4617 (0x1209)
Menu ID : 1 (0x1)
Format : PGS
Codec ID : 144

Text #9
ID : 4618 (0x120A)
Menu ID : 1 (0x1)
Format : PGS
Codec ID : 144

Text #10
ID : 4619 (0x120B)
Menu ID : 1 (0x1)
Format : PGS
Codec ID : 144

Text #11
ID : 4620 (0x120C)
Menu ID : 1 (0x1)
Format : PGS
Codec ID : 144

Text #12
ID : 4621 (0x120D)
Menu ID : 1 (0x1)
Format : PGS
Codec ID : 144

Text #13
ID : 4623 (0x120F)
Menu ID : 1 (0x1)
Format : PGS
Codec ID : 144

Text #14
ID : 4624 (0x1210)
Menu ID : 1 (0x1)
Format : PGS
Codec ID : 144

Text #15
ID : 4625 (0x1211)
Menu ID : 1 (0x1)
Format : PGS
Codec ID : 144

Text #16
ID : 4627 (0x1213)
Menu ID : 1 (0x1)
Format : PGS
Codec ID : 144

Text #17
ID : 4628 (0x1214)
Menu ID : 1 (0x1)
Format : PGS
Codec ID : 144
Комментарии режиссера Пола Гринграсса
Удаленные сцены
Стань Борном: уроки шпионажа
В бегах: Джейсон Борн
Погоня по крышам
Учимся драться
Уроки вождения
Погоня в Нью-Йорке
* Начало фильма, а именно где Борн находится в Москве, снимали на самом деле в Берлине.
* Съемочная группа фильма насчитывала 250 человек, так что при перелетах приходилось фрахтовать отдельный самолет.
* Чтобы снять погоню на улицах Танжера, камеры подвесили на кабель, протянутый над крышами домов.
* Сцена, в которой Борн спрашивает Никки о своем прошлом снималась на шоссе к юго-западу от Мадрида.
* Съёмочной группе не удалось закрыть хотя бы ненадолго вокзал Ватерлоо, поэтому в кадре видно, что пешеходы рассматривают и показывают пальцами на съёмочную камеру.
* Среди файлов, который Борн ворует из офиса ЦРУ, есть файл ликвидированного агента, на котором стоит фото актёра Ричарда Чемберлена, исполнившего роль Борна в телепостановке 1988 года.
* Короткую погоню и аварии в центре Нью-Йорка снимали шесть недель.
* На книжной полке в кабинете Восена можно увидеть автобиографию Билла Клинтона «Моя жизнь».
* Во время сцены в нью-йоркском офисе ЦРУ на одном из компьютером можно увидеть изображение Дональда Рамсфельда.
Релиз от by Dekapot & Respect1997
info [Профиль]  [ЛС] 

LiLS

Пол: Пол:Муж

Стаж: 5 лет 5 месяцев

Сообщений: 125

СССР
Рейтинг

post 23-Дек-2011 22:24 (спустя 14 часов) [-]1[+]

[Цитировать] 

Скорее бы ещё 4 часть http://www.kinopoisk.ru/level/1/film/409194/ Улыбаюсь

_________________
info [Профиль]  [ЛС] 

Stalker1990

Пол: Пол:Муж

Стаж: 7 лет 5 месяцев

Сообщений: 115

Украина
Рейтинг

post 23-Дек-2011 22:46 (спустя 22 минуты) [-]0[+]

[Цитировать] 

Хорошие фильмы, однозначно стоит посмотреть.
info [Профиль]  [ЛС] 

LiLS

Пол: Пол:Муж

Стаж: 5 лет 5 месяцев

Сообщений: 125

СССР
Рейтинг

post 24-Дек-2011 05:29 (спустя 6 часов) [-]1[+]

[Цитировать] 

Stalker1990 писал(а):

Хорошие фильмы, однозначно стоит посмотреть.
Да действительно kolob_117 Обычно у фильмов первая часть если офигенная, то вторая и последующие УГ ещё то, но в Борне мне лично все части нравятся, вот решил себе в блюрике схоронить на харде это добро Улыбаюсь

_________________
info [Профиль]  [ЛС] 

FuriouSAngeL

Пол: Пол:Муж

Стаж: 5 лет 5 месяцев

Сообщений: 1830

Германия
Рейтинг

post 25-Дек-2011 17:14 (спустя 1 день 11 часов) [-]0[+]

[Цитировать] 

одна из лучших трилогий kolob_123 стоит на полке в домашней коллекции рядом с "Матрицей" и "Властелином колец"

p.S. четвертую часть не жду, ибо будет уже не тот Джейсон Борн

_________________
info [Профиль]  [ЛС] 

LiLS

Пол: Пол:Муж

Стаж: 5 лет 5 месяцев

Сообщений: 125

СССР
Рейтинг

post 25-Дек-2011 18:50 (спустя 1 час 36 минут) [-]1[+]

[Цитировать] 

FuriouSAngeL писал(а):

одна из лучших трилогий kolob_123 стоит на полке в домашней коллекции рядом с "Матрицей" и "Властелином колец"

p.S. четвертую часть не жду, ибо будет уже не тот Джейсон Борн
Рад что понравилось Подмигиваю Я 4 всё таки дождусь в блюрике, потом добавлю для квадрологии Улыбаюсь Хотя да Мэта Дэймона похоже уже не будет, так что уже малость не тот Борн будет Грущу
P.S
Часика на 2-3 ухожу с раздачи, в 21:00 по мск скорость 20мб так что качайте Подмигиваю

_________________
info [Профиль]  [ЛС] 

IzuveR

Пол: Пол:Муж

Стаж: 6 лет 11 месяцев

Сообщений: 109

Россия
Рейтинг

post 25-Дек-2011 20:26 (спустя 1 час 36 минут) [-]0[+]

[Цитировать] 

только недавно пересмотрел трилогию, жду 4 часть

_________________
info [Профиль]  [ЛС] 

AlexFormula

Пол: Пол:Муж

Стаж: 7 лет 8 месяцев

Сообщений: 16621

Рейтинг

post 25-Дек-2011 20:55 (спустя 28 минут) [-]0[+]

[Цитировать] 

Формат не BDAV, а BDMV.
info [Профиль]  [ЛС] 

LiLS

Пол: Пол:Муж

Стаж: 5 лет 5 месяцев

Сообщений: 125

СССР
Рейтинг

post 25-Дек-2011 21:28 (спустя 32 минуты) [-]1[+]

[Цитировать] 

Formula писал(а):

Формат не BDAV, а BDMV.
Исправил Подмигиваю

_________________
info [Профиль]  [ЛС] 

post 25-Сен-2015 08:02 (спустя 3 года 8 месяцев) [-]0[+]

Топик был перенесен из форума Зарубежное кино | HD DVD и Blu-ray в форум Зерубежное видео от R.G. TNclub

L
 

post 25-Сен-2015 08:20 (спустя 3 года 8 месяцев) [-]0[+]

Топик был перенесен из форума Зерубежное видео от R.G. TNclub в форум Зарубежное кино | HD DVD и Blu-ray

L
 
Показать сообщения:    
Ответить на тему

Текущее время: 08-Дек 04:14

Часовой пояс: GMT + 4



Вы не можете начинать темы
Вы не можете отвечать на сообщения
Вы не можете редактировать свои сообщения
Вы не можете удалять свои сообщения
Вы не можете голосовать в опросах
Вы не можете прикреплять файлы к сообщениям
Вы не можете скачивать файлы