Ошибка

(Rock) Eagles - Long Road Out Of Eden - 2007, FLAC (tracks), lossless

Ответить на тему
 
Автор Сообщение

Alexey2212

Пол: Пол:Муж

Стаж: 6 лет 9 месяцев

Сообщений: 96

Рейтинг

post 13-Дек-2011 11:33 0[+]

[Цитировать] 

Eagles - Long Road Out Of Eden

Жанр: Rock
Происхождение исполнителя: США (Лос-Анджелес, Калифорния)
Год издания данного носителя: 2007
Страна-производитель носителя: USA
Лейбл: Universal
Тип релиза: tracks+.cue
Аудио кодек:FLAC
Битрейт аудио: lossless
Продолжительность: 00:45:04 (Disc 1) / 00:45:49 (Disc2)
Полиграфия: отсутствует
Треклист:
Disc 1:
1. No More Walks In The Wood
2. How Long
3. Busy Being Fabulous
4. What Do I Do With My Heart
5. Guilty Of The Crime
6. I Don't Want To Hear Any More
7. No More Cloudy Days
9. Fast Company
10. Do Something
11. You Are Not Alone

Dics 2 :
1. Long Road Out Of Eden
2. I Dreamed There Was No War
3. Somebody
4. Frail Grasp On The Big Picture
5. Last Good Time In Town
6. I Love To Watch A Woman Dance
7. Business As Usual
8. Center Of The Universe
9. It's Your World Now
 
сEAC extraction logfile from 30. October 2007, 14:52 for CD
Eagles / Long Road Out Of Eden (CD1)

Used drive : _NEC DVD+-RW ND-6650A Adapter: 1 ID: 0
Read mode : Secure with NO C2, accurate stream, disable cache
Read offset correction : 48
Overread into Lead-In and Lead-Out : No

Used output format : C:\Program Files\FLAC\flac.exe (User Defined Encoder)
128 kBit/s
Additional command line options : -5 -V -T "ARTIST=%a" -T "TITLE=%t" -T "ALBUM=%g" -T "DATE=%y" -T "TRACKNUMBER=%n" -T "GENRE=%m" -T "COMMENT=EAC Flac 1.1.3 -5" %s

Other options :
Fill up missing offset samples with silence : Yes
Delete leading and trailing silent blocks : No
Native Win32 interface for Win NT & 2000

Track 1
Filename D:\My Music\Eagles - Long Road Out Of Eden (2007) [FLAC]\CD1\01 - No More Walks In The Wood.wav

Pre-gap length 0:00:02.00

Peak level 98.5 %
Track quality 99.9 %
Test CRC 65D48A6F
Copy CRC 65D48A6F
Copy OK

Track 2
Filename D:\My Music\Eagles - Long Road Out Of Eden (2007) [FLAC]\CD1\02 - How Long.wav

Peak level 100.0 %
Track quality 100.0 %
Test CRC 80DCCCEE
Copy CRC 80DCCCEE
Copy OK

Track 3
Filename D:\My Music\Eagles - Long Road Out Of Eden (2007) [FLAC]\CD1\03 - Busy Being Fabulous.wav

Pre-gap length 0:00:01.21

Peak level 100.0 %
Track quality 100.0 %
Test CRC 726E0D28
Copy CRC 726E0D28
Copy OK

Track 4
Filename D:\My Music\Eagles - Long Road Out Of Eden (2007) [FLAC]\CD1\04 - What Do I do With My Heart.wav

Peak level 100.0 %
Track quality 100.0 %
Test CRC 34102E0B
Copy CRC 34102E0B
Copy OK

Track 5
Filename D:\My Music\Eagles - Long Road Out Of Eden (2007) [FLAC]\CD1\05 - Guilty Of The Crime.wav

Peak level 100.0 %
Track quality 100.0 %
Test CRC 892BBDBC
Copy CRC 892BBDBC
Copy OK

Track 6
Filename D:\My Music\Eagles - Long Road Out Of Eden (2007) [FLAC]\CD1\06 - I Don't Want To Hear Anymore.wav

Peak level 100.0 %
Track quality 100.0 %
Test CRC A989BEC6
Copy CRC A989BEC6
Copy OK

Track 7
Filename D:\My Music\Eagles - Long Road Out Of Eden (2007) [FLAC]\CD1\07 - Waiting In The Weeds.wav

Peak level 100.0 %
Track quality 100.0 %
Test CRC B17A737F
Copy CRC B17A737F
Copy OK

Track 8
Filename D:\My Music\Eagles - Long Road Out Of Eden (2007) [FLAC]\CD1\08 - No More Cloudy Days.wav

Peak level 100.0 %
Track quality 100.0 %
Test CRC 66245AAE
Copy CRC 66245AAE
Copy OK

Track 9
Filename D:\My Music\Eagles - Long Road Out Of Eden (2007) [FLAC]\CD1\09 - Fast Company.wav

Peak level 100.0 %
Track quality 100.0 %
Test CRC A686EE31
Copy CRC A686EE31
Copy OK

Track 10
Filename D:\My Music\Eagles - Long Road Out Of Eden (2007) [FLAC]\CD1\10 - Do Something.wav

Peak level 100.0 %
Track quality 99.9 %
Test CRC 0898908C
Copy CRC 0898908C
Copy OK

Track 11
Filename D:\My Music\Eagles - Long Road Out Of Eden (2007) [FLAC]\CD1\11 - You're Not Alone.wav

Peak level 100.0 %
Track quality 100.0 %
Test CRC 6D66AC08
Copy CRC 6D66AC08
Copy OK

No errors occured

End of status report
 
REM GENRE Rock
REM DATE 2007
REM DISCID 930A900B
REM COMMENT "ExactAudioCopy v0.95b4"
PERFORMER "Eagles"
TITLE "Long Road Out Of Eden (CD1)"
FILE "01 - No More Walks In The Wood.wav" WAVE
TRACK 01 AUDIO
TITLE "No More Walks In The Wood"
PERFORMER "Eagles"
INDEX 01 00:00:00
FILE "02 - How Long.wav" WAVE
TRACK 02 AUDIO
TITLE "How Long"
PERFORMER "Eagles"
INDEX 01 00:00:00
TRACK 03 AUDIO
TITLE "Busy Being Fabulous"
PERFORMER "Eagles"
INDEX 00 03:14:64
FILE "03 - Busy Being Fabulous.wav" WAVE
INDEX 01 00:00:00
FILE "04 - What Do I do With My Heart.wav" WAVE
TRACK 04 AUDIO
TITLE "What Do I do With My Heart"
PERFORMER "Eagles"
INDEX 01 00:00:00
FILE "05 - Guilty Of The Crime.wav" WAVE
TRACK 05 AUDIO
TITLE "Guilty Of The Crime"
PERFORMER "Eagles"
INDEX 01 00:00:00
FILE "06 - I Don't Want To Hear Anymore.wav" WAVE
TRACK 06 AUDIO
TITLE "I Don't Want To Hear Anymore"
PERFORMER "Eagles"
INDEX 01 00:00:00
FILE "07 - Waiting In The Weeds.wav" WAVE
TRACK 07 AUDIO
TITLE "Waiting In The Weeds"
PERFORMER "Eagles"
INDEX 01 00:00:00
FILE "08 - No More Cloudy Days.wav" WAVE
TRACK 08 AUDIO
TITLE "No More Cloudy Days"
PERFORMER "Eagles"
INDEX 01 00:00:00
FILE "09 - Fast Company.wav" WAVE
TRACK 09 AUDIO
TITLE "Fast Company"
PERFORMER "Eagles"
INDEX 01 00:00:00
FILE "10 - Do Something.wav" WAVE
TRACK 10 AUDIO
TITLE "Do Something"
PERFORMER "Eagles"
INDEX 01 00:00:00
FILE "11 - You're Not Alone.wav" WAVE
TRACK 11 AUDIO
TITLE "You're Not Alone"
PERFORMER "Eagles"
INDEX 01 00:00:00
 
EAC extraction logfile from 30. October 2007, 15:39 for CD
Eagles / Long Road Out Of Eden (CD2)

Used drive : _NEC DVD+-RW ND-6650A Adapter: 1 ID: 0
Read mode : Secure with NO C2, accurate stream, disable cache
Read offset correction : 48
Overread into Lead-In and Lead-Out : No

Used output format : C:\Program Files\FLAC\flac.exe (User Defined Encoder)
128 kBit/s
Additional command line options : -5 -V -T "ARTIST=%a" -T "TITLE=%t" -T "ALBUM=%g" -T "DATE=%y" -T "TRACKNUMBER=%n" -T "GENRE=%m" -T "COMMENT=EAC Flac 1.1.3 -5" %s

Other options :
Fill up missing offset samples with silence : Yes
Delete leading and trailing silent blocks : No
Native Win32 interface for Win NT & 2000

Track 1
Filename D:\My Music\Eagles - Long Road Out Of Eden (2007) [FLAC]\CD2\01 - Long Road Out Of Eden.wav

Pre-gap length 0:00:02.00

Peak level 100.0 %
Track quality 100.0 %
Test CRC 4ABDCF83
Copy CRC 4ABDCF83
Copy OK

Track 2
Filename D:\My Music\Eagles - Long Road Out Of Eden (2007) [FLAC]\CD2\02 - I Dreamed There Was No War.wav

Peak level 98.2 %
Track quality 99.8 %
Test CRC 6E79A06C
Copy CRC 6E79A06C
Copy OK

Track 3
Filename D:\My Music\Eagles - Long Road Out Of Eden (2007) [FLAC]\CD2\03 - Somebody.wav

Peak level 94.2 %
Track quality 100.0 %
Test CRC C2818681
Copy CRC C2818681
Copy OK

Track 4
Filename D:\My Music\Eagles - Long Road Out Of Eden (2007) [FLAC]\CD2\04 - Frail Grasp On The Big Picture.wav

Peak level 100.0 %
Track quality 100.0 %
Test CRC 880A03F1
Copy CRC 880A03F1
Copy OK

Track 5
Filename D:\My Music\Eagles - Long Road Out Of Eden (2007) [FLAC]\CD2\05 - Last Good Time In Town.wav

Peak level 100.0 %
Track quality 100.0 %
Test CRC 3D8D3283
Copy CRC 3D8D3283
Copy OK

Track 6
Filename D:\My Music\Eagles - Long Road Out Of Eden (2007) [FLAC]\CD2\06 - I Love To Watch a Woman Dance.wav

Peak level 98.4 %
Track quality 100.0 %
Test CRC 53003766
Copy CRC 53003766
Copy OK

Track 7
Filename D:\My Music\Eagles - Long Road Out Of Eden (2007) [FLAC]\CD2\07 - Business As Usual.wav

Peak level 100.0 %
Track quality 100.0 %
Test CRC 1503A8EE
Copy CRC 1503A8EE
Copy OK

Track 8
Filename D:\My Music\Eagles - Long Road Out Of Eden (2007) [FLAC]\CD2\08 - Center Of The Universe.wav

Peak level 98.8 %
Track quality 99.9 %
Test CRC 77C21A47
Copy CRC 77C21A47
Copy OK

Track 9
Filename D:\My Music\Eagles - Long Road Out Of Eden (2007) [FLAC]\CD2\09 - It's Your World Now.wav

Peak level 100.0 %
Track quality 100.0 %
Test CRC 992F0A40
Copy CRC 992F0A40
Copy OK

No errors occured

End of status report
 
REM GENRE Rock
REM DATE 2007
REM DISCID 840ABD09
REM COMMENT "ExactAudioCopy v0.95b4"
PERFORMER "Eagles"
TITLE "Long Road Out Of Eden (CD2)"
FILE "01 - Long Road Out Of Eden.wav" WAVE
TRACK 01 AUDIO
TITLE "Long Road Out Of Eden"
PERFORMER "Eagles"
INDEX 01 00:00:00
FILE "02 - I Dreamed There Was No War.wav" WAVE
TRACK 02 AUDIO
TITLE "I Dreamed There Was No War"
PERFORMER "Eagles"
INDEX 01 00:00:00
FILE "03 - Somebody.wav" WAVE
TRACK 03 AUDIO
TITLE "Somebody"
PERFORMER "Eagles"
INDEX 01 00:00:00
FILE "04 - Frail Grasp On The Big Picture.wav" WAVE
TRACK 04 AUDIO
TITLE "Frail Grasp On The Big Picture"
PERFORMER "Eagles"
INDEX 01 00:00:00
FILE "05 - Last Good Time In Town.wav" WAVE
TRACK 05 AUDIO
TITLE "Last Good Time In Town"
PERFORMER "Eagles"
INDEX 01 00:00:00
FILE "06 - I Love To Watch a Woman Dance.wav" WAVE
TRACK 06 AUDIO
TITLE "I Love To Watch a Woman Dance"
PERFORMER "Eagles"
INDEX 01 00:00:00
FILE "07 - Business As Usual.wav" WAVE
TRACK 07 AUDIO
TITLE "Business As Usual"
PERFORMER "Eagles"
INDEX 01 00:00:00
FILE "08 - Center Of The Universe.wav" WAVE
TRACK 08 AUDIO
TITLE "Center Of The Universe"
PERFORMER "Eagles"
INDEX 01 00:00:00
FILE "09 - It's Your World Now.wav" WAVE
TRACK 09 AUDIO
TITLE "It's Your World Now"
PERFORMER "Eagles"
INDEX 01 00:00:00

info [Профиль]  [ЛС] 

Raa

Пол: Пол:Муж

Стаж: 6 лет 9 месяцев

Сообщений: 1099

Рейтинг

post 16-Дек-2011 19:08 (спустя 3 дня) [-]0[+]

[Цитировать] 

Код:

(Жанр) Исполнитель - Название альбома - год, Аудио кодек (Тип рипа), lossless

Код:

[align=center][size=24][b]Исполнитель - Название альбома[/b][/size][/align]
[hr]
[img=right]ссылка на обложку[/img]

[b]Жанр[/b]: На английском языке
[b]Происхождение исполнителя[/b]: страна, город...
[b]Год издания данного носителя[/b]: год
[b]Страна-производитель носителя[/b]: страна
[b]Лейбл[/b]: Лейбл
[b]Каталоговый номер[/b]: Каталоговый номер
[b]Тип релиза[/b]: (tracks | tracks+.cue | image+.cue)
[b]Аудио кодек[/b]: (FLAC | APE | WAVPack | ..)
[b]Битрейт аудио[/b]: lossless
[b]Продолжительность[/b]: Часы : Минуты : Секунды
[b]Полиграфия[/b]: присутствует | отсутствует
[b]Треклист[/b]:
Треклист вашей раздачи. Формат: "Номер - Название" (В случае сборников разных исполнителей/групп - нужно указать имя/название исполнителя)
[spoiler="Отчёт об извлечении"]
[pre]
Содержимое log-файла.
[/pre][/spoiler]
[spoiler="Текст .cue (файл разметки)"]
[pre]
Содержимое cue-файла.
[/pre][/spoiler]
[b]Доп. информация[/b]: По желанию. Если больше 8и строк, то убираем под спойлер.
После исправления напишите мне в ЛС с ссылкой на раздачу.
info [Профиль]  [ЛС] 
Показать сообщения:    
Ответить на тему

Текущее время: 11-Дек 00:35

Часовой пояс: GMT + 4



Вы не можете начинать темы
Вы не можете отвечать на сообщения
Вы не можете редактировать свои сообщения
Вы не можете удалять свои сообщения
Вы не можете голосовать в опросах
Вы не можете прикреплять файлы к сообщениям
Вы не можете скачивать файлы