Ошибка

Москва слезам не верит (Владимир Меньшов) [1979 г., Драма, мелодрама, комедия, BDRip-AVC]

Ответить на тему
 
Автор Сообщение

AI

Пол: Пол:Муж

Стаж: 7 лет 7 месяцев

Сообщений: 583

СССР
Рейтинг

post 23-Ноя-2011 18:14 2[+]

[Цитировать] 

Москва слезам не верит

Страна: СССР
Жанр: драма, мелодрама, комедия
Год выпуска: 1979
Продолжительность: 02:28:17
Режиссер: Владимир Меньшов
Сценарий: Валентин Черных
Директор фильма: Виталий Богуславский
Оператор: Игорь Слабневич
Композитор: Сергей Никитин
Художник: Саид Меняльщиков, Жанна Мелконян
Монтаж: Елена Михайлова
В ролях: Вера Алентова, Ирина Муравьёва, Алексей Баталов, Раиса Рязанова, Александр Фатюшин, Борис Сморчков, Виктор Уральский, Валентина Ушакова, Юрий Васильев, Евгения Ханаева, Зоя Фёдорова, Наталья Вавилова, Лия Ахеджакова, Олег Табаков, Владимир Басов.
Описание:
Москва пятидесятых годов. Три молодые провинциалки приезжают в Москву в поисках того, что ищут люди во всех столицах мира - любви, счастья и достатка. Их судьбы складываются именно так, как предполагает характер каждой из девушек. Антонина выходит замуж, растит детей, любит мужа. Людмиле Москва представляется лотереей, в которой она должна выиграть свое особенное счастье. Катерина же - отчаянно влюбляется, но избранник ее оставляет. Однако она не опускает руки, в одиночку растит дочь и к тому же успевает сделать блестящую карьеру. В сорок лет судьба дарит ей встречу с прекрасным человеком и настоящую любовь...
Релиз от
Автор рипа: MaTaDoRe
Качество: BDRip-AVC [Blu-ray 1080p AVC DTS-HD 5.1] - Сэмпл
Формат: Matroska
Видео кодек: H.264
Аудио кодек: AC3
Видео: 816x624 at 23,976, H.264, 2366 kbps avg 0.194 bit/pixel
Аудио: 48 kHz, AC3, 3/2 (L,C,R,l,r) + LFE ch, ~448 kbps

Код:

Общее
Уникальный идентификатор         : 238954233365154641904019464597870849639 (0xB3C4E94D6BD7BD8097BC39EE4389AE67)
Полное имя                       : J:\Рипы\Москва слезам не верит.1979.BDRip-AVC.[RG25kadr_MaTaDoRe].mkv
Формат                           : Matroska
Версия формата                   : Version 2
Размер файла                     : 2,92 Гбайт
Продолжительность                : 2 ч. 28 м.
Общий поток                      : 2816 Кбит/сек
Дата кодирования                 : UTC 2011-11-23 08:50:01
Программа кодирования            : mkvmerge v5.0.1 ('Es ist Sommer') built on Oct  9 2011 11:55:43
Библиотека кодирования           : libebml v1.2.2 + libmatroska v1.3.0

Видео
Идентификатор                    : 1
Формат                           : AVC
Формат/Информация                : Advanced Video Codec
Профиль формата                  : High@L4.1
Параметр CABAC формата           : Да
Параметр ReFrames формата        : 13 кадров
Идентификатор кодека             : V_MPEG4/ISO/AVC
Продолжительность                : 2 ч. 28 м.
Битрейт                          : 2366 Кбит/сек
Ширина                           : 816 пикселей
Высота                           : 624 пикселя
Соотношение сторон               : 4:3
Частота кадров                   : 23,976 кадра/сек
Цветовое пространство            : YUV
Субдискретизация насыщенности    : 4:2:0
Битовая глубина                  : 8 бит
Тип развёртки                    : Прогрессивная
Бит/(Пиксели*Кадры)              : 0.194
Размер потока                    : 2,39 Гбайт (82%)
Заголовок                        : by MaTaDoRe [R.G. 25 Кадр]
Библиотека кодирования           : x264 core 119 r2106 07efeb4
Настройки программы              : cabac=1 / ref=13 / deblock=1:-2:-1 / analyse=0x3:0x113 / me=umh / subme=11 / psy=1 / psy_rd=1.00:0.05 / mixed_ref=1 / me_range=32 / chroma_me=1 / trellis=2 / 8x8dct=1 / cqm=0 / deadzone=21,11 / fast_pskip=0 / chroma_qp_offset=-3 / threads=12 / sliced_threads=0 / nr=0 / decimate=0 / interlaced=0 / bluray_compat=0 / constrained_intra=0 / bframes=10 / b_pyramid=2 / b_adapt=2 / b_bias=0 / direct=1 / weightb=1 / open_gop=0 / weightp=2 / keyint=250 / keyint_min=23 / scenecut=40 / intra_refresh=0 / rc_lookahead=60 / rc=2pass / mbtree=1 / bitrate=2366 / ratetol=1.0 / qcomp=0.70 / qpmin=0 / qpmax=69 / qpstep=4 / cplxblur=20.0 / qblur=0.5 / ip_ratio=1.40 / aq=1:1.00
Язык                             : English

Аудио
Идентификатор                    : 2
Формат                           : AC-3
Формат/Информация                : Audio Coding 3
Расширение режима                : CM (complete main)
Идентификатор кодека             : A_AC3
Продолжительность                : 2 ч. 28 м.
Вид битрейта                     : Постоянный
Битрейт                          : 448 Кбит/сек
Каналы                           : 6 каналов
Расположение каналов             : Front: L C R, Side: L R, LFE
Частота                          : 48,0 КГц
Битовая глубина                  : 16 бит
Метод сжатия                     : С потерями
Размер потока                    : 475 Мбайт (16%)
Язык                             : Russian

info [Профиль]  [ЛС] 

GameHacker

Стаж: 7 лет 1 месяц

Сообщений: 6

Рейтинг

post 23-Ноя-2011 18:22 (спустя 7 минут) [-]0[+]

[Цитировать] 

Спасибо!
info [Профиль]  [ЛС] 
Показать сообщения:    
Ответить на тему

Текущее время: 06-Дек 22:00

Часовой пояс: GMT + 4



Вы не можете начинать темы
Вы не можете отвечать на сообщения
Вы не можете редактировать свои сообщения
Вы не можете удалять свои сообщения
Вы не можете голосовать в опросах
Вы не можете прикреплять файлы к сообщениям
Вы не можете скачивать файлы