Ошибка

Михаил Задорнов: «Тырлы и глоупены» [2011 г., Сатира, SATRip]

Ответить на тему
 
Автор Сообщение

Mephi1000fel

Пол: Пол:Муж

Стаж: 5 лет 2 месяца

Сообщений: 286

СССР
Рейтинг

post 06-Ноя-2011 07:02 1[+]

[Цитировать] 

Михаил Задорнов: «Тырлы и глоупены»

Год выпуска: 2011
Страна: Россия
Жанр: Комедия
Продолжительность: 01:32:06
В ролях: Михаил Задорнов
Описание: В новом концерте Михаил Задорнов вновь касается проблем образования в нашей стране, своеобразия русского менталитета и культуры.

Качество: SATRip
Формат: AVI
Видео кодек: DivX Codec 6.8.5/6.9.1
Аудио кодек: MPEG Audio
Видео: 576x432, 25 fps, 1250 kbps
Аудио: 2 ch, 128 kbps, 48,0 KHz

Код:

General
Complete name                    : D:\Михаил Задорнов. Тырлы и глоупены.avi
Format                           : AVI
Format/Info                      : Audio Video Interleave
File size                        : 915 MiB
Duration                         : 1h 32mn
Overall bit rate                 : 1 388 Kbps
Writing library                  : VirtualDub build 30009/release

Video
ID                               : 0
Format                           : MPEG-4 Visual
Format settings, BVOP            : 1
Format settings, QPel            : No
Format settings, GMC             : No warppoints
Format settings, Matrix          : Default (H.263)
Muxing mode                      : Packed bitstream
Codec ID                         : DX50
Codec ID/Hint                    : DivX 5
Duration                         : 1h 32mn
Bit rate                         : 1 251 Kbps
Width                            : 576 pixels
Height                           : 432 pixels
Display aspect ratio             : 4:3
Frame rate                       : 25.000 fps
Color space                      : YUV
Chroma subsampling               : 4:2:0
Bit depth                        : 8 bits
Scan type                        : Progressive
Compression mode                 : Lossy
Bits/(Pixel*Frame)               : 0.201
Stream size                      : 824 MiB (90%)
Writing library                  : DivX 6.8.5 (UTC 2009-08-20)

Audio
ID                               : 1
Format                           : MPEG Audio
Format version                   : Version 1
Format profile                   : Layer 3
Mode                             : Joint stereo
Mode extension                   : MS Stereo
Codec ID                         : 55
Codec ID/Hint                    : MP3
Duration                         : 1h 32mn
Bit rate mode                    : Constant
Bit rate                         : 128 Kbps
Channel(s)                       : 2 channels
Sampling rate                    : 48.0 KHz
Compression mode                 : Lossy
Delay relative to video          : 40ms
Stream size                      : 84.3 MiB (9%)
Alignment                        : Split accross interleaves
Interleave, duration             : 40 ms (1.00 video frame)
Interleave, preload duration     : 500 ms
info [Профиль]  [ЛС] 

BorisOpium

Пол: Пол:Муж

Стаж: 5 лет 5 месяцев

Сообщений: 26

Россия
Рейтинг

post 06-Ноя-2011 08:17 (спустя 1 час 15 минут) [-]0[+]

[Цитировать] 

Хороший концерт! Скачаете- не пожалеете!
info [Профиль]  [ЛС] 

Star-Gazer

Пол: Пол:Муж

Стаж: 5 лет 5 месяцев

Сообщений: 124

Россия
Рейтинг

post 06-Ноя-2011 10:38 (спустя 2 часа 20 минут) [-]0[+]

[Цитировать] 

Да смотрел его тоже. Не плохой. Самое главное, что ни слова из старого материала - все полностью новое.
info [Профиль]  [ЛС] 

AlexFormula

Пол: Пол:Муж

Стаж: 7 лет 8 месяцев

Сообщений: 16621

Рейтинг

post 06-Ноя-2011 10:42 (спустя 4 минуты) [-]1[+]

[Цитировать] 

Рен-ТВ накосячили с фамилией в заставке.
info [Профиль]  [ЛС] 

Mephi1000fel

Пол: Пол:Муж

Стаж: 5 лет 2 месяца

Сообщений: 286

СССР
Рейтинг

post 06-Ноя-2011 16:52 (спустя 6 часов) [-]0[+]

[Цитировать] 

Formula писал(а):

Рен-ТВ накосячили с фамилией в заставке.
хех =) Не заметил =) А ведь точно
info [Профиль]  [ЛС] 
Показать сообщения:    
Ответить на тему

Текущее время: 09-Дек 21:30

Часовой пояс: GMT + 4



Вы не можете начинать темы
Вы не можете отвечать на сообщения
Вы не можете редактировать свои сообщения
Вы не можете удалять свои сообщения
Вы не можете голосовать в опросах
Вы не можете прикреплять файлы к сообщениям
Вы не можете скачивать файлы