Ошибка

(Trance) Armin Van Buuren & VA - A State Of Trance Radio Top 15: September 2011 (2011) [FLAC (tracks + .cue)]

Ответить на тему
 
Автор Сообщение

snoop123

Пол: Пол:Муж

Стаж: 5 лет 2 месяца

Сообщений: 3

Предупреждений: 1

Рейтинг

post 04-Ноя-2011 23:34 1[+]

[Цитировать] 

Armin Van Buuren & VA - A State Of Trance Radio Top 15: September 2011

Жанр: [Trance, .VA]
Лейбл: [Armada Music Holland]
Год издания данного носителя: [2011]
Тип релиза: [tracks+.cue]
Аудио кодек: [FLAC]
Битрейт аудио: [lossless]
Продолжительность: 01:43:41
Источник: http://www.beatport.com/release/a-state-of-trance-r...nus-track/673551
Треклист:
01. Shogun - Skyfire (Alex M.O.R.P.H. Remix) (8:18)
02. Space RockerZ & Tania Zygar - Puzzle Piece (Daniel Heatcliff's Farewell Remix) (8:26)
03. Armin van Buuren feat. Cathy Burton - Rain (Maor Levi Remix Edit) (3:49)
04. Paul Oakenfold - Full Moon Party (Original Mix) (7:53)
05. Kyau & Albert - A Night Like This (Original Mix) (6:04)
06. Mark Eteson feat. Audrey Gallagher - Breathe On My Own (Radio Edit) (3:43)
07. Cosmic Gate - The Theme (Original Mix) (6:55)
08. Giuseppe Ottaviani - Go On Air (Original Mix) (6:08)
09. Lemon & Einar K feat. Paul Johannessen - Everlasting (Original Mix) (8:12)
10. Super8 & Tab feat. Anton Sonin - Black Is The New Yellow (Protoculture Remix Edit) (3:42)
11. DNS Project - Redeemer (Original Mix) (6:53)
12. Ernesto vs Bastian - Bonanza (Original Mix) (6:58)
13. Garry Heaney - Oracle (Luke Bond Remix) (6:50)
14. Lange - Touched (Dash Berlin's Sense Of Touch Remix Edit) (3:08)
15. Jamaster A - Nanjing Express (Oryon Remix) (7:16)
16. Armin van Buuren - Birth Of An Angel [Classic Bonus Track] (Original Mix) (9:25)

Код:

AUDIOCHECKER v2.0 beta (build 457) - by Dester - opdester@freemail.hu
~~~~~~~~~~~~~~~~~~~~~~~~~~~~~~~~~~

Начато: вторник, 18. 10. 2011. - 17:01.31
Найдено файлов: 16

01 -===- D:\muzik\Lossless\Armin van Buuren - A State Of Trance Radio Top 15 September 2011 (WEB) (2011) (ARDI2347)\01. Shogun - Skyfire (Alex M.O.R.P.H. Remix).flac
  Извлечение успешно выполнено
  Заключение: этот трек - CDDA с вероятностью 100%
  Временный файл удалён.

02 -===- D:\muzik\Lossless\Armin van Buuren - A State Of Trance Radio Top 15 September 2011 (WEB) (2011) (ARDI2347)\02. Space RockerZ & Tania Zygar - Puzzle Piece (Daniel Heatcliff's Farewell Remix).flac
  Извлечение успешно выполнено
  Заключение: этот трек - CDDA с вероятностью 100%
  Временный файл удалён.

03 -===- D:\muzik\Lossless\Armin van Buuren - A State Of Trance Radio Top 15 September 2011 (WEB) (2011) (ARDI2347)\03. Armin van Buuren feat. Cathy Burton - Rain (Maor Levi Remix Edit).flac
  Извлечение успешно выполнено
  Заключение: этот трек - CDDA с вероятностью 100%
  Временный файл удалён.

04 -===- D:\muzik\Lossless\Armin van Buuren - A State Of Trance Radio Top 15 September 2011 (WEB) (2011) (ARDI2347)\04. Paul Oakenfold - Full Moon Party (Original Mix).flac
  Извлечение успешно выполнено
  Заключение: этот трек - CDDA с вероятностью 99%
  Временный файл удалён.

05 -===- D:\muzik\Lossless\Armin van Buuren - A State Of Trance Radio Top 15 September 2011 (WEB) (2011) (ARDI2347)\05. Kyau & Albert - A Night Like This (Original Mix).flac
  Извлечение успешно выполнено
  Заключение: этот трек - CDDA с вероятностью 100%
  Временный файл удалён.

06 -===- D:\muzik\Lossless\Armin van Buuren - A State Of Trance Radio Top 15 September 2011 (WEB) (2011) (ARDI2347)\06. Mark Eteson feat. Audrey Gallagher - Breathe On My Own (Radio Edit).flac
  Извлечение успешно выполнено
  Заключение: этот трек - CDDA с вероятностью 100%
  Временный файл удалён.

07 -===- D:\muzik\Lossless\Armin van Buuren - A State Of Trance Radio Top 15 September 2011 (WEB) (2011) (ARDI2347)\07. Cosmic Gate - The Theme (Original Mix).flac
  Извлечение успешно выполнено
  Заключение: этот трек - CDDA с вероятностью 100%
  Временный файл удалён.

08 -===- D:\muzik\Lossless\Armin van Buuren - A State Of Trance Radio Top 15 September 2011 (WEB) (2011) (ARDI2347)\08. Giuseppe Ottaviani - Go On Air (Original Mix).flac
  Извлечение успешно выполнено
  Заключение: этот трек - CDDA с вероятностью 100%
  Временный файл удалён.

09 -===- D:\muzik\Lossless\Armin van Buuren - A State Of Trance Radio Top 15 September 2011 (WEB) (2011) (ARDI2347)\09. Lemon & Einar K feat. Paul Johannessen - Everlasting (Original Mix).flac
  Извлечение успешно выполнено
  Заключение: этот трек - MPEG с вероятностью 95%
  Временный файл удалён.

10 -===- D:\muzik\Lossless\Armin van Buuren - A State Of Trance Radio Top 15 September 2011 (WEB) (2011) (ARDI2347)\10. Super8 & Tab feat. Anton Sonin - Black Is The New Yellow (Protoculture Remix Edit).flac
  Извлечение успешно выполнено
  Заключение: этот трек - CDDA с вероятностью 100%
  Временный файл удалён.

11 -===- D:\muzik\Lossless\Armin van Buuren - A State Of Trance Radio Top 15 September 2011 (WEB) (2011) (ARDI2347)\11. DNS Project - Redeemer (Original Mix).flac
  Извлечение успешно выполнено
  Заключение: этот трек - CDDA с вероятностью 100%
  Временный файл удалён.

12 -===- D:\muzik\Lossless\Armin van Buuren - A State Of Trance Radio Top 15 September 2011 (WEB) (2011) (ARDI2347)\12. Ernesto vs Bastian - Bonanza (Original Mix).flac
  Извлечение успешно выполнено
  Заключение: этот трек - MPEG с вероятностью 73%
  Временный файл удалён.

13 -===- D:\muzik\Lossless\Armin van Buuren - A State Of Trance Radio Top 15 September 2011 (WEB) (2011) (ARDI2347)\13. Garry Heaney - Oracle (Luke Bond Remix).flac
  Извлечение успешно выполнено
  Заключение: этот трек - MPEG с вероятностью 95%
  Временный файл удалён.

14 -===- D:\muzik\Lossless\Armin van Buuren - A State Of Trance Radio Top 15 September 2011 (WEB) (2011) (ARDI2347)\14. Lange - Touched (Dash Berlin's Sense Of Touch Remix Edit).flac
  Извлечение успешно выполнено
  Заключение: этот трек - CDDA с вероятностью 100%
  Временный файл удалён.

15 -===- D:\muzik\Lossless\Armin van Buuren - A State Of Trance Radio Top 15 September 2011 (WEB) (2011) (ARDI2347)\15. Jamaster A - Nanjing Express (Oryon Remix).flac
  Извлечение успешно выполнено
  Заключение: этот трек - CDDA с вероятностью 100%
  Временный файл удалён.

16 -===- D:\muzik\Lossless\Armin van Buuren - A State Of Trance Radio Top 15 September 2011 (WEB) (2011) (ARDI2347)\16. Armin van Buuren - Birth Of An Angel [Classic Bonus Track] (Original Mix).flac
  Извлечение успешно выполнено
  Заключение: этот трек - CDDA с вероятностью 100%
  Временный файл удалён.

Завершено: вторник, 18. 10. 2011. - 17:11.54 (Время операции: 0:10.22)

Код:

REM COMMENT "CUETools generated dummy CUE sheet"
REM DATE 2011
REM GENRE "Trance"
PERFORMER ""
TITLE "A State Of Trance Radio Top 15: September 2011"
FILE "01. Shogun - Skyfire (Alex M.O.R.P.H. Remix).flac" WAVE
  TRACK 01 AUDIO
    TITLE "Skyfire (Alex M.O.R.P.H. Remix)"
    PERFORMER "Shogun"
    INDEX 01 00:00:00
FILE "02. Space RockerZ & Tania Zygar - Puzzle Piece (Daniel Heatcliff's Farewell Remix).flac" WAVE
  TRACK 02 AUDIO
    TITLE "Puzzle Piece (Daniel Heatcliff's Farewell Remix)"
    PERFORMER "Space RockerZ & Tania Zygar"
    INDEX 01 00:00:00
FILE "03. Armin van Buuren feat. Cathy Burton - Rain (Maor Levi Remix Edit).flac" WAVE
  TRACK 03 AUDIO
    TITLE "Rain (Maor Levi Remix Edit)"
    PERFORMER "Armin van Buuren feat. Cathy Burton"
    INDEX 01 00:00:00
FILE "04. Paul Oakenfold - Full Moon Party (Original Mix).flac" WAVE
  TRACK 04 AUDIO
    TITLE "Full Moon Party (Original Mix)"
    PERFORMER "Paul Oakenfold"
    INDEX 01 00:00:00
FILE "05. Kyau & Albert - A Night Like This (Original Mix).flac" WAVE
  TRACK 05 AUDIO
    TITLE "A Night Like This (Original Mix)"
    PERFORMER "Kyau & Albert"
    INDEX 01 00:00:00
FILE "06. Mark Eteson feat. Audrey Gallagher - Breathe On My Own (Radio Edit).flac" WAVE
  TRACK 06 AUDIO
    TITLE "Breathe On My Own (Radio Edit)"
    PERFORMER "Mark Eteson feat. Audrey Gallagher"
    INDEX 01 00:00:00
FILE "07. Cosmic Gate - The Theme (Original Mix).flac" WAVE
  TRACK 07 AUDIO
    TITLE "The Theme (Original Mix)"
    PERFORMER "Cosmic Gate"
    INDEX 01 00:00:00
FILE "08. Giuseppe Ottaviani - Go On Air (Original Mix).flac" WAVE
  TRACK 08 AUDIO
    TITLE "Go On Air (Original Mix)"
    PERFORMER "Giuseppe Ottaviani"
    INDEX 01 00:00:00
FILE "09. Lemon & Einar K feat. Paul Johannessen - Everlasting (Original Mix).flac" WAVE
  TRACK 09 AUDIO
    TITLE "Everlasting (Original Mix)"
    PERFORMER "Lemon & Einar K feat. Paul Johannessen"
    INDEX 01 00:00:00
FILE "10. Super8 & Tab feat. Anton Sonin - Black Is The New Yellow (Protoculture Remix Edit).flac" WAVE
  TRACK 10 AUDIO
    TITLE "Black Is The New Yellow (Protoculture Remix Edit)"
    PERFORMER "Super8 & Tab feat. Anton Sonin"
    INDEX 01 00:00:00
FILE "11. DNS Project - Redeemer (Original Mix).flac" WAVE
  TRACK 11 AUDIO
    TITLE "Redeemer (Original Mix)"
    PERFORMER "DNS Project"
    INDEX 01 00:00:00
FILE "12. Ernesto vs Bastian - Bonanza (Original Mix).flac" WAVE
  TRACK 12 AUDIO
    TITLE "Bonanza (Original Mix)"
    PERFORMER "Ernesto vs Bastian"
    INDEX 01 00:00:00
FILE "13. Garry Heaney - Oracle (Luke Bond Remix).flac" WAVE
  TRACK 13 AUDIO
    TITLE "Oracle (Luke Bond Remix)"
    PERFORMER "Garry Heaney"
    INDEX 01 00:00:00
FILE "14. Lange - Touched (Dash Berlin's Sense Of Touch Remix Edit).flac" WAVE
  TRACK 14 AUDIO
    TITLE "Touched (Dash Berlin's Sense Of Touch Remix Edit)"
    PERFORMER "Lange"
    INDEX 01 00:00:00
FILE "15. Jamaster A - Nanjing Express (Oryon Remix).flac" WAVE
  TRACK 15 AUDIO
    TITLE "Nanjing Express (Oryon Remix)"
    PERFORMER "Jamaster A"
    INDEX 01 00:00:00
FILE "16. Armin van Buuren - Birth Of An Angel [Classic Bonus Track] (Original Mix).flac" WAVE
  TRACK 16 AUDIO
    TITLE "Birth Of An Angel [Classic Bonus Track] (Original Mix)"
    PERFORMER "Armin van Buuren"
    INDEX 01 00:00:00

info [Профиль]  [ЛС] 

Raa

Пол: Пол:Муж

Стаж: 6 лет 9 месяцев

Сообщений: 1099

Рейтинг

post 05-Ноя-2011 05:12 (спустя 5 часов) [-]0[+]

[Цитировать] 

snoop123
Полного источника не было: Никогда?
info [Профиль]  [ЛС] 

snoop123

Пол: Пол:Муж

Стаж: 5 лет 2 месяца

Сообщений: 3

Предупреждений: 1

Рейтинг

post 05-Ноя-2011 14:12 (спустя 9 часов) [-]0[+]

[Цитировать] 

Встал на раздачу.
info [Профиль]  [ЛС] 
Показать сообщения:    
Ответить на тему

Текущее время: 09-Дек 13:38

Часовой пояс: GMT + 4



Вы не можете начинать темы
Вы не можете отвечать на сообщения
Вы не можете редактировать свои сообщения
Вы не можете удалять свои сообщения
Вы не можете голосовать в опросах
Вы не можете прикреплять файлы к сообщениям
Вы не можете скачивать файлы