Ошибка

XLD: Инструкция по настройке для снятия аудиоданных с максимальной точностью (Mac OS)

Тема закрыта
 
Автор Сообщение

Raa

Пол: Пол:Муж

Стаж: 8 лет 9 месяцев

Сообщений: 1099

Рейтинг

post 02-Ноя-2011 04:06 [-]1[+]

[Цитировать] 

XLD: Инструкция по настройке для снятия аудиоданных с максимальной точностью (Mac OS)


    В этой статье мы попытаемся осмыслить принцип работы граббера X Lossless Decoder (XLD) (Скачиваем программу Здесь), да бы научиться его корректно использовать.
    Так же будет представлено пошаговое руководство по настройке CD Rip XLD для снятия достоверной, потрековой или имиджевой копии Audio CD в выходном формате аудио-данных - FLAC. Рипы в других выходных форматах аудио-данных рассматриваться не будут!

    Прежде чем перейти непосредственно к настройкам, рассмотрим подробнее log файл отчета который предоставляет X Lossless Decoder.
    Научившись правильно толковать эти данные, вы самостоятельно сможете сделать вывод о правильности настроек граббера, так как осмыслите принцип его работы.





  • Разделенный на логические блоки отчет рипа X Lossless Decoder
    Этот пример содержит построчные технические комментарии раскрывающие значения параметров

    1.
     X Lossless Decoder version 20100828 (120.6) 

    XLD extraction logfile from 2010-08-30 17:30:55 +0400

    Nick Cave & The Bad Seeds / Dig, Lazarus, Dig!!! (LCDStumm277)

    Used drive : HL-DT-ST DVDRW GS23N (revision SB07)
    2.
     Use cdparanoia mode     : YES (CDParanoia III 10.2 engine) 
    Disable audio cache : OK for the drive with cache less than 2750KB
    Make use of C2 pointers : NO
    Read offset correction : 667
    Max retry count : 100
    Gap status : Analyzed, Appended
    3.
     TOC of the extracted CD 
    Track | Start | Length | Start sector | End sector
    ---------------------------------------------------------
    1 | 00:01:00 | 04:11:61 | 75 | 18960
    2 | 04:12:61 | 04:41:05 | 18961 | 40040
    3 | 08:53:66 | 03:53:48 | 40041 | 57563
    4 | 12:47:39 | 04:53:25 | 57564 | 79563
    5 | 17:40:64 | 03:32:27 | 79564 | 95490
    6 | 21:13:16 | 05:11:38 | 95491 | 118853
    7 | 26:24:54 | 05:50:69 | 118854 | 145172
    8 | 32:15:48 | 04:57:61 | 145173 | 167508
    9 | 37:13:34 | 03:22:22 | 167509 | 182680
    10 | 40:35:56 | 05:06:58 | 182681 | 205688
    11 | 45:42:39 | 07:58:21 | 205689 | 241559
    3.1
     List of alternate offset correction values 
    # | Absolute | Relative | Confidence
    ------------------------------------------
    1 | 655 | -12 | 83
    2 | 3 | -664 | 6
    3 | 619 | -48 | 3
    4 | 601 | -66 | 2
    4.
     Track 01 
    Filename : /Users/Axelgahan/Desktop/01 Nick Cave & The Bad Seeds - Dig, Lazarus, Dig!!!.flac
    5.
    Pre-gap length : 00:03:00
    6.
         CRC32 hash (test run)  : BC91515B 
    CRC32 hash : BC91515B
    CRC32 hash (skip zero) : 4F1E0A70
    7.
    AccurateRip signature  : 510FE061 
    ->Accurately ripped! (confidence 200)
    8.
    Statistics 
    Read error : 0
    Skipped (treated as error) : 0
    Edge jitter error (maybe fixed) : 0
    Atom jitter error (maybe fixed) : 0
    Drift error (maybe fixed) : 0
    Dropped bytes error (maybe fixed) : 0
    Duplicated bytes error (maybe fixed) : 0
    Inconsistency in error sectors : 0
    9.
     No errors occurred 

    End of status report


  • Цельный отчет имиджевого рипа X Lossless Decoder
    X Lossless Decoder version 20100828 (120.6) 

    XLD extraction logfile from 2010-08-31 18:45:09 +0400

    Nick Cave & The Bad Seeds / Dig, Lazarus, Dig!!! (LCDStumm277)

    Used drive : HL-DT-ST DVDRW GS23N (revision SB07)

    Use cdparanoia mode : YES (CDParanoia III 10.2 engine)
    Disable audio cache : OK for the drive with cache less than 2750KB
    Make use of C2 pointers : NO
    Read offset correction : 667
    Max retry count : 100
    Gap status : Analyzed, Appended

    TOC of the extracted CD
    Track | Start | Length | Start sector | End sector
    ---------------------------------------------------------
    1 | 00:01:00 | 04:11:61 | 75 | 18960
    2 | 04:12:61 | 04:41:05 | 18961 | 40040
    3 | 08:53:66 | 03:53:48 | 40041 | 57563
    4 | 12:47:39 | 04:53:25 | 57564 | 79563
    5 | 17:40:64 | 03:32:27 | 79564 | 95490
    6 | 21:13:16 | 05:11:38 | 95491 | 118853
    7 | 26:24:54 | 05:50:69 | 118854 | 145172
    8 | 32:15:48 | 04:57:61 | 145173 | 167508
    9 | 37:13:34 | 03:22:22 | 167509 | 182680
    10 | 40:35:56 | 05:06:58 | 182681 | 205688
    11 | 45:42:39 | 07:58:21 | 205689 | 241559

    List of alternate offset correction values
    # | Absolute | Relative | Confidence
    ------------------------------------------
    1 | 655 | -12 | 83
    2 | 3 | -664 | 6
    3 | 619 | -48 | 3
    4 | 601 | -66 | 2

    All Tracks
    Filename : /Users/Axelgahan/Desktop/01 Nick Cave & The Bad Seeds - Dig, Lazarus, Dig!!! (LCDStumm277).flac
    CRC32 hash (test run) : E7A4E2BE
    CRC32 hash : E7A4E2BE
    CRC32 hash (skip zero) : FD2116DB
    Statistics
    Read error : 0
    Skipped (treated as error) : 0
    Edge jitter error (maybe fixed) : 0
    Atom jitter error (maybe fixed) : 0
    Drift error (maybe fixed) : 0
    Dropped bytes error (maybe fixed) : 0
    Duplicated bytes error (maybe fixed) : 0
    Inconsistency in error sectors : 0

    Track 01
    Pre-gap length : 00:03:00

    CRC32 hash (test run) : BC91515B
    CRC32 hash : BC91515B
    CRC32 hash (skip zero) : 4F1E0A70
    AccurateRip signature : 510FE061
    ->Accurately ripped! (confidence 200)
    Statistics
    Read error : 0
    Skipped (treated as error) : 0
    Edge jitter error (maybe fixed) : 0
    Atom jitter error (maybe fixed) : 0
    Drift error (maybe fixed) : 0
    Dropped bytes error (maybe fixed) : 0
    Duplicated bytes error (maybe fixed) : 0
    Inconsistency in error sectors : 0

    Track 02

    CRC32 hash (test run) : 4D109CE7
    CRC32 hash : 4D109CE7
    CRC32 hash (skip zero) : AF45DDC3
    AccurateRip signature : 46EECE30
    ->Accurately ripped! (confidence 200)
    Statistics
    Read error : 0
    Skipped (treated as error) : 0
    Edge jitter error (maybe fixed) : 0
    Atom jitter error (maybe fixed) : 0
    Drift error (maybe fixed) : 0
    Dropped bytes error (maybe fixed) : 0
    Duplicated bytes error (maybe fixed) : 0
    Inconsistency in error sectors : 0

    Track 03

    CRC32 hash (test run) : BC82D1DE
    CRC32 hash : BC82D1DE
    CRC32 hash (skip zero) : 0BFCFEB3
    AccurateRip signature : 9890F6EA
    ->Accurately ripped! (confidence 200)
    Statistics
    Read error : 0
    Skipped (treated as error) : 0
    Edge jitter error (maybe fixed) : 0
    Atom jitter error (maybe fixed) : 0
    Drift error (maybe fixed) : 0
    Dropped bytes error (maybe fixed) : 0
    Duplicated bytes error (maybe fixed) : 0
    Inconsistency in error sectors : 0

    Track 04

    CRC32 hash (test run) : ADEFA2EA
    CRC32 hash : ADEFA2EA
    CRC32 hash (skip zero) : EBDF33EC
    AccurateRip signature : 56A4F13C
    ->Accurately ripped! (confidence 200)
    Statistics
    Read error : 0
    Skipped (treated as error) : 0
    Edge jitter error (maybe fixed) : 0
    Atom jitter error (maybe fixed) : 0
    Drift error (maybe fixed) : 0
    Dropped bytes error (maybe fixed) : 0
    Duplicated bytes error (maybe fixed) : 0
    Inconsistency in error sectors : 0

    Track 05

    CRC32 hash (test run) : 1756D459
    CRC32 hash : 1756D459
    CRC32 hash (skip zero) : 5005EC0F
    AccurateRip signature : 21E6370F
    ->Accurately ripped! (confidence 200)
    Statistics
    Read error : 0
    Skipped (treated as error) : 0
    Edge jitter error (maybe fixed) : 0
    Atom jitter error (maybe fixed) : 0
    Drift error (maybe fixed) : 0
    Dropped bytes error (maybe fixed) : 0
    Duplicated bytes error (maybe fixed) : 0
    Inconsistency in error sectors : 0

    Track 06

    CRC32 hash (test run) : 209FCD02
    CRC32 hash : 209FCD02
    CRC32 hash (skip zero) : A4201F61
    AccurateRip signature : 427E4A68
    ->Accurately ripped! (confidence 200)
    Statistics
    Read error : 0
    Skipped (treated as error) : 0
    Edge jitter error (maybe fixed) : 0
    Atom jitter error (maybe fixed) : 0
    Drift error (maybe fixed) : 0
    Dropped bytes error (maybe fixed) : 0
    Duplicated bytes error (maybe fixed) : 0
    Inconsistency in error sectors : 0

    Track 07

    CRC32 hash (test run) : FA494948
    CRC32 hash : FA494948
    CRC32 hash (skip zero) : 181AD41F
    AccurateRip signature : 65E7F829
    ->Accurately ripped! (confidence 200)
    Statistics
    Read error : 0
    Skipped (treated as error) : 0
    Edge jitter error (maybe fixed) : 0
    Atom jitter error (maybe fixed) : 0
    Drift error (maybe fixed) : 0
    Dropped bytes error (maybe fixed) : 0
    Duplicated bytes error (maybe fixed) : 0
    Inconsistency in error sectors : 0

    Track 08

    CRC32 hash (test run) : 7D9300CE
    CRC32 hash : 7D9300CE
    CRC32 hash (skip zero) : 5CC3D4CD
    AccurateRip signature : C62003FB
    ->Accurately ripped! (confidence 200)
    Statistics
    Read error : 0
    Skipped (treated as error) : 0
    Edge jitter error (maybe fixed) : 0
    Atom jitter error (maybe fixed) : 0
    Drift error (maybe fixed) : 0
    Dropped bytes error (maybe fixed) : 0
    Duplicated bytes error (maybe fixed) : 0
    Inconsistency in error sectors : 0

    Track 09

    CRC32 hash (test run) : 2D815123
    CRC32 hash : 2D815123
    CRC32 hash (skip zero) : 0AE28515
    AccurateRip signature : 811ABD4D
    ->Accurately ripped! (confidence 200)
    Statistics
    Read error : 0
    Skipped (treated as error) : 0
    Edge jitter error (maybe fixed) : 0
    Atom jitter error (maybe fixed) : 0
    Drift error (maybe fixed) : 0
    Dropped bytes error (maybe fixed) : 0
    Duplicated bytes error (maybe fixed) : 0
    Inconsistency in error sectors : 0

    Track 10

    CRC32 hash (test run) : 466450A2
    CRC32 hash : 466450A2
    CRC32 hash (skip zero) : 1C2DC71C
    AccurateRip signature : 47E883D3
    ->Accurately ripped! (confidence 200)
    Statistics
    Read error : 0
    Skipped (treated as error) : 0
    Edge jitter error (maybe fixed) : 0
    Atom jitter error (maybe fixed) : 0
    Drift error (maybe fixed) : 0
    Dropped bytes error (maybe fixed) : 0
    Duplicated bytes error (maybe fixed) : 0
    Inconsistency in error sectors : 0

    Track 11

    CRC32 hash (test run) : 570EFCD7
    CRC32 hash : 570EFCD7
    CRC32 hash (skip zero) : F4FB7935
    AccurateRip signature : 4BF0F379
    ->Accurately ripped! (confidence 200)
    Statistics
    Read error : 0
    Skipped (treated as error) : 0
    Edge jitter error (maybe fixed) : 0
    Atom jitter error (maybe fixed) : 0
    Drift error (maybe fixed) : 0
    Dropped bytes error (maybe fixed) : 0
    Duplicated bytes error (maybe fixed) : 0
    Inconsistency in error sectors : 0

    No errors occurred

    End of status report





Пошаговое руководство настройки CD Rip - XLD для снятия достоверной копии Audio CD





  • Настройка CD Rip

    1. Обратитесь к системному меню - Об этом компьютере
    2. В открывшемся окне выберите - подробнее
    3. В списке устройств слева выберите - Оптический накопитель. На открывшейся вкладке будет видна модель вашего привода.
    4. Переходите по адресу AccurateRip - Drive Offsets и находите там свою модель привода. Запоминаете значение - Correction Offset.
    В случае если вашей модели там не оказалось, но XLD автоматически выставил вам некое значение смещения, то прийдется ему доверится, сделав скидку на то, что далеко не все модели приводов представлены по базе в виде доступного для чтения списка (факт).
    5. Запустите X Lossless Decoder и открыв вкладку настроек CD Rip проверьте совпадает ли значение Offset которое выставил XLD с данными из базы AccurateRip.
    Так как параметр Offset всегда разная в зависимости от модели, но постоянная для каждой модели привода величина, то вы могли узнать это значение и ранее. Например используя программу EAC.

    6. Прочие настройки вкладки CD Rip которые необходимо отметить выбором:
    - Копировать с максимальной точностью (CDParanoia Mode)
    - Значение смещения (offset) в семплах: Определять автоматически, если возможно
    - Проверить точность по базе AccurateRip
    - Считать не соответствие ошибкой в файле log (этот пункт отмечать не обязательно)
    - Автоматически сохранять файл log - всегда
    - Проверять подозрительные сектора
    - Проверять перед копированием - всегда
    - Автоматически открывать вставленный диск (на усмотрение)
    - Извлеч диск после завершения (на усмотрение)

    Остальные пункты вкладки настроек CD Rip, логическим образом отмечать не требуется.
    Стоит отметить, что современные версии X Lossless Decoder не имеют пункта позволяющего управлять кэшем привода.
    Разработчики приняли обоснованное решение отключать его использование по умолчанию.



  • Настройка формата вывода аудио данных

    7. Открыть вкладку настроек XLD - Общие, где в качестве формата вывода выбрать - FLAC
    8. В опциях можно выбрать уровень компрессии. Рекомендуется использовать значения на отметке 5-8. В данном случае выбран 8 уровень компрессии.
    9. На вкладке CDDB, необходимо выбрать пункт: Автоматически соединяться с CDDB. Это даст возможность автоматического поиска данных по дискам в сети. Прочие пункты настроек вкладки по умолчанию.
    10. На вкладке "Теги" необходимо разрешить автоматическое добавление отсутствующих тегов после обращения к FreeDB, отметить пункт "Embed cover art images into files" для того, что бы автоматически встраивать обложки в файлы треков. Однако если вас не устраивает качество предлагаемой обложки, то XLD обладает возможностью замены обложки путем перетаскивания любой картинки на поле обложки в главном окне (рис.11).


  • Вставляем диск в привод



    11. Если сведения о диске присутствуют в базе FreeDB, то в главном окне X Lossless Decoder появится информация о треках. В противном случае вам потребуется вводить данные вручную. Если вариантов данных о диске два или более, то X Lossless Decoder создаст запрос предлагая вам сделать выбор.
    12. В этом же окне необходимо выбрать опцию "Include pre-gap for all tracks" в случае потрекового рипа.
    12.1 В случае имиджевого надо выбрать опцию "Save as a single file (+cue)".
    13. Если данные о треках отсутствуют в базе FreeBD, или не достаточно точны, то вы можете выполнить редакцию тегов вручную. Например, указать каталожный номер диска.
    Для этого требуется: выделить любой из треков в главном окне (рис.11) и в контекстном меню (правая кнопка мыши) выбрать пункт - "Редактировать теги", после чего откроется окно отображенное на рис.13, где навигация по трекам как вперед, так и назад, осуществляется путем нажатия кнопок - Предыдущий / Следующий.
    14. При потрековом рипе, перед тем как начать рип, обязательно сохраните .Cue файл во вкладке File -> Save Cue Sheet As... как это показано на скриншоте:
    При имиджевом же создавать его самостоятельно не нужно, он появится после завершения рипа автоматически!

    15. После завершения процедур определения диска по базе FreeDB, или редакции тегов вручную, вы можете нажать кнопку - "Decode" (рис.11). Прогресс показан на рис. 15a и на рис. 15.b для потрекового и имджевого рипа соотвественно:
    После, в случае правильной настройки XLD Rip, вы сможете наблюдать процесс потрекового извлечения данных с последующим сопоставлением CRC тестовой копии трека и повторной с преобразованием в выходной формат FLAC.





  • Итог для потрекового рипа На выходе получаем файлы: .flac (количество зависит от количества треков), .cue, .log


  • Итог для имиджевого рипа На выходе получаем 3 файла: .flac, .cue, .log


© Axelgahan
info [Профиль]  [ЛС] 
Показать сообщения:    
Тема закрыта

Текущее время: 19-Дек 04:25

Часовой пояс: GMT + 4



Вы не можете начинать темы
Вы не можете отвечать на сообщения
Вы не можете редактировать свои сообщения
Вы не можете удалять свои сообщения
Вы не можете голосовать в опросах
Вы не можете прикреплять файлы к сообщениям
Вы не можете скачивать файлы