Ошибка

SNSD (Girl's Generation) - The Boys [2011, 1080p, Korean Pop]

Ответить на тему
 
Автор Сообщение

D1M0N10

Пол: Пол:Муж

Стаж: 8 лет 4 месяца

Сообщений: 70

Украина
Рейтинг

post 01-Ноя-2011 02:16 1[+]

[Цитировать] 

SNSD (Girl's Generation) - The Boys [2011, 1080p, Korean Pop]

Год выпуска: 2011
Жанр: Korean Pop

Описание: SNSD (Girl's Generation) - The Boys

Качество: 1080p
Формат: MPEG-4 -- 9752 Кбит/сек
Видео кодек: mp42 Base Media / Version 2
Аудио кодек: ААС
Видео: MPEG Video at 10 000 Кбит/сек 1920x1080 at 23.976 fps
Аудио: VBR 209 Кбит/сек 2 канала(ов), 48,0 КГц
Продолжительность: 5 мин 19 сек
Размер файла: 372 Мб

MediaInfo
Video
ID : 1
Format : AVC
Format/Info : Advanced Video Codec
Format profile : High@L5.1
Format settings, CABAC : Yes
Format settings, ReFrames : 3 frames
Format settings, GOP : M=3, N=33
Codec ID : avc1
Codec ID/Info : Advanced Video Coding
Duration : 5mn 19s
Bit rate mode : Constant
Bit rate : 10 000 Kbps
Width : 1 920 pixels
Height : 1 080 pixels
Display aspect ratio : 16:9
Frame rate mode : Constant
Frame rate : 23.976 fps
Standard : NTSC
Color space : YUV
Chroma subsampling : 4:2:0
Bit depth : 8 bits
Scan type : Progressive
Bits/(Pixel*Frame) : 0.201
Stream size : 367 MiB (99%)
Language : English
Encoded date : UTC 2011-10-18 15:05:27
Tagged date : UTC 2011-10-18 15:05:27
Color primaries : BT.709-5, BT.1361, IEC 61966-2-4, SMPTE RP177
Transfer characteristics : BT.709-5, BT.1361
Matrix coefficients : BT.709-5, BT.1361, IEC 61966-2-4 709, SMPTE RP177

Audio
ID : 2
Format : AAC
Format/Info : Advanced Audio Codec
Format profile : LC
Codec ID : 40
Duration : 5mn 19s
Bit rate mode : Variable
Bit rate : 125 Kbps
Maximum bit rate : 209 Kbps
Channel(s) : 2 channels
Channel positions : Front: L R
Sampling rate : 48.0 KHz
Compression mode : Lossy
Stream size : 4.78 MiB (1%)
Language : English
Encoded date : UTC 2011-10-18 15:05:27
Tagged date : UTC 2011-10-18 15:05:27
Скриншоты:
info [Профиль]  [ЛС] 

GAIDZIN2010

Пол: Пол:Муж

Стаж: 7 лет 10 месяцев

Сообщений: 6

Предупреждений: 1

Россия
Рейтинг

post 03-Ноя-2011 13:05 (спустя 2 дня 10 часов) [-]0[+]

[Цитировать] 

какая прелесть anime_36
info [Профиль]  [ЛС] 
Показать сообщения:    
Ответить на тему

Текущее время: 18-Ноя 04:46

Часовой пояс: GMT + 4



Вы не можете начинать темы
Вы не можете отвечать на сообщения
Вы не можете редактировать свои сообщения
Вы не можете удалять свои сообщения
Вы не можете голосовать в опросах
Вы не можете прикреплять файлы к сообщениям
Вы не можете скачивать файлы