Ошибка

[Retina Display 720p] iГений: Как Стив Джобс изменил мир / iGenius: How Steve Jobs Changed the World (Discovery Channel) [2011 , Документальный, научно-популярный , HDTVRip , 1280x720] [Rus , Eng]

Ответить на тему
 
Автор Сообщение

xPh0enixx

Пол: Пол:Муж

Стаж: 6 лет 7 месяцев

Сообщений: 1695

США
Рейтинг

post 31-Окт-2011 20:52 2[+]

[Цитировать] 

iГений: Как Стив Джобс изменил мир / iGenius: How Steve Jobs Changed the World
«Быть самым богатым человеком на кладбище для меня не важно… Ложиться спать и говорить себе, что сделал действительно нечто прекрасное, — вот что важно!»


Год выпуска: 2011
Страна: США / Discovery Channel
Жанр: Документальный, научно-популярный
Продолжительность:00:42:32
Перевод: Профессиональный (одноголосый)
Субтитры: Отсутствуют
Режиссёр:Discovery Channel
«Есть только один способ проделать большую работу — полюбить ее. Если вы к этому не пришли, подождите. Не бросайтесь за дело. Как и со всем другим, подсказать интересное дело вам поможет собственное сердце.»

Описание:
Ведущими передачи станут Адам Сэвидж и Джейми Хайнеман, хорошо знакомые зрителям Discovery Channel по передаче «Разрушители легенд». Они рассказывают малоизвестные факты, связанные с личностью и идеями Стива Джобса, беседуют с людьми, которые знали его лично. Интервью с Ли Фельзенштейном, бывшим членом компьютерного клуба Homebrew. В этот клуб IT-энтузиастов также входили Стив Джобс и Стив Возняк, впоследствии создавшие компанию Apple Computers. Кроме того, Адам и Джейми встретятся с Дэниэлом Коттке, другом Стива Джобса, поехавшим вместе с ним в 1975 году в Индию в поисках духовного просветления.

В программе появятся известные ученые, включая знаменитого физика-теоретика Митио Каку, а также журналисты, музыканты, режиссеры, которые во многом обязаны своим успехом Стиву Джобсу и его инновациям. О том, какое значение для их творчества имели идеи Стива, расскажут Стиви Уандер, Пит Вентц и другие знаменитости.

«Кто-то однажды сказал, что идти по проторенному пути – это разумно, и поэтому прогресс всегда вершат неразумные люди, - говорит Адам Сэвидж. – Стив Джобс был именно таким неразумным человеком. Он не просто предлагал людям то, чего они ждали, он открывал новые пути и способы мышления, создавая иную цифровую реальность, которая объединяла творчество, музыку, общение, медиа, искусство. Прямо или косвенно он изменил каждого из нас».

«Она (Смерть) –причина перемен. Она очищает старое, чтобы открыть дорогу новому. Сейчас новое – это вы, но когда-то (не очень-то и долго осталось) – вы станете старым и вас очистят. Простите за такой драматизм, но это правда.»

Технические параметры:
Качество:HDTVRip 720р
Кодек:H.264
Формат: .m4v
Разрешение:1280х720
Видео:MPEG4 Video (x264) 23.976fps. Aspect Ratio 16:9 CRF 20
Аудио 1: AAC 48 KHz 2ch 128 kbps
Аудио 2: AAC 48 KHz 2ch 128 kbps
Вшитая обложка: есть
Доп. теги (режиссёр, актёры и т.д.): прописаны
«Если вы каждый день живете так, как будто он последний, когда-нибудь вы окажетесь правы.»

General
Полное имя : C:\iГений Как Стив Джобс изменил мир [iGenius How Steve Jobs Changed the World].m4v
Формат : MPEG-4
Профиль формата : Base Media / Version 2
Идентификатор кодека : mp42
Размер файла : 1.17 GiB
Продолжительность : 42mn 32s
Общий поток : 3 945 Kbps
Название фильма : iГений: Как Стив Джобс изменил мир
Альбом/Исполнитель : Discovery Channel
Исполнитель : Discovery Channel
Дата записи : 2011
Дата кодирования : UTC 2011-10-31 15:27:45
Дата пометки : UTC 2011-10-31 16:25:47
Программа кодирования : HandBrake 0.9.5 2011010300
Обложка : Yes

Video
Идентификатор : 1
Формат : AVC
Формат/Информация : Advanced Video Codec
Профиль формата : High@L3.1
Параметр CABAC формата : No
Параметр ReFrames формата : 4 frames
Идентификатор кодека : avc1
Идентификатор кодека/Информация : Advanced Video Coding
Продолжительность : 42mn 32s
Вид битрейта : Variable
Битрейт : 3 681 Kbps
Ширина : 1 280 pixels
Высота : 720 pixels
Соотношение сторон : 16:9
Режим частоты кадров : Variable
Частота кадров : 29.970 fps
Минимальная частота кадров : 20.000 fps
Максимальная частота кадров : 30.303 fps
Цветовое пространство : YUV
Подвыборка цветности : 4:2:0
Битовая глубина : 8 bits
Тип развёртки : Progressive
Бит/(Пиксели*Кадры) : 0.133
Размер потока : 1.09 GiB (93%)
Библиотека кодирования : x264 core 112
Настройки программы : cabac=0 / ref=3 / deblock=1:0:0 / analyse=0x3:0x113 / me=hex / subme=7 / psy=1 / psy_rd=1.00:0.00 / mixed_ref=1 / me_range=16 / chroma_me=1 / trellis=1 / 8x8dct=1 / cqm=0 / deadzone=21,11 / fast_pskip=1 / chroma_qp_offset=-2 / threads=6 / sliced_threads=0 / nr=0 / decimate=1 / interlaced=0 / constrained_intra=0 / bframes=3 / b_pyramid=2 / b_adapt=1 / b_bias=0 / direct=1 / weightb=1 / open_gop=0 / weightp=2 / keyint=300 / keyint_min=29 / scenecut=40 / intra_refresh=0 / rc_lookahead=40 / rc=crf / mbtree=1 / crf=20.0 / qcomp=0.60 / qpmin=3 / qpmax=51 / qpstep=4 / ip_ratio=1.40 / aq=1:1.00
Дата кодирования : UTC 2011-10-31 15:27:45
Дата пометки : UTC 2011-10-31 16:25:47
Material_Duration : 2552849
Material_StreamSize : 1174454236
Material_FrameCount : 76507
Color primaries : BT.709-5, BT.1361, IEC 61966-2-4, SMPTE RP177
Transfer characteristics : BT.709-5, BT.1361
Matrix coefficients : BT.709-5, BT.1361, IEC 61966-2-4 709, SMPTE RP177

Audio #1
Идентификатор : 2
Формат : AAC
Формат/Информация : Advanced Audio Codec
Профиль формата : LC
Идентификатор кодека : 40
Продолжительность : 42mn 31s
Вид битрейта : Variable
Битрейт : 128 Kbps
Максимальный битрейт : 285 Kbps
Каналы : 2 channels
Расположение каналов : Front: L R
Частота : 48.0 KHz
Метод сжатия : Lossy
Размер потока : 38.9 MiB (3%)
Язык : Russian
Дата кодирования : UTC 2011-10-31 15:27:45
Дата пометки : UTC 2011-10-31 16:25:47
Material_Duration : 2551573
Material_StreamSize : 40813716

Audio #2
Идентификатор : 3
Формат : AAC
Формат/Информация : Advanced Audio Codec
Профиль формата : LC
Идентификатор кодека : 40
Продолжительность : 42mn 32s
Вид битрейта : Variable
Битрейт : 128 Kbps
Максимальный битрейт : 218 Kbps
Каналы : 2 channels
Расположение каналов : Front: L R
Частота : 48.0 KHz
Метод сжатия : Lossy
Размер потока : 38.9 MiB (3%)
Язык : English
Дата кодирования : UTC 2011-10-31 15:27:45
Дата пометки : UTC 2011-10-31 16:25:47
Material_Duration : 2552917
Material_StreamSize : 40835614

«Ваше время ограничено, не тратьте его, живя другой жизнью. Не попадайтесь на крючок вероучения, которое существует на мышлении других людей. Не позволяйте взглядам других заглушать свой собственный внутренний голос. И очень важно иметь мужество следовать своему сердцу и интуиции. Они так или иначе уже знают, что вы действительно хотите сделать. Все остальное — второстепенно.»


Релиз предназначен только для воспроизведения на iPhone 4, iPod Touch 4 и iPad. На более ранних поколениях девайсов Apple он не воспроизведётся!
info [Профиль]  [ЛС] 

mitry134

Пол: Пол:Муж

Стаж: 7 лет 3 месяца

Сообщений: 98

Россия
Рейтинг

post 01-Ноя-2011 01:54 (спустя 5 часов) [-]0[+]

[Цитировать] 

Народ, ну, блин, помогите скачать-то!
info [Профиль]  [ЛС] 

Skromnjaga

Пол: Пол:Муж

Стаж: 7 лет 3 месяца

Сообщений: 202

Украина
Рейтинг

post 01-Ноя-2011 02:19 (спустя 25 минут) [-]10[+]

[Цитировать] 

Символично: смотреть фильм о человеке на устройстве, которое он же и создал.

_________________
МАГМА ТЕЧЁТ В НАШИХ ВЕНАХ, РАСКАЛЯЯ СЕРДЦА!
info [Профиль]  [ЛС] 

DietrichH

Пол: Пол:Муж

Стаж: 7 лет 11 месяцев

Сообщений: 953

Казахстан
Рейтинг

post 01-Ноя-2011 04:38 (спустя 2 часа 19 минут) [-]1[+]

[Цитировать] 

Skromnjaga писал(а):

Символично: смотреть фильм о человеке на устройстве, которое он же и создал.
да уж может и ещё чтонить бы создал

_________________
info [Профиль]  [ЛС] 

mitry134

Пол: Пол:Муж

Стаж: 7 лет 3 месяца

Сообщений: 98

Россия
Рейтинг

post 01-Ноя-2011 04:48 (спустя 9 минут) [-]0[+]

[Цитировать] 

Однозначно!
info [Профиль]  [ЛС] 

Life Guard

Пол: Пол:Муж

Стаж: 7 лет 3 месяца

Сообщений: 231

Россия
Рейтинг

post 01-Ноя-2011 14:27 (спустя 9 часов) [-]-7[+]

[Цитировать] 

Вчера по дискавери смотрел :-) впринципе никакой симпатии к эпплу после тесного знакомства у меня небыло и не будет..... ПРОСТОТА - вот пусть простофили и покупают простоту...
А так жалко мужика.... Меньше дурью и кислотой надо было бафаться по молодости
info [Профиль]  [ЛС] 

greentrol

Пол: Пол:Муж

Стаж: 5 лет 11 месяцев

Сообщений: 28

Россия
Рейтинг

post 01-Ноя-2011 14:34 (спустя 6 минут) [-]3[+]

[Цитировать] 

Простота в данном случае заключается в том чтобы дать человеку возможность полноценно пользоваться технологичным устройтвом, и именно на это работает технологический прогресс. А если такая простота не для вас, то не пользуйтесь графическим интерфейсом, пользуйтесь консолью или механическими манипуляторами для управления компьютером.
info [Профиль]  [ЛС] 

macosx

Пол: Пол:Муж

Стаж: 5 лет 11 месяцев

Сообщений: 5

Россия
Рейтинг

post 01-Ноя-2011 22:26 (спустя 7 часов) [-]-8[+]

[Цитировать] 

Релиз предназначен только для воспроизведения на iPhone 4, iPod Touch 4 и iPad. На более ранних поколениях девайсов Apple он не воспроизведётся!
Убери эту ерунду Улыбаюсь Компьютер это настолько мощный агрегат что ему пофигу на всё. В данном случае я открыл данное видео через Media Player Classic и через стандартный проигрыватель Улыбаюсь
Кодеки нынче творят чудеса Подмигиваю

_________________
info [Профиль]  [ЛС] 

RNBStyle2009

Стаж: 7 лет 9 месяцев

Сообщений: 7

Рейтинг

post 05-Ноя-2011 18:42 (спустя 3 дня) [-]0[+]

[Цитировать] 

Чем ты кодируюешь видео? ответь пожалуйста!?
info [Профиль]  [ЛС] 

vovkaglue

Пол: Пол:Муж

Стаж: 7 лет 7 месяцев

Сообщений: 31

Россия
Рейтинг

post 18-Мар-2012 14:57 (спустя 4 месяца 12 дней) [-]2[+]

[Цитировать] 

macosx писал(а):

Релиз предназначен только для воспроизведения на iPhone 4, iPod Touch 4 и iPad. На более ранних поколениях девайсов Apple он не воспроизведётся!
Убери эту ерунду Улыбаюсь Компьютер это настолько мощный агрегат что ему пофигу на всё. В данном случае я открыл данное видео через Media Player Classic и через стандартный проигрыватель Улыбаюсь
Кодеки нынче творят чудеса Подмигиваю
Ты тупой???Это информация для тех у кого iPhone 3GS or 3G...
info [Профиль]  [ЛС] 

post 09-Мар-2017 06:08 (спустя 4 года 11 месяцев) [-]0[+]

Топик был перенесен из форума Видео (iPhone/iPod Touch/iPad) в форум Архив (Apple Mobile Device Software)

timewritter
 
Показать сообщения:    
Ответить на тему

Текущее время: 25-Июн 00:38

Часовой пояс: GMT + 4



Вы не можете начинать темы
Вы не можете отвечать на сообщения
Вы не можете редактировать свои сообщения
Вы не можете удалять свои сообщения
Вы не можете голосовать в опросах
Вы не можете прикреплять файлы к сообщениям
Вы не можете скачивать файлы