Ошибка

Ван-Пис: Фильм первый / One Piece: The Great Gold Pirate [Movie][2000][приключения, комедия, фэнтези][BDRip][720p][Любительский (JAP+SUB)]

Ответить на тему
 
Автор Сообщение

Witcher

Пол: Пол:Муж

Стаж: 7 лет 8 месяцев

Сообщений: 6196

Рейтинг

post 25-Окт-2011 21:16 0[+]

[Цитировать] 

Ван-Пис: Фильм первый | Большой Куш | Одним куском
One Piece: The Great Gold Pirate | ONE PIECE ワンピース

pic="http://lostpic.net/images/e6fc213a7253d8d552c0b8b0fe3578a2.jpg"
One Piece (яп. - ワンピース , русс. Ван-Пис, Одним Куском) - это известнейшая манга и не уступающее ей по популярности аниме. В основе сюжета лежит рассказ о пирате Монки Д. Луффи ("Резиновом" человеке, съевшем дьявольский фрукт), который отправился в плавание, чтобы стать Королем Пиратов и найти величайшее в мире сокровище - One Piece. Но этот путь не так легок. В дороге он встречает верных друзей, непримиримых врагов, и бесстрашно идет к новым, невероятным приключениям!

Год: 2000
Премьера: 04.03.2000
Страна:
Жанр: приключения, комедия, фэнтези, сёнэн
Тип: короткометражный фильм, 50 мин.
Озвучка:
  • Любительская (одноголосая) [Е. Лурье]
  • Любительская (одноголосая) [Persona99]
  • Любительская (многоголосая) [AniMedia]
Субтитры: Присутствуют (внутренние) -
Источник: Witcher, HDChina
Режиссёр: Симидзу Дзюндзи
Снято по манге: Ван-Пис
Автор оригинала: Ода Эйитиро
Студия: Toei Animation

Описание:
  Когда-то на далёком востоке бороздил моря человек по имени Унан. Легенда гласит, что в бесчисленных битвах Унан награбил целую гору золота, которая ночами освещает океан не хуже солнца. С течением лет жизнь Унана угасла, но перед смертью великий Золотой Пират спрятал своё сокровище на одном острове, а кто-то из его команды нарисовал карту. Тот, кто раздобудет эту карту, сможет найти и золото.

  Многие пираты мечтают найти легендарный остров! И вот карта попадает в руки команды Соломенной Шляпы...

Действие фильма происходит после событий 18-го эпизода оригинального сериала.

Cубтитры:
  • Куваев Максим - в редакции Witcher`a (.ass)

Качество: BDRip [kulanyee@HDChina] | Хардсаб: Нет | Формат: MKV
: H.264 | 1280x720 (1.78:1) | 23,976 fps | ~ 5600 Kbps
:
  • JP - AC3 | 6 ch | 48 KHz | ~ 640 Kbps
  • RU - AC3 | 2 ch | 48 KHz | ~ 384 kbps - [Е. Лурье] - отдельно
  • RU - ACC | 2 ch | 48 KHz | ~ 128 kbps - [Persona99] - отдельно
  • RU - ACC | 2 ch | 48 KHz | ~ 224 kbps - [AniMedia] - отдельно

Уникальный идентификатор : 203506918608759367874026984501028317033 (0x991A01C084E4B87281741CEB3803E769)
Полное имя : F:\One Piece Movie 01\1. Ван-Пис - Фильм первый [One Piece - The Great Gold Pirate]\Ван-Пис - Фильм первый [One Piece - The Great Gold Pirate].mkv
Формат : Matroska
Версия формата : Version 2
Размер файла : 2,22 Гбайт
Продолжительность : 51 м.
Общий поток : 6244 Кбит/сек
Название фильма : Ван-Пис: Фильм первый | One Piece: The Great Gold Pirate - Witcher
Дата кодирования : UTC 2011-10-25 13:53:35
Программа кодирования : mkvmerge v5.0.1 ('Es ist Sommer') built on Oct 9 2011 11:55:43
Библиотека кодирования : libebml v1.2.2 + libmatroska v1.3.0
Attachment : Yes / Yes / Yes

Видео
Идентификатор : 1
Формат : AVC
Формат/Информация : Advanced Video Codec
Профиль формата : High@L4.1
Параметр CABAC формата : Да
Параметр ReFrames формата : 9 кадров
Идентификатор кодека : V_MPEG4/ISO/AVC
Продолжительность : 51 м.
Битрейт : 5600 Кбит/сек
Ширина : 1280 пикселей
Высота : 720 пикселей
Соотношение сторон : 16:9
Частота кадров : 23,976 кадра/сек
Цветовое пространство : YUV
Субдискретизация насыщенности : 4:2:0
Битовая глубина : 8 бит
Тип развёртки : Прогрессивная
Бит/(Пиксели*Кадры) : 0.253
Размер потока : 1,95 Гбайт (88%)
Заголовок : Ван-Пис: Фильм первый | One Piece: The Great Gold Pirate
Библиотека кодирования : x264 core 118 r2085 8a62835
Настройки программы : cabac=1 / ref=9 / deblock=1:-2:-2 / analyse=0x3:0x133 / me=umh / subme=10 / psy=1 / psy_rd=0.80:0.00 / mixed_ref=1 / me_range=48 / chroma_me=1 / trellis=2 / 8x8dct=1 / cqm=0 / deadzone=21,11 / fast_pskip=1 / chroma_qp_offset=-2 / threads=6 / sliced_threads=0 / nr=0 / decimate=0 / interlaced=0 / bluray_compat=0 / constrained_intra=0 / bframes=10 / b_pyramid=2 / b_adapt=2 / b_bias=0 / direct=3 / weightb=1 / open_gop=0 / weightp=2 / keyint=360 / keyint_min=3 / scenecut=40 / intra_refresh=0 / rc_lookahead=60 / rc=2pass / mbtree=1 / bitrate=5600 / ratetol=1.0 / qcomp=0.70 / qpmin=0 / qpmax=69 / qpstep=4 / cplxblur=20.0 / qblur=0.5 / vbv_maxrate=50000 / vbv_bufsize=40000 / nal_hrd=none / ip_ratio=1.40 / aq=2:1.00
Язык : Japanese

Аудио
Идентификатор : 2
Формат : AC-3
Формат/Информация : Audio Coding 3
Профиль формата : Dolby Digital
Расширение режима : CM (complete main)
Идентификатор кодека : A_AC3
Продолжительность : 51 м.
Вид битрейта : Постоянный
Битрейт : 640 Кбит/сек
Каналы : 2 канала
Расположение каналов : Front: L R
Частота : 48,0 КГц
Битовая глубина : 16 бит
Метод сжатия : С потерями
Размер потока : 234 Мбайт (10%)
Язык : Japanese

Текст
Идентификатор : 3
Формат : ASS
Идентификатор кодека : S_TEXT/ASS
Идентификатор кодека/Информация : Advanced Sub Station Alpha
Метод сжатия : Без потерь
Заголовок : Максим Куваев, Witcher
Язык : Russian

© Оформление by Witcher
info [Профиль]  [ЛС] 

Witcher

Пол: Пол:Муж

Стаж: 7 лет 8 месяцев

Сообщений: 6196

Рейтинг

post 25-Окт-2011 21:17 (спустя 1 минута) [-]1[+]

[Цитировать] 

anime_9
В течении двух недель сделаю все фильмы и спешалы к ним. Сабы оформлены в стиле моей основной раздачи, привыкания вызывать не будет.

_________________
Темы не проверяю, для этого есть модераторы.
info [Профиль]  [ЛС] 

allross

Пол: Пол:Муж

Стаж: 6 лет 8 месяцев

Сообщений: 3

Россия
Рейтинг

post 26-Окт-2011 15:27 (спустя 18 часов) [-]0[+]

[Цитировать] 

Подскажите, как включить сабы или озвучку, у меня MP Classic. Заранее спасибо.
info [Профиль]  [ЛС] 

Witcher

Пол: Пол:Муж

Стаж: 7 лет 8 месяцев

Сообщений: 6196

Рейтинг

post 26-Окт-2011 15:33 (спустя 5 минут) [-]0[+]

[Цитировать] 

allross
Сабы по умолчанию включены, а на мпс правой кнопкой щелкните и во вкладке аудио выберите нужную.

_________________
Темы не проверяю, для этого есть модераторы.
info [Профиль]  [ЛС] 

GreyYar

Пол: Пол:Муж

Стаж: 6 лет 5 месяцев

Сообщений: 193

Россия
Рейтинг

post 27-Окт-2011 15:53 (спустя 1 день) [-]0[+]

[Цитировать] 

Withcer, спасибо огромное!!
Как раз искал, где бы посмотреть фильмы OP в HD-качестве..
Жду с нетерпением остальных релизов kolob_117
info [Профиль]  [ЛС] 

makakid08

Пол: Пол:Муж

Стаж: 7 лет 1 месяц

Сообщений: 24

Россия
Рейтинг

post 20-Янв-2012 14:00 (спустя 2 месяца 23 дня) [-]0[+]

[Цитировать] 

У меня такой вопрос а как сабы сохранить при конвертировании на psp??? Просто после конвертирования они пропадают, а что делать я незнаю. Помоги пожалуйста

_________________
info [Профиль]  [ЛС] 

GreyYar

Пол: Пол:Муж

Стаж: 6 лет 5 месяцев

Сообщений: 193

Россия
Рейтинг

post 20-Янв-2012 18:50 (спустя 4 часа) [-]0[+]

[Цитировать] 

makakid08 писал(а):

У меня такой вопрос а как сабы сохранить при конвертировании на psp??? Просто после конвертирования они пропадают, а что делать я незнаю. Помоги пожалуйста
Попробуй, поищи статьи по "вшиванию" сабов в видео - вошьёшь сабы в конвертированное видео или наоборот сначала вошьёшь а потом сконвертируешь(сам не пробовал, но читал)
info [Профиль]  [ЛС] 

Witcher

Пол: Пол:Муж

Стаж: 7 лет 8 месяцев

Сообщений: 6196

Рейтинг

post 20-Янв-2012 19:41 (спустя 51 минута) [-]0[+]

[Цитировать] 

makakid08
Извлечь из контейнера и уже всунуть в перекодированную версию.

_________________
Темы не проверяю, для этого есть модераторы.
info [Профиль]  [ЛС] 
Показать сообщения:    
Ответить на тему

Текущее время: 08-Дек 02:21

Часовой пояс: GMT + 4



Вы не можете начинать темы
Вы не можете отвечать на сообщения
Вы не можете редактировать свои сообщения
Вы не можете удалять свои сообщения
Вы не можете голосовать в опросах
Вы не можете прикреплять файлы к сообщениям
Вы не можете скачивать файлы