Ошибка

До окончания фрилича осталось:


Обитель зла 4: Жизнь после смерти 3D / Resident Evil: Afterlife 3D (Пол У. С. Андерсон) [2010 г., ужасы, фантастика, боевик, триллер, BDRip, 3D]

Ответить на тему
 
Автор Сообщение

Dr.Zero

Пол: Пол:Муж

Стаж: 7 лет 5 месяцев

Сообщений: 198

Украина
Рейтинг

post 08-Окт-2011 21:11 0[+]

[Цитировать] 

pic="http://s46.radikal.ru/i113/1110/2e/c0bdb04c2535.jpg"
Обитель зла 4: Жизнь после смерти 3D / Resident Evil: Afterlife 3D


Год выпуска: 2010
Страна: Германия, Франция, Великобритания
Жанр: ужасы, фантастика, боевик, триллер
Продолжительность: 01:36:51
Перевод: Профессиональный (полное дублирование)
Режиссер:
  • Пол У. С. Андерсон

В ролях:
  • Милла Йовович (Alice), Эли Лартер (Claire Redfield), Вентворт Миллер (Chris Redfield), Ким Коутс (Bennett), Шоун Робертс (Albert Wesker), Серджо Перис-Менчета (Angel), Спенсер Лок (K-Mart), Борис Коджо (Luther), Сиенна Гиллори (Jill Valentine), Кейси Барнфилд (Crystal), Норман Енг (Kim Yong), Фульвио Чечере (Wendell)

Описание: Элис продолжает свой путь в мире, поражённом вирусной инфекцией, превращающей людей в нежить. Героиня ищет оставшихся в живых, чтобы вывести их в безопасное место. Её смертельная битва с корпорацией Амбрелла выходит на новый уровень, когда она вдруг получает неожиданную помощь от старого друга. Он обещает привести Элис в безопасную зону в Лос-Анджелесе, но как только они попадают в город, то видят тысячи и тысячи заражённых и оказываются в смертельной ловушке
General
Format : Matroska
File size : 5.40 GiB
Duration : 1h 36mn
Overall bit rate : 7 977 Kbps
Encoded date : UTC 2011-09-28 13:32:44
Writing application : mkvmerge v4.4.0 ('Die Wiederkehr') сборка от Oct 31 2010 21:52:48
Writing library : libebml v1.0.0 + libmatroska v1.0.0
Video
ID : 1
Format : AVC
Format/Info : Advanced Video Codec
Format profile : High@L4.0
Format settings, CABAC : Yes
Format settings, ReFrames : 4 frames
Format settings, GOP : M=2, N=32
Codec ID : V_MPEG4/ISO/AVC
Duration : 1h 36mn
Bit rate : 7 370 Kbps
Width : 1 920 pixels
Height : 800 pixels
Display aspect ratio : 2.40:1
Frame rate : 23.976 fps
Color space : YUV
Chroma subsampling : 4:2:0
Bit depth : 8 bits
Scan type : Progressive
Bits/(Pixel*Frame) : 0.200
Stream size : 4.99 GiB (92%)
Writing library : x264 core 115 r1995 c1e60b9
Encoding settings : cabac=1 / ref=4 / deblock=1:-2:-2 / analyse=0x3:0x113 / me=umh / subme=9 / psy=1 / psy_rd=1.00:0.15 / mixed_ref=1 / me_range=16 / chroma_me=1 / trellis=2 / 8x8dct=1 / cqm=0 / deadzone=21,11 / fast_pskip=1 / chroma_qp_offset=-3 / threads=6 / sliced_threads=0 / nr=0 / decimate=1 / interlaced=0 / bluray_compat=0 / constrained_intra=0 / bframes=6 / b_pyramid=0 / b_adapt=2 / b_bias=0 / direct=3 / weightb=1 / open_gop=0 / weightp=2 / keyint=250 / keyint_min=23 / scenecut=40 / intra_refresh=0 / rc_lookahead=40 / rc=crf / mbtree=1 / crf=18.0 / qcomp=0.60 / qpmin=10 / qpmax=69 / qpstep=4 / ip_ratio=1.40 / aq=1:1.00
Audio
ID : 2
Format : AC-3
Format/Info : Audio Coding 3
Mode extension : CM (complete main)
Codec ID : A_AC3
Duration : 1h 36mn
Bit rate mode : Constant
Bit rate : 448 Kbps
Channel(s) : 6 channels
Channel positions : Front: L C R, Side: L R, LFE
Sampling rate : 48.0 KHz
Bit depth : 16 bits
Compression mode : Lossy
Stream size : 310 MiB (6%)
Качество: BDRip
Формат: MKV
Формат 3D: Анаглиф red-cyan (Дюбуа)
Порядок ракурсов: левый ракурс первый
Видео кодек: H.264
Аудио кодек: AC3
Видео: 1920x800, 23.98fps, 7370 Kbps
Аудио: Dolby AC3, 48КHz, 6ch, 448 Kbps
info [Профиль]  [ЛС] 

dimil

Пол: Пол:Муж

Стаж: 5 лет 5 месяцев

Сообщений: 128

Украина
Рейтинг

post 10-Окт-2011 14:49 (спустя 1 день 17 часов) [-]0[+]

[Цитировать] 

Спасибо за труды, но совет на будущее: выкладывайте лучше стереопары. Они подходят как для просмотра на нормальном 3Д оборудовании так и в анаглифе. Большинство плееров автоматом конвертят стереопару в анаглиф.

_________________
Это - демо-версия поста. В полной версии мои мысли описаны более полно и без орфографических ошибок. Чтобы увидеть полную версию вы должны заплатить мне денег!
info [Профиль]  [ЛС] 

Dr.Zero

Пол: Пол:Муж

Стаж: 7 лет 5 месяцев

Сообщений: 198

Украина
Рейтинг

post 10-Окт-2011 19:14 (спустя 4 часа) [-]0[+]

[Цитировать] 

dimil писал(а):

выкладывайте лучше стереопары
что есть, то есть

_________________
info [Профиль]  [ЛС] 
Показать сообщения:    
Ответить на тему

Текущее время: 10-Дек 10:56

Часовой пояс: GMT + 4



Вы не можете начинать темы
Вы не можете отвечать на сообщения
Вы не можете редактировать свои сообщения
Вы не можете удалять свои сообщения
Вы не можете голосовать в опросах
Вы не можете прикреплять файлы к сообщениям
Вы не можете скачивать файлы