Ошибка

Red Hot Chili Peppers -''I'm With You'' [2011 г., Funk Rock, HDTVRip 1080i]

Ответить на тему
 
Автор Сообщение

vanes92

Пол: Пол:Муж

Стаж: 5 лет 5 месяцев

Сообщений: 32

Россия
Рейтинг

post 18-Сен-2011 12:17 1[+]

[Цитировать] 

Red Hot Chili Peppers -''I'm With You''

Год выпуска: 2011
Жанр: Funk Rock
Происхождение исполнителя: США
Продолжительность: 01:32:55

Композиции:
1. Monarchy Of Roses
2. Factory Of Faith
3. Brendan's Death Song
4. Ethiopia
5. Annie Wants A Baby
6. Look Around
7. Frankenstein (Edgar Wiliams Cover)
8. The Adventures Of Rain Dance Maggie
9. Jam
10.Did I Let You Know (With Michael Bulger On Trumpet)
11.Goodbye Hooray
12.Happiness Loves Company (Flea On Piano And Josh On bass)
13.Police Station (Michael Bulger On Piano)
14.Meet Me At The Corner
15.Dance Dance Dance
16.Me And My Friends
17.Did I Let You Know (Michael Bulger On Trumpet) исполняли повторно
18.Give It Away


Описание:
30-го августа, в день выхода новой пластинки RHCP “I’m”With You” музыканты исполнят весь альбом полностью на концерте в Кёльне.
Посмотреть прямую трансляцию концерта поклонники могли в кинотеатрах 39 стран мира, в том числе в США, Аргентине, Чили, Бразилии и странах Европы. В Москве трансляция шла в клубе «16 тонн». Новый альбом также будет первым, в котором играет гитарист Джош Клингхоффер (Josh Klinghoffer), заменивший феноменального гитариста Джона Фрусчанте (John Frusciante), покинувшего группу в 2009 году.


Происхождение видео: HDTVRip
Формат: TS
Видео кодек: MPEG2
Данные видео: 1920x1080i, 17.2 Mbps, 25 fps
Аудио кодек: AC3
Данные аудио: 48.0 KHz, 6 channels, 448 Kbps
Format : MPEG-TS
File size : 12.3 GiB
Duration : 1h 32mn
Overall bit rate : 19.0 Mbps
Video
ID : 308 (0x134)
Menu ID : 1 (0x1)
Format : MPEG Video
Format version : Version 2
Format profile : Main@High
Format settings, Matrix : Default
Duration : 1h 32mn
Bit rate mode : Variable
Bit rate : 17.2 Mbps
Nominal bit rate : 18.1 Mbps
Width : 1 920 pixels
Height : 1 080 pixels
Display aspect ratio : 16/9
Frame rate : 25.000 fps
Colorimetry : 4:2:0
Scan type : Interlaced
Scan order : Top Field First
Bits/(Pixel*Frame) : 0.333
Stream size : 11.2 GiB (91%)
Audio
ID : 256 (0x100)
Menu ID : 1 (0x1)
Format : AC-3
Format/Info : Audio Coding 3
Duration : 1h 32mn
Bit rate mode : Constant
Bit rate : 448 Kbps
Channel(s) : 6 channels
Channel positions : Front: L C R, Surround: L R, LFE
Sampling rate : 48.0 KHz
Stream size : 298 MiB (2%)
Language : one
info [Профиль]  [ЛС] 

Raa

Пол: Пол:Муж

Стаж: 6 лет 8 месяцев

Сообщений: 1099

Рейтинг

post 18-Сен-2011 12:42 (спустя 25 минут) [-]0[+]

[Цитировать] 

vanes92
Постер сделайте не кликабельным.
info [Профиль]  [ЛС] 

японский лётчик

Пол: Пол:Муж

Стаж: 7 лет 8 месяцев

Сообщений: 27

Норфолк
Рейтинг

post 10-Мар-2012 09:26 (спустя 5 месяцев 21 день) [-]0[+]

[Цитировать] 

Дайте скорости... Очень надо... anime_4

_________________
info [Профиль]  [ЛС] 
Показать сообщения:    
Ответить на тему

Текущее время: 03-Дек 19:46

Часовой пояс: GMT + 4



Вы не можете начинать темы
Вы не можете отвечать на сообщения
Вы не можете редактировать свои сообщения
Вы не можете удалять свои сообщения
Вы не можете голосовать в опросах
Вы не можете прикреплять файлы к сообщениям
Вы не можете скачивать файлы