Ошибка

Красная Шапка против зла / Hoodwinked Too! Hood VS. Evil (Майкл Д’Иса-Хоган) [2011 г., мультфильм, семейный, BDRip 720p]

Ответить на тему
 
Автор Сообщение

Pahan

Пол: Пол:Муж

Стаж: 6 лет 2 месяца

Сообщений: 922

Предупреждений: 3

Россия
Рейтинг

post 29-Авг-2011 03:10 0[+]

[Цитировать] 

pic="http://i25.fastpic.ru/big/2011/0829/17/3e1cc410a4242797fb7db627dbf39317.jpg"
Красная Шапка против зла / Hoodwinked Too! Hood VS. Evil


Год выпуска: 2011
Страна: США / HW Two, Kanbar Entertainment, The Weinstein Company
Жанр: мультфильм, семейный
Продолжительность: 01:26:23
Перевод: дублированный |лицензия|
Субтитры: английские

Режиссер:
  • Майкл Д’Иса-Хоган


В ролях:
  • Гленн Клоуз, Хайден Панеттьери, Чич Марин, Патрик Варбертон, Джоан Кьюсак, Билл Хэйдер, Дэвид Огден Стайерз, Эми Полер, Кори Эдвардс, Мартин Шорт


Описание:
Красная Шапка проходит курс подготовки в шпионской школе «Хитрый Дятел» и становится секретным агентом. Глава разведшколы сразу кидает Шапку в самое пекло. Ее миссия — расследовать загадочное исчезновение Гензель и Гретель. Возможно, Шапка так бы и провалила первое задание, но отважная Бабушка, Волк — папарацци и вся банда лесной братвы сотрут в порошок любого, кто встанет на пути любимой внученьки. Пусть это будет хоть само Зло!






Качество: BDRip 720p
Формат: MKV
Видео кодек: x264
Аудио кодек: DTS, AC3
Видео: 1280x720 (16:9), 23.976 fps, 0.260 bit/pixel, 5 740 Kbps
Аудио: 48.0 KHz, AC3, (6 ch) (L,C,R,l,r) + LFE, 384 kbps
Аудио: 48.0 KHz, DTS, (6 ch) (L,C,R,l,r) + LFE, 1510 kbps

General
Complete name : D:\Krasnaja.Shapka.protiv.zla.2011.D.BDRip.720p.mkv
Format : Matroska
File size : 4.61 GiB
Duration : 1h 26mn
Overall bit rate : 7 635 Kbps
Movie name : Hoodwinked.Too!.Hood.vs.Evil.2011.720p.BluRay.x264.DTS
Encoded date : UTC 2011-08-28 20:53:49
Writing application : mkvmerge v3.4.0 ('Rapunzel') сборка от May 15 2010 09:38:20
Writing library : libebml v0.8.0 + libmatroska v0.9.0

Video
ID : 1
Format : AVC
Format/Info : Advanced Video Codec
Format profile : High@L4.1
Format settings, CABAC : Yes
Format settings, ReFrames : 8 frames
Muxing mode : Container profile=Unknown@4.1
Codec ID : V_MPEG4/ISO/AVC
Duration : 1h 26mn
Bit rate : 5 740 Kbps
Width : 1 280 pixels
Height : 720 pixels
Display aspect ratio : 16:9
Frame rate : 23.976 fps
Color space : YUV
Chroma subsampling : 4:2:0
Bit depth : 8 bits
Scan type : Progressive
Bits/(Pixel*Frame) : 0.260
Stream size : 3.37 GiB (73%)
Writing library : x264 core 98 r1649 c54c47d
Encoding settings : cabac=1 / ref=8 / deblock=1:-1:-1 / analyse=0x3:0x113 / me=umh / subme=9 / psy=1 / psy_rd=1.00:0.10 / mixed_ref=1 / me_range=48 / chroma_me=1 / trellis=2 / 8x8dct=1 / cqm=0 / deadzone=21,11 / fast_pskip=0 / chroma_qp_offset=-5 / threads=6 / sliced_threads=0 / nr=0 / decimate=0 / interlaced=0 / constrained_intra=0 / bframes=6 / b_pyramid=2 / b_adapt=2 / b_bias=0 / direct=3 / weightb=1 / weightp=2 / keyint=250 / keyint_min=25 / scenecut=40 / intra_refresh=0 / rc_lookahead=48 / rc=2pass / mbtree=1 / bitrate=5740 / ratetol=1.0 / qcomp=0.60 / qpmin=10 / qpmax=51 / qpstep=4 / cplxblur=20.0 / qblur=0.5 / ip_ratio=1.40 / aq=1:0.90
Language : English

Audio #1
ID : 2
Format : AC-3
Format/Info : Audio Coding 3
Mode extension : CM (complete main)
Codec ID : A_AC3
Duration : 1h 26mn
Bit rate mode : Constant
Bit rate : 384 Kbps
Channel(s) : 6 channels
Channel positions : Front: L C R, Side: L R, LFE
Sampling rate : 48.0 KHz
Stream size : 237 MiB (5%)
Title : AC3 384 kbs 5.1
Language : Russian

Audio #2
ID : 3
Format : DTS
Format/Info : Digital Theater Systems
Codec ID : A_DTS
Duration : 1h 26mn
Bit rate mode : Constant
Bit rate : 1 510 Kbps
Channel(s) : 6 channels
Channel positions : Front: L C R, Side: L R, LFE
Sampling rate : 48.0 KHz
Bit depth : 24 bits
Stream size : 933 MiB (20%)
Title : DTS 1510 kbs 5.1
Language : English

Text
ID : 4
Format : UTF-8
Codec ID : S_TEXT/UTF8
Codec ID/Info : UTF-8 Plain Text
Language : English

info [Профиль]  [ЛС] 

хавло

Пол: Пол:Муж

Стаж: 7 лет 8 месяцев

Сообщений: 60

Россия
Рейтинг

post 03-Сен-2011 21:38 (спустя 5 дней) [-]0[+]

[Цитировать] 

как мультик то?
никто коменты не оставляет. стоит качать?

_________________
info [Профиль]  [ЛС] 

AlexFormula

Пол: Пол:Муж

Стаж: 7 лет 8 месяцев

Сообщений: 16621

Рейтинг

post 04-Сен-2011 00:30 (спустя 2 часа 52 минуты) [-]0[+]

[Цитировать] 

Цитата:

как мультик то?
Оценка ниже 5 баллов сама за себя говорит.
info [Профиль]  [ЛС] 

post 10-Окт-2011 08:27 (спустя 1 месяц 6 дней) [-]0[+]

Топик был перенесен из форума DVD, HD DVD, Blu-ray, HD Rips в форум Мультфильмы (HD Video)

Panky
 
Показать сообщения:    
Ответить на тему

Текущее время: 08-Дек 18:29

Часовой пояс: GMT + 4



Вы не можете начинать темы
Вы не можете отвечать на сообщения
Вы не можете редактировать свои сообщения
Вы не можете удалять свои сообщения
Вы не можете голосовать в опросах
Вы не можете прикреплять файлы к сообщениям
Вы не можете скачивать файлы