Ошибка

(Hip-Hop) 50 Cent - Discography - (2002-2010), FLAC (tracks+.cue), lossless 9 релизов

Ответить на тему
 
Автор Сообщение

bobahchik3

Пол: Пол:Муж

Стаж: 6 лет 8 месяцев

Сообщений: 276

Россия
Рейтинг

post 24-Авг-2011 01:44 2[+]

[Цитировать] 

pic="http://i31.fastpic.ru/big/2011/0926/68/0f3d676208f670967f3ed8238ab1f168.jpg"

Жанр: Hip-Hop
Происхождение исполнителя: USA
Аудио кодек: FLAC
Тип рипа: tracks+.cue
Битрейт аудио: lossless
Тип издания: Discography
Общая продолжительность: 7:14:56.893 (1150872996 samples)


http://ru.wikipedia.org/wiki/50_cent писал(а):

Кёртис Джеймс Дже́ксон III(англ. Curtis James Jackson III; 6 июля 1975), больше известный под своим сценическим псевдонимом 50 Cent (англ. 50 центов) — американский рэпер. Известность пришла к нему с выпуском альбомов Get Rich or Die Tryin' (англ. Разбогатей или умри) и The Massacre (англ. Резня). 50 Cent добился успеха с обоими альбомами, продав более 36 миллионов копий по всему миру

01. Intro (0:06)
02. What Up Gangsta (2:59)
03. Patiently Waiting feat. Eminem (4:49)
04. Many Men (Wish Death) (4:16)
05. In Da Club (3:13)
06. High All The Time (4:29)
07. Heat (4:15)
08. If I Can't (3:17)
09. Blood Hound feat. Young Buck of G Unit (4:00)
10. Back Down (4:03)
11. P.I.M.P. (4:09)
12. Like My Style feat. Tony Yayo of G Unit (3:13)
13. Poor Lil Rich (3:19)
14. 21 Questions feat. Nate Dogg (3:44)
15. Don't Push Me (4:09)
16. Gotta Make It To Heaven (4:01)
17. Wanksta (3:39)
18. U Not Like Me (4:16)
19. Life's On The Line (3:38)
Exact Audio Copy V0.99 prebeta 4 from 23. January 2008 

EAC extraction logfile from 13. June 2008, 0:53

50 Cent / Get Rich Or Die Tryin'

Used drive : PLEXTOR DVDR PX-800A Adapter: 0 ID: 0

Read mode : Secure
Utilize accurate stream : Yes
Defeat audio cache : Yes
Make use of C2 pointers : No

Read offset correction : 48
Overread into Lead-In and Lead-Out : No
Fill up missing offset samples with silence : Yes
Delete leading and trailing silent blocks : No
Null samples used in CRC calculations : Yes
Used interface : Native Win32 interface for Win NT & 2000
Gap handling : Appended to previous track

Used output format : User Defined Encoder
Selected bitrate : 320 kBit/s
Quality : High
Add ID3 tag : No
Command line compressor : C:\Program Files\Exact Audio Copy\Flac\flac.exe
Additional command line options : -V -8 -T "artist=%a" -T "title=%t" -T "album=%g" -T "date=%y" -T "tracknumber=%n" -T "genre=%m" %s

TOC of the extracted CD

Track | Start | Length | Start sector | End sector
---------------------------------------------------------
1 | 0:00.00 | 0:06.35 | 0 | 484
2 | 0:06.35 | 2:59.35 | 485 | 13944
3 | 3:05.70 | 4:48.65 | 13945 | 35609
4 | 7:54.60 | 4:16.18 | 35610 | 54827
5 | 12:11.03 | 3:13.35 | 54828 | 69337
6 | 15:24.38 | 4:29.27 | 69338 | 89539
7 | 19:53.65 | 4:14.68 | 89540 | 108657
8 | 24:08.58 | 3:16.47 | 108658 | 123404
9 | 27:25.30 | 4:00.00 | 123405 | 141404
10 | 31:25.30 | 4:03.00 | 141405 | 159629
11 | 35:28.30 | 4:09.36 | 159630 | 178340
12 | 39:37.66 | 3:13.19 | 178341 | 192834
13 | 42:51.10 | 3:19.15 | 192835 | 207774
14 | 46:10.25 | 3:44.33 | 207775 | 224607
15 | 49:54.58 | 4:08.67 | 224608 | 243274
16 | 54:03.50 | 4:00.50 | 243275 | 261324
17 | 58:04.25 | 3:39.30 | 261325 | 277779
18 | 61:43.55 | 4:15.50 | 277780 | 296954
19 | 65:59.30 | 3:38.35 | 296955 | 313339

Track 1

Filename D:\Music Library\50 Cent\50 Cent - 2003 - Get Rich Or Die Tryin'\50 Cent - 01 - Intro.wav

Pre-gap length 0:00:02.00

Peak level 94.8 %
Track quality 100.0 %
Test CRC A872C7BD
Copy CRC A872C7BD
Accurately ripped (confidence 96) [3926D013]
Copy OK

Track 2

Filename D:\Music Library\50 Cent\50 Cent - 2003 - Get Rich Or Die Tryin'\50 Cent - 02 - What Up Gangsta.wav

Peak level 95.2 %
Track quality 100.0 %
Test CRC 36C01866
Copy CRC 36C01866
Accurately ripped (confidence 98) [6E45E560]
Copy OK

Track 3

Filename D:\Music Library\50 Cent\50 Cent - 2003 - Get Rich Or Die Tryin'\50 Cent - 03 - Patiently Waiting feat. Eminem.wav

Peak level 94.1 %
Track quality 99.9 %
Test CRC 36AF3B91
Copy CRC 36AF3B91
Accurately ripped (confidence 95) [618AD7F5]
Copy OK

Track 4

Filename D:\Music Library\50 Cent\50 Cent - 2003 - Get Rich Or Die Tryin'\50 Cent - 04 - Many Men (Wish Death).wav

Peak level 99.9 %
Track quality 100.0 %
Test CRC 0D7A6F01
Copy CRC 0D7A6F01
Accurately ripped (confidence 94) [519C6382]
Copy OK

Track 5

Filename D:\Music Library\50 Cent\50 Cent - 2003 - Get Rich Or Die Tryin'\50 Cent - 05 - In Da Club.wav

Peak level 99.9 %
Track quality 100.0 %
Test CRC A83A855E
Copy CRC A83A855E
Accurately ripped (confidence 98) [92E75313]
Copy OK

Track 6

Filename D:\Music Library\50 Cent\50 Cent - 2003 - Get Rich Or Die Tryin'\50 Cent - 06 - High All The Time.wav

Peak level 97.5 %
Track quality 100.0 %
Test CRC 73BCFC4E
Copy CRC 73BCFC4E
Accurately ripped (confidence 91) [E6417E52]
Copy OK

Track 7

Filename D:\Music Library\50 Cent\50 Cent - 2003 - Get Rich Or Die Tryin'\50 Cent - 07 - Heat.wav

Peak level 94.9 %
Track quality 100.0 %
Test CRC F05352B5
Copy CRC F05352B5
Accurately ripped (confidence 93) [72094568]
Copy OK

Track 8

Filename D:\Music Library\50 Cent\50 Cent - 2003 - Get Rich Or Die Tryin'\50 Cent - 08 - If I Can't.wav

Peak level 99.8 %
Track quality 100.0 %
Test CRC E1A895C1
Copy CRC E1A895C1
Accurately ripped (confidence 94) [C10AD3A4]
Copy OK

Track 9

Filename D:\Music Library\50 Cent\50 Cent - 2003 - Get Rich Or Die Tryin'\50 Cent - 09 - Blood Hound feat. Young Buck of G Unit.wav

Peak level 98.9 %
Track quality 100.0 %
Test CRC 9EF0BD79
Copy CRC 9EF0BD79
Accurately ripped (confidence 94) [0A7D8699]
Copy OK

Track 10

Filename D:\Music Library\50 Cent\50 Cent - 2003 - Get Rich Or Die Tryin'\50 Cent - 10 - Back Down.wav

Peak level 100.0 %
Track quality 100.0 %
Test CRC 9E8DE9DD
Copy CRC 9E8DE9DD
Accurately ripped (confidence 88) [FB078BF5]
Copy OK

Track 11

Filename D:\Music Library\50 Cent\50 Cent - 2003 - Get Rich Or Die Tryin'\50 Cent - 11 - P.I.M.P..wav

Peak level 99.9 %
Track quality 100.0 %
Test CRC A29FDA37
Copy CRC A29FDA37
Accurately ripped (confidence 92) [9C5A8EE9]
Copy OK

Track 12

Filename D:\Music Library\50 Cent\50 Cent - 2003 - Get Rich Or Die Tryin'\50 Cent - 12 - Like My Style feat. Tony Yayo of G Unit.wav

Peak level 100.0 %
Track quality 99.9 %
Test CRC 4B6A8268
Copy CRC 4B6A8268
Accurately ripped (confidence 91) [7627DEC6]
Copy OK

Track 13

Filename D:\Music Library\50 Cent\50 Cent - 2003 - Get Rich Or Die Tryin'\50 Cent - 13 - Poor Lil Rich.wav

Peak level 99.9 %
Track quality 100.0 %
Test CRC EA1275AF
Copy CRC EA1275AF
Accurately ripped (confidence 90) [D29609F8]
Copy OK

Track 14

Filename D:\Music Library\50 Cent\50 Cent - 2003 - Get Rich Or Die Tryin'\50 Cent - 14 - 21 Questions feat. Nate Dogg.wav

Peak level 99.9 %
Track quality 99.9 %
Test CRC B9F14275
Copy CRC B9F14275
Accurately ripped (confidence 92) [02245A10]
Copy OK

Track 15

Filename D:\Music Library\50 Cent\50 Cent - 2003 - Get Rich Or Die Tryin'\50 Cent - 15 - Don't Push Me.wav

Peak level 97.7 %
Track quality 100.0 %
Test CRC ED7F585F
Copy CRC ED7F585F
Accurately ripped (confidence 86) [DD7D0BD5]
Copy OK

Track 16

Filename D:\Music Library\50 Cent\50 Cent - 2003 - Get Rich Or Die Tryin'\50 Cent - 16 - Gotta Make It To Heaven.wav

Peak level 94.3 %
Track quality 100.0 %
Test CRC EEDD1317
Copy CRC EEDD1317
Accurately ripped (confidence 91) [B32E5321]
Copy OK

Track 17

Filename D:\Music Library\50 Cent\50 Cent - 2003 - Get Rich Or Die Tryin'\50 Cent - 17 - Wanksta.wav

Peak level 99.9 %
Track quality 100.0 %
Test CRC A7AAED3C
Copy CRC A7AAED3C
Accurately ripped (confidence 91) [A6F45683]
Copy OK

Track 18

Filename D:\Music Library\50 Cent\50 Cent - 2003 - Get Rich Or Die Tryin'\50 Cent - 18 - U Not Like Me.wav

Peak level 98.1 %
Track quality 99.9 %
Test CRC 1FB1BB04
Copy CRC 1FB1BB04
Accurately ripped (confidence 90) [5047974E]
Copy OK

Track 19

Filename D:\Music Library\50 Cent\50 Cent - 2003 - Get Rich Or Die Tryin'\50 Cent - 19 - Life's On The Line.wav

Peak level 89.1 %
Track quality 100.0 %
Test CRC 37245D3F
Copy CRC 37245D3F
Accurately ripped (confidence 91) [FFC801BC]
Copy OK

All tracks accurately ripped

No errors occurred

End of status report
REM GENRE Rap 
REM DATE 2003
REM DISCID 2B105113
REM COMMENT "ExactAudioCopy v0.99pb4"
PERFORMER "50 Cent"
TITLE "Get Rich Or Die Tryin'"
FILE "50 Cent - 2003 - Get Rich Or Die Tryin'\50 Cent - 01 - Intro.wav" WAVE
TRACK 01 AUDIO
TITLE "Intro"
PERFORMER "50 Cent"
INDEX 01 00:00:00
FILE "50 Cent - 2003 - Get Rich Or Die Tryin'\50 Cent - 02 - What Up Gangsta.wav" WAVE
TRACK 02 AUDIO
TITLE "What Up Gangsta"
PERFORMER "50 Cent"
INDEX 01 00:00:00
FILE "50 Cent - 2003 - Get Rich Or Die Tryin'\50 Cent - 03 - Patiently Waiting feat. Eminem.wav" WAVE
TRACK 03 AUDIO
TITLE "Patiently Waiting feat. Eminem"
PERFORMER "50 Cent"
INDEX 01 00:00:00
FILE "50 Cent - 2003 - Get Rich Or Die Tryin'\50 Cent - 04 - Many Men (Wish Death).wav" WAVE
TRACK 04 AUDIO
TITLE "Many Men (Wish Death)"
PERFORMER "50 Cent"
INDEX 01 00:00:00
FILE "50 Cent - 2003 - Get Rich Or Die Tryin'\50 Cent - 05 - In Da Club.wav" WAVE
TRACK 05 AUDIO
TITLE "In Da Club"
PERFORMER "50 Cent"
INDEX 01 00:00:00
FILE "50 Cent - 2003 - Get Rich Or Die Tryin'\50 Cent - 06 - High All The Time.wav" WAVE
TRACK 06 AUDIO
TITLE "High All The Time"
PERFORMER "50 Cent"
INDEX 01 00:00:00
FILE "50 Cent - 2003 - Get Rich Or Die Tryin'\50 Cent - 07 - Heat.wav" WAVE
TRACK 07 AUDIO
TITLE "Heat"
PERFORMER "50 Cent"
INDEX 01 00:00:00
FILE "50 Cent - 2003 - Get Rich Or Die Tryin'\50 Cent - 08 - If I Can't.wav" WAVE
TRACK 08 AUDIO
TITLE "If I Can't"
PERFORMER "50 Cent"
INDEX 01 00:00:00
FILE "50 Cent - 2003 - Get Rich Or Die Tryin'\50 Cent - 09 - Blood Hound feat. Young Buck of G Unit.wav" WAVE
TRACK 09 AUDIO
TITLE "Blood Hound feat. Young Buck of G Unit"
PERFORMER "50 Cent"
INDEX 01 00:00:00
FILE "50 Cent - 2003 - Get Rich Or Die Tryin'\50 Cent - 10 - Back Down.wav" WAVE
TRACK 10 AUDIO
TITLE "Back Down"
PERFORMER "50 Cent"
INDEX 01 00:00:00
FILE "50 Cent - 2003 - Get Rich Or Die Tryin'\50 Cent - 11 - P.I.M.P..wav" WAVE
TRACK 11 AUDIO
TITLE "P.I.M.P."
PERFORMER "50 Cent"
INDEX 01 00:00:00
FILE "50 Cent - 2003 - Get Rich Or Die Tryin'\50 Cent - 12 - Like My Style feat. Tony Yayo of G Unit.wav" WAVE
TRACK 12 AUDIO
TITLE "Like My Style feat. Tony Yayo of G Unit"
PERFORMER "50 Cent"
INDEX 01 00:00:00
FILE "50 Cent - 2003 - Get Rich Or Die Tryin'\50 Cent - 13 - Poor Lil Rich.wav" WAVE
TRACK 13 AUDIO
TITLE "Poor Lil Rich"
PERFORMER "50 Cent"
INDEX 01 00:00:00
FILE "50 Cent - 2003 - Get Rich Or Die Tryin'\50 Cent - 14 - 21 Questions feat. Nate Dogg.wav" WAVE
TRACK 14 AUDIO
TITLE "21 Questions feat. Nate Dogg"
PERFORMER "50 Cent"
INDEX 01 00:00:00
FILE "50 Cent - 2003 - Get Rich Or Die Tryin'\50 Cent - 15 - Don't Push Me.wav" WAVE
TRACK 15 AUDIO
TITLE "Don't Push Me"
PERFORMER "50 Cent"
INDEX 01 00:00:00
FILE "50 Cent - 2003 - Get Rich Or Die Tryin'\50 Cent - 16 - Gotta Make It To Heaven.wav" WAVE
TRACK 16 AUDIO
TITLE "Gotta Make It To Heaven"
PERFORMER "50 Cent"
INDEX 01 00:00:00
FILE "50 Cent - 2003 - Get Rich Or Die Tryin'\50 Cent - 17 - Wanksta.wav" WAVE
TRACK 17 AUDIO
TITLE "Wanksta"
PERFORMER "50 Cent"
INDEX 01 00:00:00
FILE "50 Cent - 2003 - Get Rich Or Die Tryin'\50 Cent - 18 - U Not Like Me.wav" WAVE
TRACK 18 AUDIO
TITLE "U Not Like Me"
PERFORMER "50 Cent"
INDEX 01 00:00:00
FILE "50 Cent - 2003 - Get Rich Or Die Tryin'\50 Cent - 19 - Life's On The Line.wav" WAVE
TRACK 19 AUDIO
TITLE "Life's On The Line"
PERFORMER "50 Cent"
INDEX 01 00:00:00
Label: Aftermath
Catalog #: LC06406
01. Intro (0:41)
02. In My Hood (3:51)
03. This Is 50 (3:04)
04. I'm Supposed to Die Tonight (3:51)
05. Piggy Bank (4:15)
06. Gatman and Robbin' (feat. Eminem) (3:47)
07. Candy Shop (feat. Olivia) (3:29)
08. Outta Control (3:22)
09. Get in My Car (4:06)
10. Ski Mask Way (3:06)
11. A Baltimore Love Thing (4:18)
12. Ryder Music (3:52)
13. Disco Inferno (3:34)
14. Just a Lil Bit (3:58)
15. Gunz Come Out (4:25)
16. My Toy Soldier (feat. Tony Yayo) (3:44)
17. Position of Power (3:12)
18. Build You Up (feat. Jamie Foxx) (2:56)
19. God Gave Me Style (3:02)
20. So Amazing (feat. Olivia) (3:17)
21. I Don't Need 'Em (3:21)
22. Hate It or Love It (G-Unit remix) (5:24)
Exact Audio Copy V0.99 prebeta 4 from 23. January 2008 

EAC extraction logfile from 31. December 2008, 20:15

50 Cent / The Massacre

Used drive : HL-DT-STDVDRAM GSA-T20L Adapter: 1 ID: 0

Read mode : Secure
Utilize accurate stream : Yes
Defeat audio cache : Yes
Make use of C2 pointers : No

Read offset correction : 667
Overread into Lead-In and Lead-Out : No
Fill up missing offset samples with silence : Yes
Delete leading and trailing silent blocks : No
Null samples used in CRC calculations : Yes
Used interface : Native Win32 interface for Win NT & 2000
Gap handling : Appended to previous track

Used output format : User Defined Encoder
Selected bitrate : 128 kBit/s
Quality : High
Add ID3 tag : No
Command line compressor : C:\Program Files\Exact Audio Copy\Flac\flac.exe
Additional command line options : -V -8 -T "artist=%a" -T "title=%t" -T "album=%g" -T "date=%y" -T "tracknumber=%n" -T "genre=%m" %s

TOC of the extracted CD

Track | Start | Length | Start sector | End sector
---------------------------------------------------------
1 | 0:00.00 | 0:41.25 | 0 | 3099
2 | 0:41.25 | 3:51.09 | 3100 | 20433
3 | 4:32.34 | 3:04.16 | 20434 | 34249
4 | 7:36.50 | 3:51.02 | 34250 | 51576
5 | 11:27.52 | 4:15.13 | 51577 | 70714
6 | 15:42.65 | 3:46.45 | 70715 | 87709
7 | 19:29.35 | 3:29.08 | 87710 | 103392
8 | 22:58.43 | 3:21.62 | 103393 | 118529
9 | 26:20.30 | 4:05.68 | 118530 | 136972
10 | 30:26.23 | 3:05.44 | 136973 | 150891
11 | 33:31.67 | 4:17.58 | 150892 | 170224
12 | 37:49.50 | 3:51.44 | 170225 | 187593
13 | 41:41.19 | 3:34.17 | 187594 | 203660
14 | 45:15.36 | 3:57.53 | 203661 | 221488
15 | 49:13.14 | 4:24.42 | 221489 | 241330
16 | 53:37.56 | 3:44.28 | 241331 | 258158
17 | 57:22.09 | 3:12.22 | 258159 | 272580
18 | 60:34.31 | 2:55.50 | 272581 | 285755
19 | 63:30.06 | 3:01.54 | 285756 | 299384
20 | 66:31.60 | 3:16.38 | 299385 | 314122
21 | 69:48.23 | 3:20.58 | 314123 | 329180
22 | 73:09.06 | 5:23.59 | 329181 | 353464

Track 1

Filename G:\EXIGO UPLOADS\50 Cent - The Massacre (2005) [FLAC]\01 - Intro.wav

Pre-gap length 0:00:02.00

Peak level 98.8 %
Track quality 100.0 %
Test CRC EF71A3DD
Copy CRC EF71A3DD
Accurately ripped (confidence 22) [10983EEE]
Copy OK

Track 2

Filename G:\EXIGO UPLOADS\50 Cent - The Massacre (2005) [FLAC]\02 - In My Hood.wav

Peak level 98.8 %
Track quality 99.9 %
Test CRC CAD15055
Copy CRC CAD15055
Accurately ripped (confidence 22) [9E7F94F7]
Copy OK

Track 3

Filename G:\EXIGO UPLOADS\50 Cent - The Massacre (2005) [FLAC]\03 - This Is 50.wav

Peak level 98.8 %
Track quality 100.0 %
Test CRC 70153FFB
Copy CRC 70153FFB
Accurately ripped (confidence 20) [32355991]
Copy OK

Track 4

Filename G:\EXIGO UPLOADS\50 Cent - The Massacre (2005) [FLAC]\04 - I'm Supposed to Die Tonight.wav

Peak level 99.9 %
Track quality 100.0 %
Test CRC 17E9BB4D
Copy CRC 17E9BB4D
Accurately ripped (confidence 22) [1DBE2760]
Copy OK

Track 5

Filename G:\EXIGO UPLOADS\50 Cent - The Massacre (2005) [FLAC]\05 - Piggy Bank.wav

Peak level 99.9 %
Track quality 100.0 %
Test CRC 9B98E0C1
Copy CRC 9B98E0C1
Accurately ripped (confidence 21) [9886A5A4]
Copy OK

Track 6

Filename G:\EXIGO UPLOADS\50 Cent - The Massacre (2005) [FLAC]\06 - Gatman and Robbin' (feat. Eminem).wav

Peak level 98.8 %
Track quality 100.0 %
Test CRC BD01E909
Copy CRC BD01E909
Accurately ripped (confidence 20) [B056B380]
Copy OK

Track 7

Filename G:\EXIGO UPLOADS\50 Cent - The Massacre (2005) [FLAC]\07 - Candy Shop (feat. Olivia).wav

Peak level 99.9 %
Track quality 100.0 %
Test CRC 55819CD9
Copy CRC 55819CD9
Accurately ripped (confidence 23) [B2EDE6E2]
Copy OK

Track 8

Filename G:\EXIGO UPLOADS\50 Cent - The Massacre (2005) [FLAC]\08 - Outta Control.wav

Peak level 99.9 %
Track quality 100.0 %
Test CRC 0EC28A50
Copy CRC 0EC28A50
Accurately ripped (confidence 23) [41DF07E9]
Copy OK

Track 9

Filename G:\EXIGO UPLOADS\50 Cent - The Massacre (2005) [FLAC]\09 - Get in My Car.wav

Peak level 99.9 %
Track quality 100.0 %
Test CRC BF277C6A
Copy CRC BF277C6A
Accurately ripped (confidence 21) [9F9ACA18]
Copy OK

Track 10

Filename G:\EXIGO UPLOADS\50 Cent - The Massacre (2005) [FLAC]\10 - Ski Mask Way.wav

Peak level 99.9 %
Track quality 100.0 %
Test CRC 4EBDD7C8
Copy CRC 4EBDD7C8
Accurately ripped (confidence 20) [A62BD52F]
Copy OK

Track 11

Filename G:\EXIGO UPLOADS\50 Cent - The Massacre (2005) [FLAC]\11 - A Baltimore Love Thing.wav

Peak level 99.8 %
Track quality 100.0 %
Test CRC 54FFDF82
Copy CRC 54FFDF82
Accurately ripped (confidence 21) [BB63AFF6]
Copy OK

Track 12

Filename G:\EXIGO UPLOADS\50 Cent - The Massacre (2005) [FLAC]\12 - Ryder Music.wav

Peak level 99.8 %
Track quality 100.0 %
Test CRC 5D08D6F1
Copy CRC 5D08D6F1
Accurately ripped (confidence 19) [07D19FE4]
Copy OK

Track 13

Filename G:\EXIGO UPLOADS\50 Cent - The Massacre (2005) [FLAC]\13 - Disco Inferno.wav

Peak level 99.9 %
Track quality 100.0 %
Test CRC BCCEBE04
Copy CRC BCCEBE04
Accurately ripped (confidence 21) [5D0E411C]
Copy OK

Track 14

Filename G:\EXIGO UPLOADS\50 Cent - The Massacre (2005) [FLAC]\14 - Just a Lil Bit.wav

Peak level 99.8 %
Track quality 100.0 %
Test CRC FE483E52
Copy CRC FE483E52
Accurately ripped (confidence 21) [C0329B19]
Copy OK

Track 15

Filename G:\EXIGO UPLOADS\50 Cent - The Massacre (2005) [FLAC]\15 - Gunz Come Out.wav

Peak level 100.0 %
Track quality 100.0 %
Test CRC AEFD1120
Copy CRC AEFD1120
Accurately ripped (confidence 21) [4F722B97]
Copy OK

Track 16

Filename G:\EXIGO UPLOADS\50 Cent - The Massacre (2005) [FLAC]\16 - My Toy Soldier (feat. Tony Yayo).wav

Peak level 99.9 %
Track quality 100.0 %
Test CRC 979A2984
Copy CRC 979A2984
Accurately ripped (confidence 21) [C038A6E3]
Copy OK

Track 17

Filename G:\EXIGO UPLOADS\50 Cent - The Massacre (2005) [FLAC]\17 - Position of Power.wav

Peak level 99.9 %
Track quality 100.0 %
Test CRC CAAAFBD2
Copy CRC CAAAFBD2
Accurately ripped (confidence 19) [07E783D8]
Copy OK

Track 18

Filename G:\EXIGO UPLOADS\50 Cent - The Massacre (2005) [FLAC]\18 - Build You Up (feat. Jamie Foxx).wav

Peak level 99.9 %
Track quality 99.9 %
Test CRC 4786E537
Copy CRC 4786E537
Accurately ripped (confidence 18) [D2080404]
Copy OK

Track 19

Filename G:\EXIGO UPLOADS\50 Cent - The Massacre (2005) [FLAC]\19 - God Gave Me Style.wav

Peak level 93.4 %
Track quality 100.0 %
Test CRC F1E1D7BE
Copy CRC F1E1D7BE
Accurately ripped (confidence 19) [AAF9D510]
Copy OK

Track 20

Filename G:\EXIGO UPLOADS\50 Cent - The Massacre (2005) [FLAC]\20 - So Amazing (feat. Olivia).wav

Peak level 99.9 %
Track quality 100.0 %
Test CRC 39F0D4BA
Copy CRC 39F0D4BA
Accurately ripped (confidence 20) [4AECF2B7]
Copy OK

Track 21

Filename G:\EXIGO UPLOADS\50 Cent - The Massacre (2005) [FLAC]\21 - I Don't Need 'Em.wav

Peak level 92.4 %
Track quality 100.0 %
Test CRC 0162628A
Copy CRC 0162628A
Accurately ripped (confidence 18) [AD76FE01]
Copy OK

Track 22

Filename G:\EXIGO UPLOADS\50 Cent - The Massacre (2005) [FLAC]\22 - Hate It or Love It (G-Unit remix).wav

Peak level 99.8 %
Track quality 99.9 %
Test CRC 05F67AA4
Copy CRC 05F67AA4
Accurately ripped (confidence 20) [0789A3C9]
Copy OK

All tracks accurately ripped

No errors occurred

End of status report
REM GENRE Hip-Hop 
REM DATE 2005
REM DISCID 40126816
REM COMMENT "ExactAudioCopy v0.99pb4"
PERFORMER "50 Cent"
TITLE "The Massacre"
FILE "01 - Intro.wav" WAVE
TRACK 01 AUDIO
TITLE "Intro"
PERFORMER "50 Cent"
INDEX 01 00:00:00
FILE "02 - In My Hood.wav" WAVE
TRACK 02 AUDIO
TITLE "In My Hood"
PERFORMER "50 Cent"
INDEX 01 00:00:00
FILE "03 - This Is 50.wav" WAVE
TRACK 03 AUDIO
TITLE "This Is 50"
PERFORMER "50 Cent"
INDEX 01 00:00:00
FILE "04 - I'm Supposed to Die Tonight.wav" WAVE
TRACK 04 AUDIO
TITLE "I'm Supposed to Die Tonight"
PERFORMER "50 Cent"
INDEX 01 00:00:00
FILE "05 - Piggy Bank.wav" WAVE
TRACK 05 AUDIO
TITLE "Piggy Bank"
PERFORMER "50 Cent"
INDEX 01 00:00:00
FILE "06 - Gatman and Robbin' (feat. Eminem).wav" WAVE
TRACK 06 AUDIO
TITLE "Gatman and Robbin' (feat. Eminem)"
PERFORMER "50 Cent"
INDEX 01 00:00:00
FILE "07 - Candy Shop (feat. Olivia).wav" WAVE
TRACK 07 AUDIO
TITLE "Candy Shop (feat. Olivia)"
PERFORMER "50 Cent"
INDEX 01 00:00:00
FILE "08 - Outta Control.wav" WAVE
TRACK 08 AUDIO
TITLE "Outta Control"
PERFORMER "50 Cent"
INDEX 01 00:00:00
FILE "09 - Get in My Car.wav" WAVE
TRACK 09 AUDIO
TITLE "Get in My Car"
PERFORMER "50 Cent"
INDEX 01 00:00:00
FILE "10 - Ski Mask Way.wav" WAVE
TRACK 10 AUDIO
TITLE "Ski Mask Way"
PERFORMER "50 Cent"
INDEX 01 00:00:00
FILE "11 - A Baltimore Love Thing.wav" WAVE
TRACK 11 AUDIO
TITLE "A Baltimore Love Thing"
PERFORMER "50 Cent"
INDEX 01 00:00:00
FILE "12 - Ryder Music.wav" WAVE
TRACK 12 AUDIO
TITLE "Ryder Music"
PERFORMER "50 Cent"
INDEX 01 00:00:00
FILE "13 - Disco Inferno.wav" WAVE
TRACK 13 AUDIO
TITLE "Disco Inferno"
PERFORMER "50 Cent"
INDEX 01 00:00:00
FILE "14 - Just a Lil Bit.wav" WAVE
TRACK 14 AUDIO
TITLE "Just a Lil Bit"
PERFORMER "50 Cent"
INDEX 01 00:00:00
FILE "15 - Gunz Come Out.wav" WAVE
TRACK 15 AUDIO
TITLE "Gunz Come Out"
PERFORMER "50 Cent"
INDEX 01 00:00:00
FILE "16 - My Toy Soldier (feat. Tony Yayo).wav" WAVE
TRACK 16 AUDIO
TITLE "My Toy Soldier (feat. Tony Yayo)"
PERFORMER "50 Cent"
INDEX 01 00:00:00
FILE "17 - Position of Power.wav" WAVE
TRACK 17 AUDIO
TITLE "Position of Power"
PERFORMER "50 Cent"
INDEX 01 00:00:00
FILE "18 - Build You Up (feat. Jamie Foxx).wav" WAVE
TRACK 18 AUDIO
TITLE "Build You Up (feat. Jamie Foxx)"
PERFORMER "50 Cent"
INDEX 01 00:00:00
FILE "19 - God Gave Me Style.wav" WAVE
TRACK 19 AUDIO
TITLE "God Gave Me Style"
PERFORMER "50 Cent"
INDEX 01 00:00:00
FILE "20 - So Amazing (feat. Olivia).wav" WAVE
TRACK 20 AUDIO
TITLE "So Amazing (feat. Olivia)"
PERFORMER "50 Cent"
INDEX 01 00:00:00
FILE "21 - I Don't Need 'Em.wav" WAVE
TRACK 21 AUDIO
TITLE "I Don't Need 'Em"
PERFORMER "50 Cent"
INDEX 01 00:00:00
FILE "22 - Hate It or Love It (G-Unit remix).wav" WAVE
TRACK 22 AUDIO
TITLE "Hate It or Love It (G-Unit remix)"
PERFORMER "50 Cent"
INDEX 01 00:00:00
01. Intro (0:50)
02. My Gun Go Off (3:12)
03. Man Down (Censored) (2:49)
04. I'll Still Kill (Feat. Akon) (3:44)
05. I Get Money (3:44)
06. Come & Go (3:29)
07. Ayo Technology (Feat. Justin Timberlake & Timbaland) (4:08)
08. Follow My Lead (Feat. Robin Thicke) (3:18)
09. Movin' On Up (3:24)
10. Straight To The Bank (3:11)
11. Amusement Park (3:09)
12. Fully Loaded Clip (3:13)
13. Peep Show (Feat. Eminem) (3:52)
14. Fire (Feat. Young Buck & Nicole Scherzinger) (2:50)
15. All Of Me (Feat. Mary J. Blige) (3:52)
16. Curtis 187 (3:58)
17. Touch The Sky (Feat. Tony Yayo) (3:10)
Exact Audio Copy V0.99 prebeta 3 from 28. July 2007 

EAC extraction logfile from 31. October 2007, 10:21

50 Cent / Curtis

Used drive : TSSTcorpCD/DVDW SH-W162Z Adapter: 0 ID: 0

Read mode : Secure
Utilize accurate stream : Yes
Defeat audio cache : Yes
Make use of C2 pointers : No

Read offset correction : 6
Overread into Lead-In and Lead-Out : No
Fill up missing offset samples with silence : Yes
Delete leading and trailing silent blocks : No
Null samples used in CRC calculations : Yes
Used interface : Native Win32 interface for Win NT & 2000
Gap handling : Appended to previous track

Used output format : User Defined Encoder
Selected bitrate : 768 kBit/s
Quality : High
Add ID3 tag : No
Command line compressor : C:\Program Files\Exact Audio Copy\FLAC\FLAC.EXE
Additional command line options : -8 -A tukey(0.25) -A gauss(0.1875) -b 4096 -V -T "artist=%a" -T "title=%t" -T "album=%g" -T "date=%y" -T "tracknumber=%n" -T "genre=%m" %s --sector-align

TOC of the extracted CD

Track | Start | Length | Start sector | End sector
---------------------------------------------------------
1 | 0:00.00 | 0:50.34 | 0 | 3783
2 | 0:50.34 | 3:12.06 | 3784 | 18189
3 | 4:02.40 | 2:49.34 | 18190 | 30898
4 | 6:51.74 | 3:43.38 | 30899 | 47661
5 | 10:35.37 | 3:43.54 | 47662 | 64440
6 | 14:19.16 | 3:28.46 | 64441 | 80086
7 | 17:47.62 | 4:07.71 | 80087 | 98682
8 | 21:55.58 | 3:17.45 | 98683 | 113502
9 | 25:13.28 | 3:24.25 | 113503 | 128827
10 | 28:37.53 | 3:10.49 | 128828 | 143126
11 | 31:48.27 | 3:09.25 | 143127 | 157326
12 | 34:57.52 | 3:13.23 | 157327 | 171824
13 | 38:11.00 | 3:52.30 | 171825 | 189254
14 | 42:03.30 | 2:49.39 | 189255 | 201968
15 | 44:52.69 | 3:51.41 | 201969 | 219334
16 | 48:44.35 | 3:57.38 | 219335 | 237147
17 | 52:41.73 | 3:10.06 | 237148 | 251403

Track 1

Filename C:\Documents and Settings\Matt\Desktop\50 Cent - Curtis\01 - 50 Cent - Intro.wav

Pre-gap length 0:00:02.00

Peak level 61.7 %
Track quality 99.7 %
Test CRC 2EDDB1F5
Copy CRC 2EDDB1F5
Track not present in AccurateRip database
Copy OK

Track 2

Filename C:\Documents and Settings\Matt\Desktop\50 Cent - Curtis\02 - 50 Cent - My Gun Go Off.wav

Peak level 99.9 %
Track quality 100.0 %
Test CRC 85537357
Copy CRC 85537357
Track not present in AccurateRip database
Copy OK

Track 3

Filename C:\Documents and Settings\Matt\Desktop\50 Cent - Curtis\03 - 50 Cent - Man Down (Censored).wav

Peak level 99.9 %
Track quality 100.0 %
Test CRC 868E8560
Copy CRC 868E8560
Track not present in AccurateRip database
Copy OK

Track 4

Filename C:\Documents and Settings\Matt\Desktop\50 Cent - Curtis\04 - 50 Cent - I'll Still Kill (Feat. Akon).wav

Peak level 100.0 %
Track quality 99.9 %
Test CRC 58670DD2
Copy CRC 58670DD2
Track not present in AccurateRip database
Copy OK

Track 5

Filename C:\Documents and Settings\Matt\Desktop\50 Cent - Curtis\05 - 50 Cent - I Get Money.wav

Peak level 92.4 %
Track quality 100.0 %
Test CRC 714DA377
Copy CRC 714DA377
Track not present in AccurateRip database
Copy OK

Track 6

Filename C:\Documents and Settings\Matt\Desktop\50 Cent - Curtis\06 - 50 Cent - Come & Go.wav

Peak level 100.0 %
Track quality 100.0 %
Test CRC 6E82DBB1
Copy CRC 6E82DBB1
Track not present in AccurateRip database
Copy OK

Track 7

Filename C:\Documents and Settings\Matt\Desktop\50 Cent - Curtis\07 - 50 Cent - Ayo Technology (Feat. Justin Timberlake & Timbaland).wav

Peak level 94.7 %
Track quality 99.9 %
Test CRC 5B17D77D
Copy CRC 5B17D77D
Track not present in AccurateRip database
Copy OK

Track 8

Filename C:\Documents and Settings\Matt\Desktop\50 Cent - Curtis\08 - 50 Cent - Follow My Lead (Feat. Robin Thicke).wav

Peak level 97.3 %
Track quality 100.0 %
Test CRC BF5EC016
Copy CRC BF5EC016
Track not present in AccurateRip database
Copy OK

Track 9

Filename C:\Documents and Settings\Matt\Desktop\50 Cent - Curtis\09 - 50 Cent - Movin' On Up.wav

Peak level 97.3 %
Track quality 100.0 %
Test CRC E7DDF4FE
Copy CRC E7DDF4FE
Track not present in AccurateRip database
Copy OK

Track 10

Filename C:\Documents and Settings\Matt\Desktop\50 Cent - Curtis\10 - 50 Cent - Straight To The Bank.wav

Peak level 98.8 %
Track quality 100.0 %
Test CRC 50059AD8
Copy CRC 50059AD8
Track not present in AccurateRip database
Copy OK

Track 11

Filename C:\Documents and Settings\Matt\Desktop\50 Cent - Curtis\11 - 50 Cent - Amusement Park.wav

Peak level 99.9 %
Track quality 100.0 %
Test CRC D762CF1E
Copy CRC D762CF1E
Track not present in AccurateRip database
Copy OK

Track 12

Filename C:\Documents and Settings\Matt\Desktop\50 Cent - Curtis\12 - 50 Cent - Fully Loaded Clip.wav

Peak level 99.9 %
Track quality 100.0 %
Test CRC 77EED2C4
Copy CRC 77EED2C4
Track not present in AccurateRip database
Copy OK

Track 13

Filename C:\Documents and Settings\Matt\Desktop\50 Cent - Curtis\13 - 50 Cent - Peep Show (Feat. Eminem).wav

Peak level 99.9 %
Track quality 100.0 %
Test CRC B81DE33B
Copy CRC B81DE33B
Track not present in AccurateRip database
Copy OK

Track 14

Filename C:\Documents and Settings\Matt\Desktop\50 Cent - Curtis\14 - 50 Cent - Fire (Feat. Young Buck & Nicole Scherzinger).wav

Peak level 99.9 %
Track quality 100.0 %
Test CRC BA687F37
Copy CRC BA687F37
Track not present in AccurateRip database
Copy OK

Track 15

Filename C:\Documents and Settings\Matt\Desktop\50 Cent - Curtis\15 - 50 Cent - All Of Me (Feat. Mary J. Blige).wav

Peak level 92.0 %
Track quality 100.0 %
Test CRC BB2279FB
Copy CRC BB2279FB
Track not present in AccurateRip database
Copy OK

Track 16

Filename C:\Documents and Settings\Matt\Desktop\50 Cent - Curtis\16 - 50 Cent - Curtis 187.wav

Peak level 99.9 %
Track quality 99.9 %
Test CRC FD8C65C5
Copy CRC FD8C65C5
Track not present in AccurateRip database
Copy OK

Track 17

Filename C:\Documents and Settings\Matt\Desktop\50 Cent - Curtis\17 - 50 Cent - Touch The Sky (Feat. Tony Yayo).wav

Peak level 100.0 %
Track quality 100.0 %
Test CRC 58B35AC2
Copy CRC 58B35AC2
Track not present in AccurateRip database
Copy OK

None of the tracks are present in the AccurateRip database

No errors occurred

End of status report
REM GENRE Rap 
REM DATE 2007
REM DISCID E60D1811
REM COMMENT "ExactAudioCopy v0.99pb3"
PERFORMER "50 Cent"
TITLE "Curtis"
FILE "01 - 50 Cent - Intro.wav" WAVE
TRACK 01 AUDIO
TITLE "Intro"
PERFORMER "50 Cent"
INDEX 01 00:00:00
FILE "02 - 50 Cent - My Gun Go Off.wav" WAVE
TRACK 02 AUDIO
TITLE "My Gun Go Off"
PERFORMER "50 Cent"
INDEX 01 00:00:00
FILE "03 - 50 Cent - Man Down (Censored).wav" WAVE
TRACK 03 AUDIO
TITLE "Man Down (Censored)"
PERFORMER "50 Cent"
INDEX 01 00:00:00
FILE "04 - 50 Cent - I'll Still Kill (Feat. Akon).wav" WAVE
TRACK 04 AUDIO
TITLE "I'll Still Kill (Feat. Akon)"
PERFORMER "50 Cent"
INDEX 01 00:00:00
FILE "05 - 50 Cent - I Get Money.wav" WAVE
TRACK 05 AUDIO
TITLE "I Get Money"
PERFORMER "50 Cent"
INDEX 01 00:00:00
FILE "06 - 50 Cent - Come & Go.wav" WAVE
TRACK 06 AUDIO
TITLE "Come & Go"
PERFORMER "50 Cent"
INDEX 01 00:00:00
FILE "07 - 50 Cent - Ayo Technology (Feat. Justin Timberlake & Timbaland).wav" WAVE
TRACK 07 AUDIO
TITLE "Ayo Technology (Feat. Justin Timberlake & Timbaland)"
PERFORMER "50 Cent"
INDEX 01 00:00:00
FILE "08 - 50 Cent - Follow My Lead (Feat. Robin Thicke).wav" WAVE
TRACK 08 AUDIO
TITLE "Follow My Lead (Feat. Robin Thicke)"
PERFORMER "50 Cent"
INDEX 01 00:00:00
FILE "09 - 50 Cent - Movin' On Up.wav" WAVE
TRACK 09 AUDIO
TITLE "Movin' On Up"
PERFORMER "50 Cent"
INDEX 01 00:00:00
FILE "10 - 50 Cent - Straight To The Bank.wav" WAVE
TRACK 10 AUDIO
TITLE "Straight To The Bank"
PERFORMER "50 Cent"
INDEX 01 00:00:00
FILE "11 - 50 Cent - Amusement Park.wav" WAVE
TRACK 11 AUDIO
TITLE "Amusement Park"
PERFORMER "50 Cent"
INDEX 01 00:00:00
FILE "12 - 50 Cent - Fully Loaded Clip.wav" WAVE
TRACK 12 AUDIO
TITLE "Fully Loaded Clip"
PERFORMER "50 Cent"
INDEX 01 00:00:00
FILE "13 - 50 Cent - Peep Show (Feat. Eminem).wav" WAVE
TRACK 13 AUDIO
TITLE "Peep Show (Feat. Eminem)"
PERFORMER "50 Cent"
INDEX 01 00:00:00
FILE "14 - 50 Cent - Fire (Feat. Young Buck & Nicole Scherzinger).wav" WAVE
TRACK 14 AUDIO
TITLE "Fire (Feat. Young Buck & Nicole Scherzinger)"
PERFORMER "50 Cent"
INDEX 01 00:00:00
FILE "15 - 50 Cent - All Of Me (Feat. Mary J. Blige).wav" WAVE
TRACK 15 AUDIO
TITLE "All Of Me (Feat. Mary J. Blige)"
PERFORMER "50 Cent"
INDEX 01 00:00:00
FILE "16 - 50 Cent - Curtis 187.wav" WAVE
TRACK 16 AUDIO
TITLE "Curtis 187"
PERFORMER "50 Cent"
INDEX 01 00:00:00
FILE "17 - 50 Cent - Touch The Sky (Feat. Tony Yayo).wav" WAVE
TRACK 17 AUDIO
TITLE "Touch The Sky (Feat. Tony Yayo)"
PERFORMER "50 Cent"
INDEX 01 00:00:00
01. Intro (0:50)
02. My Gun Go Off (3:12)
03. Man Down (Censored) (2:49)
04. I'll Stii Kill (feat. Akon) (3:44)
05. I Get Money (3:44)
06. Come & Go (3:29)
07. Ayo Technology (feat. Justin Timberlake & Timbaland) (4:08)
08. Follow My Lead (feat. Robin Thicke) (3:18)
09. Movin On Up (3:24)
10. Straight To The Bank (3:11)
11. Amusement Park (3:09)
12. Fully Loaded Clip (3:13)
13. Peep Show (feat. Eminem) (3:52)
14. Fire (feat. Young Buck & Nicole Scherzinger) (2:50)
15. All Of Me (feat. Mary J. Blige) (3:52)
16. Curtis 187 (3:58)
17. Touch The Sky (feat. Tony Yayo) (3:20)
18. Smile (I'm Leaving) (4:30)
Exact Audio Copy V0.99 prebeta 4 from 23. January 2008 

EAC extraction logfile from 11. April 2009, 7:55

50 Cent / Curtis

Used drive : PLEXTOR DVDR PX-760A Adapter: 2 ID: 2

Read mode : Secure
Utilize accurate stream : Yes
Defeat audio cache : Yes
Make use of C2 pointers : No

Read offset correction : 30
Overread into Lead-In and Lead-Out : Yes
Fill up missing offset samples with silence : Yes
Delete leading and trailing silent blocks : No
Null samples used in CRC calculations : Yes
Used interface : Installed external ASPI interface
Gap handling : Appended to previous track

Used output format : User Defined Encoder
Selected bitrate : 128 kBit/s
Quality : High
Add ID3 tag : No
Command line compressor : C:\Program Files\Exact Audio Copy\Mareo\mareo.exe
Additional command line options : fon soff mareoprofile2.ini %s %d "%a" "%g" "%t" "%n" %y "%m" %x "(Japan Release)"

TOC of the extracted CD

Track | Start | Length | Start sector | End sector
---------------------------------------------------------
1 | 0:00.00 | 0:50.34 | 0 | 3783
2 | 0:50.34 | 3:12.06 | 3784 | 18189
3 | 4:02.40 | 2:49.34 | 18190 | 30898
4 | 6:51.74 | 3:43.38 | 30899 | 47661
5 | 10:35.37 | 3:43.54 | 47662 | 64440
6 | 14:19.16 | 3:28.46 | 64441 | 80086
7 | 17:47.62 | 4:07.71 | 80087 | 98682
8 | 21:55.58 | 3:17.45 | 98683 | 113502
9 | 25:13.28 | 3:24.25 | 113503 | 128827
10 | 28:37.53 | 3:10.49 | 128828 | 143126
11 | 31:48.27 | 3:09.25 | 143127 | 157326
12 | 34:57.52 | 3:13.23 | 157327 | 171824
13 | 38:11.00 | 3:52.30 | 171825 | 189254
14 | 42:03.30 | 2:49.39 | 189255 | 201968
15 | 44:52.69 | 3:51.41 | 201969 | 219334
16 | 48:44.35 | 3:57.38 | 219335 | 237147
17 | 52:41.73 | 3:19.43 | 237148 | 252115
18 | 56:01.41 | 4:29.56 | 252116 | 272346

Track 1

Filename I:\Music\01 - Intro.wav

Pre-gap length 0:00:02.00

Peak level 61.7 %
Track quality 99.7 %
Test CRC A6D0A9F1
Copy CRC A6D0A9F1
Track not present in AccurateRip database
Copy OK

Track 2

Filename I:\Music\02 - My Gun Go Off.wav

Peak level 99.9 %
Track quality 100.0 %
Test CRC 457CB0FC
Copy CRC 457CB0FC
Track not present in AccurateRip database
Copy OK

Track 3

Filename I:\Music\03 - Man Down (Censored).wav

Peak level 99.9 %
Track quality 100.0 %
Test CRC A69B8AC8
Copy CRC A69B8AC8
Track not present in AccurateRip database
Copy OK

Track 4

Filename I:\Music\04 - I'll Stii Kill (feat. Akon).wav

Peak level 100.0 %
Track quality 99.9 %
Test CRC 3D4EA2F1
Copy CRC 3D4EA2F1
Track not present in AccurateRip database
Copy OK

Track 5

Filename I:\Music\05 - I Get Money.wav

Peak level 92.4 %
Track quality 100.0 %
Test CRC 73BEF219
Copy CRC 73BEF219
Track not present in AccurateRip database
Copy OK

Track 6

Filename I:\Music\06 - Come & Go.wav

Peak level 100.0 %
Track quality 100.0 %
Test CRC 8DD5CE0D
Copy CRC 8DD5CE0D
Track not present in AccurateRip database
Copy OK

Track 7

Filename I:\Music\07 - Ayo Technology (feat. Justin Timberlake & Timbaland).wav

Peak level 94.7 %
Track quality 100.0 %
Test CRC 5F24CF64
Copy CRC 5F24CF64
Track not present in AccurateRip database
Copy OK

Track 8

Filename I:\Music\08 - Follow My Lead (feat. Robin Thicke).wav

Peak level 97.3 %
Track quality 100.0 %
Test CRC CE42D507
Copy CRC CE42D507
Track not present in AccurateRip database
Copy OK

Track 9

Filename I:\Music\09 - Movin On Up.wav

Peak level 97.3 %
Track quality 100.0 %
Test CRC 88169BE9
Copy CRC 88169BE9
Track not present in AccurateRip database
Copy OK

Track 10

Filename I:\Music\10 - Straight To The Bank.wav

Peak level 98.8 %
Track quality 100.0 %
Test CRC B7EFDABA
Copy CRC B7EFDABA
Track not present in AccurateRip database
Copy OK

Track 11

Filename I:\Music\11 - Amusement Park.wav

Peak level 99.9 %
Track quality 100.0 %
Test CRC 6B59C23D
Copy CRC 6B59C23D
Track not present in AccurateRip database
Copy OK

Track 12

Filename I:\Music\12 - Fully Loaded Clip.wav

Peak level 99.9 %
Track quality 100.0 %
Test CRC 7BAD6681
Copy CRC 7BAD6681
Track not present in AccurateRip database
Copy OK

Track 13

Filename I:\Music\13 - Peep Show (feat. Eminem).wav

Peak level 99.9 %
Track quality 100.0 %
Test CRC 25570665
Copy CRC 25570665
Track not present in AccurateRip database
Copy OK

Track 14

Filename I:\Music\14 - Fire (feat. Young Buck & Nicole Scherzinger).wav

Peak level 99.9 %
Track quality 100.0 %
Test CRC 4A209FEC
Copy CRC 4A209FEC
Track not present in AccurateRip database
Copy OK

Track 15

Filename I:\Music\15 - All Of Me (feat. Mary J. Blige).wav

Peak level 92.0 %
Track quality 100.0 %
Test CRC 7852B099
Copy CRC 7852B099
Track not present in AccurateRip database
Copy OK

Track 16

Filename I:\Music\16 - Curtis 187.wav

Peak level 99.9 %
Track quality 100.0 %
Test CRC 95FA1625
Copy CRC 95FA1625
Track not present in AccurateRip database
Copy OK

Track 17

Filename I:\Music\17 - Touch The Sky (feat. Tony Yayo).wav

Peak level 100.0 %
Track quality 99.9 %
Test CRC FABF4F2E
Copy CRC FABF4F2E
Track not present in AccurateRip database
Copy OK

Track 18

Filename I:\Music\18 - Smile (I'm Leaving).wav

Pre-gap length 0:00:10.00

Peak level 99.9 %
Track quality 100.0 %
Test CRC 23429286
Copy CRC 23429286
Track not present in AccurateRip database
Copy OK

None of the tracks are present in the AccurateRip database

No errors occurred

End of status report
REM GENRE Rap 
REM DATE 2007
REM DISCID F50E2F12
REM COMMENT "ExactAudioCopy v0.99pb4"
CATALOG 0602517469907
FILE "01 - Intro.wav" WAVE
TRACK 01 AUDIO
ISRC USUM70738044
INDEX 01 00:00:00
FILE "02 - My Gun Go Off.wav" WAVE
TRACK 02 AUDIO
ISRC USUM70735432
INDEX 01 00:00:00
FILE "03 - Man Down (Censored).wav" WAVE
TRACK 03 AUDIO
ISRC USUM70735428
INDEX 01 00:00:00
FILE "04 - I'll Stii Kill (feat. Akon).wav" WAVE
TRACK 04 AUDIO
ISRC USUM70735426
INDEX 01 00:00:00
FILE "05 - I Get Money.wav" WAVE
TRACK 05 AUDIO
ISRC USUM70742700
INDEX 01 00:00:00
FILE "06 - Come & Go.wav" WAVE
TRACK 06 AUDIO
ISRC USUM70735387
INDEX 01 00:00:00
FILE "07 - Ayo Technology (feat. Justin Timberlake & Timbaland).wav" WAVE
TRACK 07 AUDIO
ISRC USUM70735445
INDEX 01 00:00:00
FILE "08 - Follow My Lead (feat. Robin Thicke).wav" WAVE
TRACK 08 AUDIO
ISRC USUM70735404
INDEX 01 00:00:00
FILE "09 - Movin On Up.wav" WAVE
TRACK 09 AUDIO
ISRC USUM70735430
INDEX 01 00:00:00
FILE "10 - Straight To The Bank.wav" WAVE
TRACK 10 AUDIO
ISRC USUM70730616
INDEX 01 00:00:00
FILE "11 - Amusement Park.wav" WAVE
TRACK 11 AUDIO
ISRC USUM70734819
INDEX 01 00:00:00
FILE "12 - Fully Loaded Clip.wav" WAVE
TRACK 12 AUDIO
ISRC USUM70734500
INDEX 01 00:00:00
FILE "13 - Peep Show (feat. Eminem).wav" WAVE
TRACK 13 AUDIO
ISRC USUM70735434
INDEX 01 00:00:00
FILE "14 - Fire (feat. Young Buck & Nicole Scherzinger).wav" WAVE
TRACK 14 AUDIO
ISRC USUM70735402
INDEX 01 00:00:00
FILE "15 - All Of Me (feat. Mary J. Blige).wav" WAVE
TRACK 15 AUDIO
ISRC USUM70735367
INDEX 01 00:00:00
FILE "16 - Curtis 187.wav" WAVE
TRACK 16 AUDIO
ISRC USUM70735398
INDEX 01 00:00:00
FILE "17 - Touch The Sky (feat. Tony Yayo).wav" WAVE
TRACK 17 AUDIO
ISRC USUM70735424
INDEX 01 00:00:00
TRACK 18 AUDIO
ISRC USUM70735447
INDEX 00 03:09:43
FILE "18 - Smile (I'm Leaving).wav" WAVE
INDEX 01 00:00:00
01. The Invitation (2:54)
02. Then Days Went By (3:45)
03. Death To My Enemies (3:47)
04. So Disrespectful (3:40)
05. Psycho (Feat. Eminem) (4:46)
06. Hold Me Down (3:19)
07. Crime Wave (3:45)
08. Stretch (4:08)
09. Strong Enough (3:02)
10. Get It Hot (3:00)
11. Gangsta's Delight (3:15)
12. I Got Swag (3:35)
13. Baby By Me (Feat. Ne-Yo) (3:33)
14. Do You Think About Me (3:27)
15. Ok, You're Right (3:05)
16. Could've Been You (Feat. R. Kelly) (Bonus) (4:20)
Exact Audio Copy V0.99 prebeta 4 from 23. January 2008 

EAC extraction logfile from 16. November 2009, 10:50

50 Cent / Before I Self Destruct

Used drive : Optiarc DVD RW AD-7203A Adapter: 0 ID: 0

Read mode : Secure
Utilize accurate stream : Yes
Defeat audio cache : Yes
Make use of C2 pointers : No

Read offset correction : 48
Overread into Lead-In and Lead-Out : No
Fill up missing offset samples with silence : Yes
Delete leading and trailing silent blocks : No
Null samples used in CRC calculations : No
Used interface : Native Win32 interface for Win NT & 2000
Gap handling : Appended to previous track

Used output format : User Defined Encoder
Selected bitrate : 128 kBit/s
Quality : High
Add ID3 tag : No
Command line compressor : C:\Program Files\Exact Audio Copy\Flac\flac.exe
Additional command line options : -V -8 -T "artist=%a" -T "title=%t" -T "album=%g" -T "date=%y" -T "tracknumber=%n" -T "genre=%m" %s

TOC of the extracted CD

Track | Start | Length | Start sector | End sector
---------------------------------------------------------
1 | 0:00.00 | 2:54.35 | 0 | 13084
2 | 2:54.35 | 3:45.12 | 13085 | 29971
3 | 6:39.47 | 3:46.74 | 29972 | 46995
4 | 10:26.46 | 3:39.39 | 46996 | 63459
5 | 14:06.10 | 4:46.20 | 63460 | 84929
6 | 18:52.30 | 3:19.10 | 84930 | 99864
7 | 22:11.40 | 3:44.65 | 99865 | 116729
8 | 25:56.30 | 4:07.73 | 116730 | 135327
9 | 30:04.28 | 3:02.12 | 135328 | 148989
10 | 33:06.40 | 2:59.63 | 148990 | 162477
11 | 36:06.28 | 3:14.66 | 162478 | 177093
12 | 39:21.19 | 3:34.53 | 177094 | 193196
13 | 42:55.72 | 3:33.27 | 193197 | 209198
14 | 46:29.24 | 3:26.68 | 209199 | 224716
15 | 49:56.17 | 3:04.62 | 224717 | 238578
16 | 53:01.04 | 4:20.13 | 238579 | 258091

Track 1

Filename C:\Users\Jesse\Desktop\01 - The Invitation.wav

Pre-gap length 0:00:02.00

Peak level 100.0 %
Track quality 100.0 %
Test CRC 36E9C4CB
Copy CRC 36E9C4CB
Track not present in AccurateRip database
Copy OK

Track 2

Filename C:\Users\Jesse\Desktop\02 - Then Days Went By.wav

Peak level 100.0 %
Track quality 100.0 %
Test CRC 059591BF
Copy CRC 059591BF
Track not present in AccurateRip database
Copy OK

Track 3

Filename C:\Users\Jesse\Desktop\03 - Death To My Enemies.wav

Pre-gap length 0:00:00.35

Peak level 100.0 %
Track quality 100.0 %
Test CRC 17275A7B
Copy CRC 17275A7B
Track not present in AccurateRip database
Copy OK

Track 4

Filename C:\Users\Jesse\Desktop\04 - So Disrespectful.wav

Pre-gap length 0:00:00.33

Peak level 100.0 %
Track quality 100.0 %
Test CRC 0318464B
Copy CRC 0318464B
Track not present in AccurateRip database
Copy OK

Track 5

Filename C:\Users\Jesse\Desktop\05 - Psycho (Feat. Eminem).wav

Peak level 100.0 %
Track quality 99.9 %
Test CRC 29F0CF1F
Copy CRC 29F0CF1F
Track not present in AccurateRip database
Copy OK

Track 6

Filename C:\Users\Jesse\Desktop\06 - Hold Me Down.wav

Pre-gap length 0:00:00.41

Peak level 100.0 %
Track quality 100.0 %
Test CRC 6AFFA2FE
Copy CRC 6AFFA2FE
Track not present in AccurateRip database
Copy OK

Track 7

Filename C:\Users\Jesse\Desktop\07 - Crime Wave.wav

Peak level 100.0 %
Track quality 100.0 %
Test CRC 543C4D05
Copy CRC 543C4D05
Track not present in AccurateRip database
Copy OK

Track 8

Filename C:\Users\Jesse\Desktop\08 - Stretch.wav

Pre-gap length 0:00:00.25

Peak level 100.0 %
Track quality 100.0 %
Test CRC 4E69759F
Copy CRC 4E69759F
Track not present in AccurateRip database
Copy OK

Track 9

Filename C:\Users\Jesse\Desktop\09 - Strong Enough.wav

Peak level 100.0 %
Track quality 100.0 %
Test CRC 38388521
Copy CRC 38388521
Track not present in AccurateRip database
Copy OK

Track 10

Filename C:\Users\Jesse\Desktop\10 - Get It Hot.wav

Peak level 100.0 %
Track quality 100.0 %
Test CRC C768041E
Copy CRC C768041E
Track not present in AccurateRip database
Copy OK

Track 11

Filename C:\Users\Jesse\Desktop\11 - Gangsta's Delight.wav

Pre-gap length 0:00:00.25

Peak level 100.0 %
Track quality 100.0 %
Test CRC 24584ED8
Copy CRC 24584ED8
Track not present in AccurateRip database
Copy OK

Track 12

Filename C:\Users\Jesse\Desktop\12 - I Got Swag.wav

Peak level 100.0 %
Track quality 100.0 %
Test CRC 4EA21CD1
Copy CRC 4EA21CD1
Track not present in AccurateRip database
Copy OK

Track 13

Filename C:\Users\Jesse\Desktop\13 - Baby By Me (Feat. Ne-Yo).wav

Peak level 100.0 %
Track quality 100.0 %
Test CRC A77AB6FD
Copy CRC A77AB6FD
Track not present in AccurateRip database
Copy OK

Track 14

Filename C:\Users\Jesse\Desktop\14 - Do You Think About Me.wav

Peak level 100.0 %
Track quality 100.0 %
Test CRC AB45A5AE
Copy CRC AB45A5AE
Track not present in AccurateRip database
Copy OK

Track 15

Filename C:\Users\Jesse\Desktop\15 - Ok, You're Right.wav

Peak level 100.0 %
Track quality 100.0 %
Test CRC 067437FE
Copy CRC 067437FE
Track not present in AccurateRip database
Copy OK

Track 16

Filename C:\Users\Jesse\Desktop\16 - Could've Been You (Feat. R. Kelly) (Bonus).wav

Pre-gap length 0:00:00.10

Peak level 100.0 %
Track quality 100.0 %
Test CRC ADFA7230
Copy CRC ADFA7230
Track not present in AccurateRip database
Copy OK

None of the tracks are present in the AccurateRip database

No errors occurred

End of status report
REM GENRE Rap 
REM DATE 2009
REM DISCID FA0D7110
REM COMMENT "ExactAudioCopy v0.99pb4"
PERFORMER "50 Cent"
TITLE "Before I Self Destruct"
FILE "01 - The Invitation.wav" WAVE
TRACK 01 AUDIO
TITLE "The Invitation"
PERFORMER "50 Cent"
INDEX 01 00:00:00
FILE "02 - Then Days Went By.wav" WAVE
TRACK 02 AUDIO
TITLE "Then Days Went By"
PERFORMER "50 Cent"
INDEX 01 00:00:00
TRACK 03 AUDIO
TITLE "Death To My Enemies"
PERFORMER "50 Cent"
INDEX 00 03:44:52
FILE "03 - Death To My Enemies.wav" WAVE
INDEX 01 00:00:00
TRACK 04 AUDIO
TITLE "So Disrespectful"
PERFORMER "50 Cent"
INDEX 00 03:46:41
FILE "04 - So Disrespectful.wav" WAVE
INDEX 01 00:00:00
FILE "05 - Psycho (Feat. Eminem).wav" WAVE
TRACK 05 AUDIO
TITLE "Psycho (Feat. Eminem)"
PERFORMER "50 Cent"
INDEX 01 00:00:00
TRACK 06 AUDIO
TITLE "Hold Me Down"
PERFORMER "50 Cent"
INDEX 00 04:45:54
FILE "06 - Hold Me Down.wav" WAVE
INDEX 01 00:00:00
FILE "07 - Crime Wave.wav" WAVE
TRACK 07 AUDIO
TITLE "Crime Wave"
PERFORMER "50 Cent"
INDEX 01 00:00:00
TRACK 08 AUDIO
TITLE "Stretch"
PERFORMER "50 Cent"
INDEX 00 03:44:40
FILE "08 - Stretch.wav" WAVE
INDEX 01 00:00:00
FILE "09 - Strong Enough.wav" WAVE
TRACK 09 AUDIO
TITLE "Strong Enough"
PERFORMER "50 Cent"
INDEX 01 00:00:00
FILE "10 - Get It Hot.wav" WAVE
TRACK 10 AUDIO
TITLE "Get It Hot"
PERFORMER "50 Cent"
INDEX 01 00:00:00
TRACK 11 AUDIO
TITLE "Gangsta's Delight"
PERFORMER "50 Cent"
INDEX 00 02:59:38
FILE "11 - Gangsta's Delight.wav" WAVE
INDEX 01 00:00:00
FILE "12 - I Got Swag.wav" WAVE
TRACK 12 AUDIO
TITLE "I Got Swag"
PERFORMER "50 Cent"
INDEX 01 00:00:00
FILE "13 - Baby By Me (Feat. Ne-Yo).wav" WAVE
TRACK 13 AUDIO
TITLE "Baby By Me (Feat. Ne-Yo)"
PERFORMER "50 Cent"
INDEX 01 00:00:00
FILE "14 - Do You Think About Me.wav" WAVE
TRACK 14 AUDIO
TITLE "Do You Think About Me"
PERFORMER "50 Cent"
INDEX 01 00:00:00
FILE "15 - Ok, You're Right.wav" WAVE
TRACK 15 AUDIO
TITLE "Ok, You're Right"
PERFORMER "50 Cent"
INDEX 01 00:00:00
TRACK 16 AUDIO
TITLE "Could've Been You (Feat. R. Kelly) (Bonus)"
PERFORMER "50 Cent"
INDEX 00 03:04:52
FILE "16 - Could've Been You (Feat. R. Kelly) (Bonus).wav" WAVE
INDEX 01 00:00:00
01. P.I.M.P. (4:12)
02. P.I.M.P. (Remix) (4:49)
03. 8 More Miles (3:44)
Exact Audio Copy V0.99 prebeta 3 from 28. July 2007 

EAC extraction logfile from 11. August 2008, 18:31

50 Cent / P.I.M.P. CD Single

Used drive : Optiarc DVD RW AD-7590A Adapter: 0 ID: 0

Read mode : Secure
Utilize accurate stream : Yes
Defeat audio cache : Yes
Make use of C2 pointers : No

Read offset correction : 48
Overread into Lead-In and Lead-Out : No
Fill up missing offset samples with silence : Yes
Delete leading and trailing silent blocks : No
Null samples used in CRC calculations : Yes
Used interface : Native Win32 interface for Win NT & 2000
Gap handling : Not detected, thus appended to previous track

Used output format : Internal WAV Routines
Sample format : 44.100 Hz; 16 Bit; Stereo

TOC of the extracted CD

Track | Start | Length | Start sector | End sector
---------------------------------------------------------
1 | 0:00.00 | 4:11.51 | 0 | 18875
2 | 4:11.51 | 4:48.69 | 18876 | 40544
3 | 9:00.45 | 3:44.00 | 40545 | 57344
4 | 15:16.45 | 16:43.52 | 68745 | 144021

Track 1

Filename E:\Rips\50 Cent - P.I.M.P. CD Single\01 P.I.M.P..wav

Peak level 99.9 %
Track quality 99.9 %
Copy CRC 2BDA61A1
Track not present in AccurateRip database
Copy OK

Track 2

Filename E:\Rips\50 Cent - P.I.M.P. CD Single\02 P.I.M.P. Remix (feat Snoop Dogg and Lioyd Banks & Young Buck of G-Unit).wav

Peak level 98.8 %
Track quality 100.0 %
Copy CRC D4B99338
Track not present in AccurateRip database
Copy OK

Track 3

Filename E:\Rips\50 Cent - P.I.M.P. CD Single\03 8 More Miles (feat G-Unit).wav

Peak level 100.0 %
Track quality 100.0 %
Copy CRC EEB44C4A
Track not present in AccurateRip database
Copy OK

None of the tracks are present in the AccurateRip database

No errors occurred

End of status report
REM GENRE R&B 
REM DATE 2003
REM DISCID 29078004
REM COMMENT "ExactAudioCopy v0.99pb3"
PERFORMER "50 Cent"
TITLE "P.I.M.P. CD Single"
FILE "01 P.I.M.P..wav" WAVE
TRACK 01 AUDIO
TITLE "P.I.M.P."
PERFORMER "50 Cent"
INDEX 01 00:00:00
TRACK 02 AUDIO
TITLE "P.I.M.P. Remix (feat Snoop Dogg and Lioyd Banks & Young Buck of G-Unit)"
PERFORMER "50 Cent"
INDEX 00 04:09:63
FILE "02 P.I.M.P. Remix (feat Snoop Dogg and Lioyd Banks & Young Buck of G-Unit).wav" WAVE
INDEX 01 00:00:00
TRACK 03 AUDIO
TITLE "8 More Miles (feat G-Unit)"
PERFORMER "50 Cent"
INDEX 00 04:47:68
FILE "03 8 More Miles (feat G-Unit).wav" WAVE
INDEX 01 00:00:00
TRACK 04 MODEx/2xxx
TITLE "P.I.M.P. (video)"
PERFORMER "50 Cent"
INDEX 00 03:44:00
01. Ayo Technology (Radio Edit) (4:12)
02. Ayo Technology (Album Version) (4:11)
03. Ayo Technology (Instrumental) (4:10)
04. Ayo Technology (Acappella) (3:41)
EAC extraction logfile from 14. August 2007, 14:13 for CD 
50 Cent / Ayo Technology (CDS)

Used drive : SONY DVD RW DRU-510A Adapter: 1 ID: 0
Read mode : Secure with NO C2, accurate stream, disable cache
Read offset correction : 120
Overread into Lead-In and Lead-Out : No

Used output format : C:\Program Files\Exact Audio Copy\flac.exe (User Defined Encoder)
320 kBit/s
Additional command line options : -V -8 -T "artist=%a" -T "title=%t" -T "album=%g" -T "date=%y" -T "tracknumber=%n" -T "genre=%m" %s

Other options :
Fill up missing offset samples with silence : Yes
Delete leading and trailing silent blocks : No
Installed external ASPI interface

Track 1
Filename C:\FLAC\50 Cent\Ayo Technology (CDS) (2007) (FLAC)\01 - 50 Cent - Ayo Technology (Radio) feat. Justin Timberlake & Timbaland.wav

Pre-gap length 0:00:02.00

Peak level 99.9 %
Track quality 100.0 %
Test CRC 5C98CF1B
Copy CRC 5C98CF1B
Copy OK

Track 2
Filename C:\FLAC\50 Cent\Ayo Technology (CDS) (2007) (FLAC)\02 - 50 Cent - Ayo Technology feat. Justin Timberlake & Timbaland.wav

Pre-gap length 0:00:02.00

Peak level 99.9 %
Track quality 100.0 %
Test CRC 34C9B62B
Copy CRC 34C9B62B
Copy OK

Track 3
Filename C:\FLAC\50 Cent\Ayo Technology (CDS) (2007) (FLAC)\03 - 50 Cent - Ayo Technology (Instr.) feat. Justin Timberlake & Timbaland.wav

Pre-gap length 0:00:02.00

Peak level 99.9 %
Track quality 100.0 %
Test CRC AFF9CD4B
Copy CRC AFF9CD4B
Copy OK

Track 4
Filename C:\FLAC\50 Cent\Ayo Technology (CDS) (2007) (FLAC)\04 - 50 Cent - Ayo Technology (Acappella) feat. Justin Timberlake & Timbaland.wav

Pre-gap length 0:00:02.00

Peak level 98.8 %
Track quality 100.0 %
Test CRC 219BE591
Copy CRC 219BE591
Copy OK

No errors occured

End of status report
REM GENRE Hip-Hop 
REM DATE 2007
REM DISCID 2503CD04
REM COMMENT "ExactAudioCopy v0.95b4"
PERFORMER "50 Cent"
TITLE "Ayo Technology (CDS)"
FILE "50 Cent\Ayo Technology (CDS) (2007) (FLAC)\01 - 50 Cent - Ayo Technology (Radio) feat. Justin Timberlake & Timbaland.wav" WAVE
TRACK 01 AUDIO
TITLE "Ayo Technology (Radio) feat. Justin Timberlake & Timbaland"
PERFORMER "50 Cent"
INDEX 01 00:00:00
TRACK 02 AUDIO
TITLE "Ayo Technology feat. Justin Timberlake & Timbaland"
PERFORMER "50 Cent"
INDEX 00 04:09:39
FILE "50 Cent\Ayo Technology (CDS) (2007) (FLAC)\02 - 50 Cent - Ayo Technology feat. Justin Timberlake & Timbaland.wav" WAVE
INDEX 01 00:00:00
TRACK 03 AUDIO
TITLE "Ayo Technology (Instr.) feat. Justin Timberlake & Timbaland"
PERFORMER "50 Cent"
INDEX 00 04:09:12
FILE "50 Cent\Ayo Technology (CDS) (2007) (FLAC)\03 - 50 Cent - Ayo Technology (Instr.) feat. Justin Timberlake & Timbaland.wav" WAVE
INDEX 01 00:00:00
TRACK 04 AUDIO
TITLE "Ayo Technology (Acappella) feat. Justin Timberlake & Timbaland"
PERFORMER "50 Cent"
INDEX 00 04:08:14
FILE "50 Cent\Ayo Technology (CDS) (2007) (FLAC)\04 - 50 Cent - Ayo Technology (Acappella) feat. Justin Timberlake & Timbaland.wav" WAVE
INDEX 01 00:00:00
01. do you think about me (super clean edit) (3:29)
02. do you think about me (instrumental) (3:28)
03. do you think about me (does it offend you bobby bloomfield remix) (4:10)
04. do you think about me (space cowboy remix) (5:46)
05. do you think about me (raw man) (5:04)
06. do you think about me (space cowboy dub remix) (5:45)
Exact Audio Copy V0.99 prebeta 3 from 28. July 2007 

EAC extraction logfile from 30. May 2010, 14:33

50 cent / Do You Think About Me (CDS)

Used drive : HP DVD Writer 1040d Adapter: 1 ID: 0

Read mode : Secure
Utilize accurate stream : Yes
Defeat audio cache : Yes
Make use of C2 pointers : No

Read offset correction : 6
Overread into Lead-In and Lead-Out : No
Fill up missing offset samples with silence : Yes
Delete leading and trailing silent blocks : No
Null samples used in CRC calculations : Yes
Used interface : Native Win32 interface for Win NT & 2000
Gap handling : Appended to previous track

Used output format : User Defined Encoder
Selected bitrate : 320 kBit/s
Quality : High
Add ID3 tag : No
Command line compressor : C:\Program Files\Exact Audio Copy\Flac\flac.exe
Additional command line options : -V -8 -T "artist=%a" -T "title=%t" -T "album=%g" -T "date=%y" -T "tracknumber=%n" -T "genre=%m" %s

TOC of the extracted CD

Track | Start | Length | Start sector | End sector
---------------------------------------------------------
1 | 0:00.00 | 3:28.65 | 0 | 15664
2 | 3:28.65 | 3:28.23 | 15665 | 31287
3 | 6:57.13 | 4:09.71 | 31288 | 50033
4 | 11:07.09 | 5:45.38 | 50034 | 75946
5 | 16:52.47 | 5:04.24 | 75947 | 98770
6 | 21:56.71 | 5:45.13 | 98771 | 124658

Track 1

Filename G:\eac rips\50 cent - 2010 - Do You Think About Me (CDS)\01 - do you think about me (super clean edit).wav

Pre-gap length 0:00:02.00

Peak level 99.9 %
Track quality 99.9 %
Test CRC 11C4A892
Copy CRC 11C4A892
Track not present in AccurateRip database
Copy OK

Track 2

Filename G:\eac rips\50 cent - 2010 - Do You Think About Me (CDS)\02 - do you think about me (instrumental).wav

Pre-gap length 0:00:02.00

Peak level 100.0 %
Track quality 100.0 %
Test CRC 80DAC9E3
Copy CRC 80DAC9E3
Track not present in AccurateRip database
Copy OK

Track 3

Filename G:\eac rips\50 cent - 2010 - Do You Think About Me (CDS)\03 - do you think about me (does it offend you bobby bloomfield remix).wav

Pre-gap length 0:00:00.82

Peak level 99.9 %
Track quality 100.0 %
Test CRC 9D55C448
Copy CRC 9D55C448
Track not present in AccurateRip database
Copy OK

Track 4

Filename G:\eac rips\50 cent - 2010 - Do You Think About Me (CDS)\04 - do you think about me (space cowboy remix).wav

Pre-gap length 0:00:00.70

Peak level 99.9 %
Track quality 100.0 %
Test CRC E45FB241
Copy CRC E45FB241
Track not present in AccurateRip database
Copy OK

Track 5

Filename G:\eac rips\50 cent - 2010 - Do You Think About Me (CDS)\05 - do you think about me (raw man).wav

Pre-gap length 0:00:00.82

Peak level 99.9 %
Track quality 100.0 %
Test CRC 34F69AA7
Copy CRC 34F69AA7
Track not present in AccurateRip database
Copy OK

Track 6

Filename G:\eac rips\50 cent - 2010 - Do You Think About Me (CDS)\06 - do you think about me (space cowboy dub remix).wav

Pre-gap length 0:00:01.00

Peak level 99.9 %
Track quality 100.0 %
Test CRC D424B3EE
Copy CRC D424B3EE
Track not present in AccurateRip database
Copy OK

None of the tracks are present in the AccurateRip database

No errors occurred

End of status report
REM GENRE Hip-Hop 
REM DATE 2010
REM DISCID 3B067E06
REM COMMENT "ExactAudioCopy v0.99pb3"
FILE "50 cent - 2010 - Do You Think About Me (CDS)\01 - do you think about me (super clean edit).wav" WAVE
TRACK 01 AUDIO
INDEX 01 00:00:00
TRACK 02 AUDIO
INDEX 00 03:26:65
FILE "50 cent - 2010 - Do You Think About Me (CDS)\02 - do you think about me (instrumental).wav" WAVE
INDEX 01 00:00:00
TRACK 03 AUDIO
INDEX 00 03:27:36
FILE "50 cent - 2010 - Do You Think About Me (CDS)\03 - do you think about me (does it offend you bobby bloomfield remix).wav" WAVE
INDEX 01 00:00:00
TRACK 04 AUDIO
INDEX 00 04:09:18
FILE "50 cent - 2010 - Do You Think About Me (CDS)\04 - do you think about me (space cowboy remix).wav" WAVE
INDEX 01 00:00:00
TRACK 05 AUDIO
INDEX 00 05:44:51
FILE "50 cent - 2010 - Do You Think About Me (CDS)\05 - do you think about me (raw man).wav" WAVE
INDEX 01 00:00:00
TRACK 06 AUDIO
INDEX 00 05:03:24
FILE "50 cent - 2010 - Do You Think About Me (CDS)\06 - do you think about me (space cowboy dub remix).wav" WAVE
INDEX 01 00:00:00
01. Killa Tape Intro (2:59)
02. Rotten Apple (3:08)
03. Skit Drop (0:17)
04. That's What's Up ft. Tony Yayo & Lloyd Banks (4:09)
05. U Not Like Me (4:11)
06. 50 Bars (3:33)
07. Life's On The Line ft. Tony Yayo & Lloyd Banks (3:38)
08. Get Out The Club (4:23)
09. Be A Gentleman (2:40)
10. Fuck You (3:56)
11. Too Hot ft. The Bravehearts (3:46)
12. Who U Rep With ft. Nas & The Bravehearts (4:22)
13. Corner Bodega (1:35)
14. Ghetto Qua Ran (4:30)
15. As The World Turns ft. UGK (4:15)
16. Whoo Kid Freestyle (1:16)
17. Stretch Armstrong Freestyle (1:20)
18. Doo Wop Freestyle (2:25)
Exact Audio Copy V0.99 prebeta 4 from 23. January 2008 

EAC extraction logfile from 21. December 2008, 23:02

50 Cent / Guess Who's Back?

Used drive : HP DVD Writer 840d Adapter: 1 ID: 0

Read mode : Secure
Utilize accurate stream : Yes
Defeat audio cache : Yes
Make use of C2 pointers : No

Read offset correction : 6
Overread into Lead-In and Lead-Out : No
Fill up missing offset samples with silence : Yes
Delete leading and trailing silent blocks : No
Null samples used in CRC calculations : Yes
Used interface : Native Win32 interface for Win NT & 2000
Gap handling : Appended to previous track

Used output format : User Defined Encoder
Selected bitrate : 128 kBit/s
Quality : High
Add ID3 tag : No
Command line compressor : C:\Program Files (x86)\Exact Audio Copy\Flac\flac.exe
Additional command line options : -V -8 -T "artist=%a" -T "title=%t" -T "album=%g" -T "date=%y" -T "tracknumber=%n" -T "genre=%m" %s

TOC of the extracted CD

Track | Start | Length | Start sector | End sector
---------------------------------------------------------
1 | 0:00.00 | 2:58.60 | 0 | 13409
2 | 2:58.60 | 3:08.11 | 13410 | 27520
3 | 6:06.71 | 0:16.46 | 27521 | 28766
4 | 6:23.42 | 4:09.21 | 28767 | 47462
5 | 10:32.63 | 4:10.39 | 47463 | 66251
6 | 14:43.27 | 3:33.02 | 66252 | 82228
7 | 18:16.29 | 3:38.04 | 82229 | 98582
8 | 21:54.33 | 4:22.69 | 98583 | 118301
9 | 26:17.27 | 2:40.08 | 118302 | 130309
10 | 28:57.35 | 3:55.68 | 130310 | 148002
11 | 32:53.28 | 3:45.58 | 148003 | 164935
12 | 36:39.11 | 4:21.57 | 164936 | 184567
13 | 41:00.68 | 1:34.38 | 184568 | 191655
14 | 42:35.31 | 4:29.43 | 191656 | 211873
15 | 47:04.74 | 4:15.09 | 211874 | 231007
16 | 51:20.08 | 1:15.42 | 231008 | 236674
17 | 52:35.50 | 1:19.71 | 236675 | 242670
18 | 53:55.46 | 2:25.25 | 242671 | 253570

Track 1

Filename C:\EACRips\50 Cent - 2002 - Guess Who's Back\01 - Killa Tape Intro.wav

Pre-gap length 0:00:02.00

Peak level 98.8 %
Track quality 100.0 %
Test CRC AAACAAE2
Copy CRC AAACAAE2
Accurately ripped (confidence 2) [B4F2F242]
Copy OK

Track 2

Filename C:\EACRips\50 Cent - 2002 - Guess Who's Back\02 - Rotten Apple.wav

Peak level 98.8 %
Track quality 100.0 %
Test CRC E9A1A446
Copy CRC E9A1A446
Accurately ripped (confidence 2) [1BFD0B11]
Copy OK

Track 3

Filename C:\EACRips\50 Cent - 2002 - Guess Who's Back\03 - Skit Drop.wav

Peak level 100.0 %
Track quality 99.3 %
Test CRC BE298DBC
Copy CRC BE298DBC
Accurately ripped (confidence 2) [95CFFD03]
Copy OK

Track 4

Filename C:\EACRips\50 Cent - 2002 - Guess Who's Back\04 - That's What's Up ft. Tony Yayo & Lloyd Banks.wav

Peak level 100.0 %
Track quality 100.0 %
Test CRC 25174116
Copy CRC 25174116
Accurately ripped (confidence 2) [006BC8B6]
Copy OK

Track 5

Filename C:\EACRips\50 Cent - 2002 - Guess Who's Back\05 - U Not Like Me.wav

Peak level 98.8 %
Track quality 100.0 %
Test CRC 3A260F1B
Copy CRC 3A260F1B
Accurately ripped (confidence 2) [CD9E2FC7]
Copy OK

Track 6

Filename C:\EACRips\50 Cent - 2002 - Guess Who's Back\06 - 50 Bars.wav

Peak level 100.0 %
Track quality 100.0 %
Test CRC 015523FB
Copy CRC 015523FB
Accurately ripped (confidence 2) [1C959B02]
Copy OK

Track 7

Filename C:\EACRips\50 Cent - 2002 - Guess Who's Back\07 - Life's On The Line ft. Tony Yayo & Lloyd Banks.wav

Peak level 100.0 %
Track quality 100.0 %
Test CRC F299A892
Copy CRC F299A892
Accurately ripped (confidence 2) [D4EEEEA9]
Copy OK

Track 8

Filename C:\EACRips\50 Cent - 2002 - Guess Who's Back\08 - Get Out The Club.wav

Peak level 98.8 %
Track quality 100.0 %
Test CRC 9842BA77
Copy CRC 9842BA77
Accurately ripped (confidence 2) [B2074282]
Copy OK

Track 9

Filename C:\EACRips\50 Cent - 2002 - Guess Who's Back\09 - Be A Gentleman.wav

Peak level 98.8 %
Track quality 100.0 %
Test CRC 2C8C97B8
Copy CRC 2C8C97B8
Cannot be verified as accurate (confidence 5) [A2FA8139], AccurateRip returned [47397942]
Copy OK

Track 10

Filename C:\EACRips\50 Cent - 2002 - Guess Who's Back\10 - Fuck You.wav

Peak level 98.8 %
Track quality 100.0 %
Test CRC 5487FF7E
Copy CRC 5487FF7E
Accurately ripped (confidence 2) [F6CF4D62]
Copy OK

Track 11

Filename C:\EACRips\50 Cent - 2002 - Guess Who's Back\11 - Too Hot ft. The Bravehearts.wav

Peak level 99.1 %
Track quality 99.9 %
Test CRC 27A9DDCF
Copy CRC 27A9DDCF
Accurately ripped (confidence 2) [5ED8A821]
Copy OK

Track 12

Filename C:\EACRips\50 Cent - 2002 - Guess Who's Back\12 - Who U Rep With ft. Nas & The Bravehearts.wav

Peak level 98.9 %
Track quality 100.0 %
Test CRC 62D55348
Copy CRC 62D55348
Accurately ripped (confidence 2) [84BD2E9B]
Copy OK

Track 13

Filename C:\EACRips\50 Cent - 2002 - Guess Who's Back\13 - Corner Bodega.wav

Peak level 98.8 %
Track quality 100.0 %
Test CRC D3DCD0A1
Copy CRC D3DCD0A1
Accurately ripped (confidence 2) [3FAF8275]
Copy OK

Track 14

Filename C:\EACRips\50 Cent - 2002 - Guess Who's Back\14 - Ghetto Qua Ran.wav

Peak level 99.0 %
Track quality 100.0 %
Test CRC F2A19200
Copy CRC F2A19200
Accurately ripped (confidence 2) [A65C5925]
Copy OK

Track 15

Filename C:\EACRips\50 Cent - 2002 - Guess Who's Back\15 - As The World Turns ft. UGK.wav

Peak level 98.8 %
Track quality 100.0 %
Test CRC A1B98DAB
Copy CRC A1B98DAB
Accurately ripped (confidence 2) [9961B122]
Copy OK

Track 16

Filename C:\EACRips\50 Cent - 2002 - Guess Who's Back\16 - Whoo Kid Freestyle.wav

Peak level 98.8 %
Track quality 100.0 %
Test CRC 2628A3D0
Copy CRC 2628A3D0
Accurately ripped (confidence 2) [3169BF5C]
Copy OK

Track 17

Filename C:\EACRips\50 Cent - 2002 - Guess Who's Back\17 - Stretch Armstrong Freestyle.wav

Peak level 100.0 %
Track quality 100.0 %
Test CRC A228695B
Copy CRC A228695B
Accurately ripped (confidence 2) [260A80F8]
Copy OK

Track 18

Filename C:\EACRips\50 Cent - 2002 - Guess Who's Back\18 - Doo Wop Freestyle.wav

Peak level 84.5 %
Track quality 100.0 %
Test CRC FD0EF68E
Copy CRC FD0EF68E
Accurately ripped (confidence 2) [3FE449EC]
Copy OK

17 track(s) accurately ripped
1 track(s) could not be verified as accurate

Some tracks could not be verified as accurate

No errors occurred

End of status report
REM GENRE Rap 
REM DATE 2002
REM DISCID 100D3412
REM COMMENT "ExactAudioCopy v0.99pb4"
FILE "01 - Killa Tape Intro.wav" WAVE
TRACK 01 AUDIO
INDEX 01 00:00:00
FILE "02 - Rotten Apple.wav" WAVE
TRACK 02 AUDIO
INDEX 01 00:00:00
FILE "03 - Skit Drop.wav" WAVE
TRACK 03 AUDIO
INDEX 01 00:00:00
FILE "04 - That's What's Up ft. Tony Yayo & Lloyd Banks.wav" WAVE
TRACK 04 AUDIO
INDEX 01 00:00:00
FILE "05 - U Not Like Me.wav" WAVE
TRACK 05 AUDIO
INDEX 01 00:00:00
FILE "06 - 50 Bars.wav" WAVE
TRACK 06 AUDIO
INDEX 01 00:00:00
FILE "07 - Life's On The Line ft. Tony Yayo & Lloyd Banks.wav" WAVE
TRACK 07 AUDIO
INDEX 01 00:00:00
FILE "08 - Get Out The Club.wav" WAVE
TRACK 08 AUDIO
INDEX 01 00:00:00
FILE "09 - Be A Gentleman.wav" WAVE
TRACK 09 AUDIO
INDEX 01 00:00:00
FILE "10 - Fuck You.wav" WAVE
TRACK 10 AUDIO
INDEX 01 00:00:00
FILE "11 - Too Hot ft. The Bravehearts.wav" WAVE
TRACK 11 AUDIO
INDEX 01 00:00:00
FILE "12 - Who U Rep With ft. Nas & The Bravehearts.wav" WAVE
TRACK 12 AUDIO
INDEX 01 00:00:00
FILE "13 - Corner Bodega.wav" WAVE
TRACK 13 AUDIO
INDEX 01 00:00:00
FILE "14 - Ghetto Qua Ran.wav" WAVE
TRACK 14 AUDIO
INDEX 01 00:00:00
FILE "15 - As The World Turns ft. UGK.wav" WAVE
TRACK 15 AUDIO
INDEX 01 00:00:00
FILE "16 - Whoo Kid Freestyle.wav" WAVE
TRACK 16 AUDIO
INDEX 01 00:00:00
FILE "17 - Stretch Armstrong Freestyle.wav" WAVE
TRACK 17 AUDIO
INDEX 01 00:00:00
FILE "18 - Doo Wop Freestyle.wav" WAVE
TRACK 18 AUDIO
INDEX 01 00:00:00

info [Профиль]  [ЛС] 

post 01-Окт-2011 21:10 (спустя 1 месяц 8 дней) [-]0[+]

Топик был перенесен из форума Оформление раздач в форум Зарубежный Rap, Hip-Hop, R'n'B (lossless)

bobahchik3
 

Raa

Пол: Пол:Муж

Стаж: 6 лет 8 месяцев

Сообщений: 1099

Рейтинг

post 02-Окт-2011 19:09 (спустя 1 месяц 9 дней) [-]0[+]

[Цитировать] 

bobahchik3
Постер большой
В названии нужно указать количество релизов.
Продолжительность нужно указать.
info [Профиль]  [ЛС] 

bobahchik3

Пол: Пол:Муж

Стаж: 6 лет 8 месяцев

Сообщений: 276

Россия
Рейтинг

post 02-Окт-2011 19:17 (спустя 7 минут) [-]0[+]

[Цитировать] 

Омикомс
Постер и продолжительность исправил.
Зачем в заголовке указывать кол-во релизов? Раньше такого никто не требовал и это не являлось основным критерием.

_________________
info [Профиль]  [ЛС] 

Raa

Пол: Пол:Муж

Стаж: 6 лет 8 месяцев

Сообщений: 1099

Рейтинг

post 02-Окт-2011 19:22 (спустя 5 минут) [-]0[+]

[Цитировать] 

bobahchik3

Цитата:

Зачем в заголовке указывать кол-во релизов? Раньше такого никто не требовал и это не являлось основным критерием.
Это их дело.

Цитата:

При размещении дискографии или нескольких альбомов, необходимо указать только название группы или имя исполнителя и кол-во альбомов.
Общие правила оформления раздач в разделе Музыка (для всех разделов, включая lossy и lossless).
info [Профиль]  [ЛС] 

bobahchik3

Пол: Пол:Муж

Стаж: 6 лет 8 месяцев

Сообщений: 276

Россия
Рейтинг

post 02-Окт-2011 19:25 (спустя 3 минуты) [-]0[+]

[Цитировать] 

сделал

_________________
info [Профиль]  [ЛС] 

Makszm

Стаж: 6 лет 5 месяцев

Сообщений: 1

Рейтинг

post 02-Окт-2011 20:27 (спустя 1 час 2 минуты) [-]0[+]

[Цитировать] 

Спасибо большое!))
info [Профиль]  [ЛС] 

foxirk

Пол: Пол:Муж

Стаж: 6 лет 1 месяц

Сообщений: 176

Россия
Рейтинг

post 20-Апр-2013 06:44 (спустя 1 год 6 месяцев) [-]0[+]

[Цитировать] 

А раздавать то кто будет, аль нет?
info [Профиль]  [ЛС] 

DirtyLeecher

Пол: Пол:Муж

Стаж: 7 лет 1 месяц

Сообщений: 94

Латвия
Рейтинг

post 17-Июл-2013 17:24 (спустя 2 месяца 27 дней) [-]0[+]

[Цитировать] 

Откуда вы взяли рипы, если не секрет? (можно в ЛС, если не хотите ответить прямо в теме) Подмигиваю

_________________
info [Профиль]  [ЛС] 
Показать сообщения:    
Ответить на тему

Текущее время: 04-Дек 01:53

Часовой пояс: GMT + 4



Вы не можете начинать темы
Вы не можете отвечать на сообщения
Вы не можете редактировать свои сообщения
Вы не можете удалять свои сообщения
Вы не можете голосовать в опросах
Вы не можете прикреплять файлы к сообщениям
Вы не можете скачивать файлы