Ошибка

K-On!! Live Event ~Come With Me~ (Ямада Наоко) [2011 г., JPop / Anime OST, Blu-Ray]

Ответить на тему
 
Автор Сообщение

ANtreides

Пол: Пол:Муж

Стаж: 7 лет 4 месяца

Сообщений: 1014

Рейтинг

post 21-Авг-2011 15:02 0[+]

[Цитировать] 

K-On!! Live Event ~Come With Me~

Год выпуска: 2011
Жанр: JPop / Anime OST / Character song
Продолжительность: 2:07:07 (1 диск) + 1:33:07 (2 диск) + 50:59 (дополнения)
Режиссер: Ямада Наоко
Треклист:
    Диск 1:
  1. Вступление
  2. Увертюра
  3. GO! GO! MANIAC // Hokago Tea Time
  4. Listen!! // Hokago Tea Time
  5. Речь 1. "ごあいさつ!"
  6. Oh My Giita!! // Yui Hirasawa (cv. Aki Toyosaki)
  7. Seishun Vibration Mio Akiyama (cv. Yoko Hikasa)
  8. Drumming Shining My Life // Ritsu Tainaka (cv. Satomi Satou)
  9. Diary wa Fortissimo // Tsumugi Kotobuki (cv. Minato Kotobuki)
  10. Over the Starlight // Azusa Nakano (cv. Ayana Taketatsu)
  11. Речь 2. "1、2、3はけ・い・お・ん!"
  12. Uki Uki New! My Way // Ui Hirasawa (cv. Madoka Yonezawa)
  13. Junjou Bomber!! // Jun Suzuki (cv. Yoriko Nagata)
  14. Jump // Nodoka Manabe (cv. Chika Fujito)
  15. Речь 3. Сценка "……ここは何処かね?"
  16. Ichigo Parfait ga Tomara nai // Hokago Tea Time
  17. Tokimeki Sugar // Hokago Tea Time
  18. Honey sweet tea time // Hokago Tea Time
  19. Gohan wa Okazu // Hokago Tea Time
  20. MADDY CANDY // DEATH DEVIL
  21. LOVE // DEATH DEVIL
  22. Речь 4. Сценка "またまたある日の軽音部"
    Диск 2:
  23. Pure Pure Heart // Hokago Tea Time
  24. U&I // Hokago Tea Time
  25. U&I(инстр.)
  26. Tenshi ni Fureta yo! // Hokago Tea Time
  27. Fuwa Fuwa Time // Hokago Tea Time
  28. NO, Thank You! // Hokago Tea Time
  29. Utauyo!! MIRACLE // Hokago Tea Time
  30. Cagayake! GIRLS // Hokago Tea Time
  31. Don' t say "lazy" // Hokago Tea Time
  32. Sakuragaoka Joshi Koutou Gakkou Kouka // все вместе
  33. Come with Me!! // все вместе
    Дополнения:
  34. За месяц до концерта
  35. Первая встреча с инструментами
  36. Репетиция
  37. Последние приготовления
  38. Концерт! Закулисье.

Описание:

Цитата:

Концерт с участием сейю (актрис озвучки) из аниме "K-On!". Каждая из них исполняет по одной песне с персональных альбомов Character Image Song, плюс опенинг, эндинг и песни, исполнявшиеся группой Hokago Tea Time в аниме. В большей части песен инструментальное сопровождение создают профессиональные музыканты.
Описание первого концерта во многом подходит и ко второму. Сейю, профессиональные музыканты, песни из аниме, сценки. Но во многом можно сказать, что второй концерт - удвоенный первый. Вдвое больше музыкантов, больше песен, вместо Савако-сенсей и гитариста собрали целую группу Death Devil... Даже запись концерта вышла уже на двух дисках. Стоит ли оно того? Решать вам. Фанаты аниме точно порадуются.
Источник: Blu-Ray Dual-Layer Disc
Формат: BDMV
Видео: H.264 High@4.1, 1920x1080 (interlaced), 16:9, ~31500 kbps, 29.970 fps
Аудио:
  • LPCM 5.1 6912 kbps, 48 kHz, 24-bit
  • LPCM 2.0 2304 kbps, 48 kHz, 24-bit

Код:

                                                                                                                Total   Video                                             
Title                                                           Codec   Length  Movie Size      Disc Size       Bitrate Bitrate Main Audio Track                          Secondary Audio Track
-----                                                           ------  ------- --------------  --------------  ------- ------- ------------------                        ---------------------
00001.MPLS                                                      AVC     2:07:07 41 231 081 472  41 692 633 944  43,24   31,92   LPCM 5.1 6912Kbps (48kHz/24-bit)          LPCM 2.0 2304Kbps (48kHz/24-bit)

Код:



DISC INFO:

Disc Title:     K_ON2_LIVE_DISC1
Disc Size:      41 692 633 944 bytes
Protection:     AACS
BD-Java:        No
BDInfo:         0.5.6

PLAYLIST REPORT:

Name:                   00001.MPLS
Length:                 2:07:07 (h:m:s)
Size:                   41 231 081 472 bytes
Total Bitrate:          43,24 Mbps

VIDEO:

Codec                   Bitrate             Description     
-----                   -------             -----------     
MPEG-4 AVC Video        31924 kbps          1080i / 29,970 fps / 16:9 / High Profile 4.1

AUDIO:

Codec                           Language        Bitrate         Description     
-----                           --------        -------         -----------     
LPCM Audio                      Japanese        6912 kbps       5.1 / 48 kHz / 6912 kbps / 24-bit
LPCM Audio                      Japanese        2304 kbps       2.0 / 48 kHz / 2304 kbps / 24-bit

FILES:

Name            Time In         Length          Size            Total Bitrate   
----            -------         ------          ----            -------------   
00001.M2TS      0:00:00.000     0:04:48.154     1 655 820 288   45 970         
00002.M2TS      0:04:48.154     2:02:19.532     39 575 261 184  43 137         

CHAPTERS:

Number          Time In         Length          Avg Video Rate  Max 1-Sec Rate  Max 1-Sec Time  Max 5-Sec Rate  Max 5-Sec Time  Max 10Sec Rate  Max 10Sec Time  Avg Frame Size  Max Frame Size  Max Frame Time 
------          -------         ------          --------------  --------------  --------------  --------------  --------------  --------------  --------------  --------------  --------------  -------------- 
1               0:00:00.000     0:07:26.078     33 728 kbps     44 246 kbps     00:06:46.672    38 348 kbps     00:01:34.694    37 993 kbps     00:03:29.742    140 665 bytes   432 917 bytes   00:03:39.452   
2               0:07:26.078     0:01:40.433     32 877 kbps     41 824 kbps     00:08:25.204    36 843 kbps     00:07:33.920    35 288 kbps     00:07:47.433    137 125 bytes   377 645 bytes   00:08:28.875   
3               0:09:06.512     0:04:10.917     32 634 kbps     45 461 kbps     00:12:14.867    37 517 kbps     00:10:17.383    35 760 kbps     00:10:16.749    136 111 bytes   392 021 bytes   00:12:04.924   
4               0:13:17.429     0:04:19.325     32 732 kbps     43 765 kbps     00:15:32.431    37 431 kbps     00:15:30.562    35 459 kbps     00:13:36.148    136 522 bytes   350 885 bytes   00:17:09.428   
5               0:17:36.755     0:03:47.160     31 898 kbps     38 771 kbps     00:18:16.061    35 070 kbps     00:21:18.910    33 313 kbps     00:18:14.793    133 040 bytes   384 394 bytes   00:18:08.654   
6               0:21:23.915     0:06:19.378     31 896 kbps     42 427 kbps     00:22:01.620    35 555 kbps     00:24:28.066    33 781 kbps     00:27:20.271    133 035 bytes   360 098 bytes   00:27:29.447   
7               0:27:43.294     0:04:54.293     31 678 kbps     42 678 kbps     00:28:43.855    35 559 kbps     00:32:23.374    33 898 kbps     00:29:01.973    132 122 bytes   348 825 bytes   00:30:26.357   
8               0:32:37.588     0:04:51.291     31 971 kbps     43 481 kbps     00:34:10.815    35 128 kbps     00:36:40.031    33 849 kbps     00:35:08.506    133 344 bytes   361 011 bytes   00:33:33.378   
9               0:37:28.879     0:05:11.311     31 614 kbps     40 166 kbps     00:40:42.506    34 591 kbps     00:39:35.806    33 616 kbps     00:41:57.515    131 855 bytes   408 932 bytes   00:42:07.291   
10              0:42:40.190     0:05:20.319     32 270 kbps     43 856 kbps     00:44:52.456    36 244 kbps     00:44:56.093    34 710 kbps     00:44:44.882    134 593 bytes   393 216 bytes   00:44:35.572   
11              0:48:00.510     0:11:35.694     31 411 kbps     40 944 kbps     00:52:08.658    34 692 kbps     00:52:38.221    33 338 kbps     00:48:58.235    131 011 bytes   446 071 bytes   00:54:30.533   
12              0:59:36.205     0:04:22.595     31 803 kbps     43 111 kbps     01:00:35.164    34 523 kbps     01:03:17.693    33 641 kbps     01:02:15.264    132 644 bytes   365 354 bytes   01:01:13.169   
13              1:03:58.801     0:03:25.872     32 063 kbps     43 798 kbps     01:04:42.445    35 890 kbps     01:07:12.695    34 170 kbps     01:07:07.690    133 730 bytes   393 027 bytes   01:04:42.612   
14              1:07:24.673     0:04:12.252     31 907 kbps     44 792 kbps     01:09:25.628    35 187 kbps     01:09:30.699    34 021 kbps     01:08:12.121    133 077 bytes   380 973 bytes   01:09:11.313   
15              1:11:36.925     0:06:42.402     31 880 kbps     40 147 kbps     01:11:43.399    35 159 kbps     01:16:48.236    33 715 kbps     01:11:50.572    132 964 bytes   511 576 bytes   01:13:04.680   
16              1:18:19.327     0:04:14.220     31 832 kbps     41 646 kbps     01:19:06.274    35 584 kbps     01:20:14.676    33 883 kbps     01:20:07.335    132 766 bytes   378 496 bytes   01:22:04.119   
17              1:22:33.548     0:08:13.526     31 531 kbps     41 448 kbps     01:29:23.024    35 476 kbps     01:24:33.234    33 721 kbps     01:24:30.565    131 510 bytes   348 568 bytes   01:30:36.230   
18              1:30:47.074     0:06:10.370     31 737 kbps     40 484 kbps     01:32:18.499    34 783 kbps     01:32:17.899    33 460 kbps     01:32:17.965    132 368 bytes   366 407 bytes   01:35:36.263   
19              1:36:57.444     0:04:30.270     32 022 kbps     43 272 kbps     01:38:54.628    35 147 kbps     01:38:42.850    34 209 kbps     01:38:41.682    133 559 bytes   346 523 bytes   01:37:01.882   
20              1:41:27.714     0:01:53.112     31 224 kbps     38 713 kbps     01:41:38.826    34 033 kbps     01:41:38.392    33 287 kbps     01:41:38.525    130 231 bytes   314 241 bytes   01:43:19.459   
21              1:43:20.827     0:06:29.922     32 062 kbps     45 547 kbps     01:45:01.895    40 751 kbps     01:45:01.795    37 914 kbps     01:45:01.962    133 726 bytes   364 327 bytes   01:49:35.168   
22              1:49:50.750     0:05:06.139     32 471 kbps     50 310 kbps     01:52:31.244    37 984 kbps     01:52:31.244    35 479 kbps     01:51:09.095    135 429 bytes   383 873 bytes   01:51:28.314   
23              1:54:56.890     0:12:10.796     30 926 kbps     39 206 kbps     02:06:49.568    33 700 kbps     02:02:04.083    32 911 kbps     02:06:55.841    128 995 bytes   454 406 bytes   01:55:55.415   

STREAM DIAGNOSTICS:

File            PID             Type            Codec           Language                Seconds                 Bitrate                 Bytes           Packets         
----            ---             ----            -----           --------                --------------          --------------          -------------   -----           
00001.M2TS      4113 (0x1011)   0x1B            AVC                                     288,054                 34 549                  1 243 990 219   6 770 190       
00001.M2TS      4352 (0x1100)   0x80            LPCM            jpn (Japanese)          288,054                 6 921                   249 196 444     1 383 144       
00001.M2TS      4353 (0x1101)   0x80            LPCM            jpn (Japanese)          288,054                 2 311                   83 219 164      461 048         
00002.M2TS      4113 (0x1011)   0x1B            AVC                                     7339,465                31 821                  29 194 002 227  158 902 240     
00002.M2TS      4352 (0x1100)   0x80            LPCM            jpn (Japanese)          7339,465                6 918                   6 347 229 868   35 229 768     
00002.M2TS      4353 (0x1101)   0x80            LPCM            jpn (Japanese)          7339,465                2 310                   2 119 657 708   11 743 256     

Код:

                                                                                                                Total   Video                                             
Title                                                           Codec   Length  Movie Size      Disc Size       Bitrate Bitrate Main Audio Track                          Secondary Audio Track
-----                                                           ------  ------- --------------  --------------  ------- ------- ------------------                        ---------------------
00000.MPLS                                                      AVC     2:03:38 39 872 256 000  41 692 633 944  43,00   31,69   LPCM 5.1 6912Kbps (48kHz/24-bit)          LPCM 2.0 2304Kbps (48kHz/24-bit)

Код:



DISC INFO:

Disc Title:     K_ON2_LIVE_DISC1
Disc Size:      41 692 633 944 bytes
Protection:     AACS
BD-Java:        No
BDInfo:         0.5.6

PLAYLIST REPORT:

Name:                   00000.MPLS
Length:                 2:03:38 (h:m:s)
Size:                   39 872 256 000 bytes
Total Bitrate:          43,00 Mbps

VIDEO:

Codec                   Bitrate             Description     
-----                   -------             -----------     
MPEG-4 AVC Video        31686 kbps          1080i / 29,970 fps / 16:9 / High Profile 4.1

AUDIO:

Codec                           Language        Bitrate         Description     
-----                           --------        -------         -----------     
LPCM Audio                      Japanese        6912 kbps       5.1 / 48 kHz / 6912 kbps / 24-bit
LPCM Audio                      Japanese        2304 kbps       2.0 / 48 kHz / 2304 kbps / 24-bit

FILES:

Name            Time In         Length          Size            Total Bitrate   
----            -------         ------          ----            -------------   
00000.M2TS      0:00:00.000     0:00:42.275     235 259 904     44 519         
00002.M2TS      0:00:42.275     2:02:19.532     39 575 261 184  43 137         
00005.M2TS      2:03:01.807     0:00:37.037     61 734 912      13 335         

CHAPTERS:

Number          Time In         Length          Avg Video Rate  Max 1-Sec Rate  Max 1-Sec Time  Max 5-Sec Rate  Max 5-Sec Time  Max 10Sec Rate  Max 10Sec Time  Avg Frame Size  Max Frame Size  Max Frame Time 
------          -------         ------          --------------  --------------  --------------  --------------  --------------  --------------  --------------  --------------  --------------  -------------- 
1               0:00:00.000     0:03:20.199     32 441 kbps     48 826 kbps     00:00:12.712    38 460 kbps     00:00:28.361    37 983 kbps     00:00:27.927    135 285 bytes   492 785 bytes   00:00:13.680   
2               0:03:20.199     0:01:40.433     32 877 kbps     41 824 kbps     00:04:19.325    36 843 kbps     00:03:28.041    35 288 kbps     00:03:41.554    137 125 bytes   377 645 bytes   00:04:22.996   
3               0:05:00.633     0:04:10.917     32 634 kbps     45 461 kbps     00:08:08.988    37 517 kbps     00:06:11.504    35 760 kbps     00:06:10.870    136 111 bytes   392 021 bytes   00:07:59.045   
4               0:09:11.550     0:04:19.325     32 732 kbps     43 765 kbps     00:11:26.552    37 431 kbps     00:11:24.683    35 459 kbps     00:09:30.269    136 522 bytes   350 885 bytes   00:13:03.549   
5               0:13:30.876     0:03:47.160     31 898 kbps     38 771 kbps     00:14:10.182    35 070 kbps     00:17:13.031    33 313 kbps     00:14:08.914    133 040 bytes   384 394 bytes   00:14:02.775   
6               0:17:18.036     0:06:19.378     31 896 kbps     42 427 kbps     00:17:55.741    35 555 kbps     00:20:22.187    33 781 kbps     00:23:14.392    133 035 bytes   360 098 bytes   00:23:23.568   
7               0:23:37.415     0:04:54.293     31 678 kbps     42 678 kbps     00:24:37.976    35 559 kbps     00:28:17.495    33 898 kbps     00:24:56.094    132 122 bytes   348 825 bytes   00:26:20.478   
8               0:28:31.709     0:04:51.291     31 971 kbps     43 481 kbps     00:30:04.936    35 128 kbps     00:32:34.152    33 849 kbps     00:31:02.627    133 344 bytes   361 011 bytes   00:29:27.499   
9               0:33:23.000     0:05:11.311     31 614 kbps     40 166 kbps     00:36:36.627    34 591 kbps     00:35:29.927    33 616 kbps     00:37:51.636    131 855 bytes   408 932 bytes   00:38:01.412   
10              0:38:34.311     0:05:20.319     32 270 kbps     43 856 kbps     00:40:46.577    36 244 kbps     00:40:50.214    34 710 kbps     00:40:39.003    134 593 bytes   393 216 bytes   00:40:29.693   
11              0:43:54.631     0:11:35.694     31 411 kbps     40 944 kbps     00:48:02.779    34 692 kbps     00:48:32.342    33 338 kbps     00:44:52.356    131 011 bytes   446 071 bytes   00:50:24.654   
12              0:55:30.326     0:04:22.595     31 803 kbps     43 111 kbps     00:56:29.285    34 523 kbps     00:59:11.814    33 641 kbps     00:58:09.385    132 644 bytes   365 354 bytes   00:57:07.290   
13              0:59:52.922     0:03:25.872     32 063 kbps     43 798 kbps     01:00:36.566    35 890 kbps     01:03:06.816    34 170 kbps     01:03:01.811    133 730 bytes   393 027 bytes   01:00:36.733   
14              1:03:18.794     0:04:12.252     31 907 kbps     44 792 kbps     01:05:19.749    35 187 kbps     01:05:24.820    34 021 kbps     01:04:06.242    133 077 bytes   380 973 bytes   01:05:05.434   
15              1:07:31.046     0:06:42.402     31 880 kbps     40 147 kbps     01:07:37.520    35 159 kbps     01:12:42.357    33 715 kbps     01:07:44.693    132 964 bytes   511 576 bytes   01:08:58.801   
16              1:14:13.448     0:04:14.220     31 832 kbps     41 646 kbps     01:15:00.395    35 584 kbps     01:16:08.797    33 883 kbps     01:16:01.456    132 766 bytes   378 496 bytes   01:17:58.240   
17              1:18:27.669     0:08:13.526     31 531 kbps     41 448 kbps     01:25:17.145    35 476 kbps     01:20:27.355    33 721 kbps     01:20:24.686    131 510 bytes   348 568 bytes   01:26:30.351   
18              1:26:41.195     0:06:10.370     31 737 kbps     40 484 kbps     01:28:12.620    34 783 kbps     01:28:12.020    33 460 kbps     01:28:12.086    132 368 bytes   366 407 bytes   01:31:30.384   
19              1:32:51.565     0:04:30.270     32 022 kbps     43 272 kbps     01:34:48.749    35 147 kbps     01:34:36.971    34 209 kbps     01:34:35.803    133 559 bytes   346 523 bytes   01:32:56.003   
20              1:37:21.835     0:01:53.112     31 224 kbps     38 713 kbps     01:37:32.947    34 033 kbps     01:37:32.513    33 287 kbps     01:37:32.646    130 231 bytes   314 241 bytes   01:39:13.580   
21              1:39:14.948     0:06:29.922     32 062 kbps     45 547 kbps     01:40:56.016    40 751 kbps     01:40:55.916    37 914 kbps     01:40:56.083    133 726 bytes   364 327 bytes   01:45:29.289   
22              1:45:44.871     0:05:06.139     32 471 kbps     50 310 kbps     01:48:25.365    37 984 kbps     01:48:25.365    35 479 kbps     01:47:03.216    135 429 bytes   383 873 bytes   01:47:22.435   
23              1:50:51.011     0:12:47.833     29 592 kbps     39 206 kbps     02:02:43.689    33 700 kbps     01:57:58.204    32 911 kbps     02:02:49.962    123 428 bytes   454 406 bytes   01:51:49.536   

STREAM DIAGNOSTICS:

File            PID             Type            Codec           Language                Seconds                 Bitrate                 Bytes           Packets         
----            ---             ----            -----           --------                --------------          --------------          -------------   -----           
00000.M2TS      4113 (0x1011)   0x1B            AVC                                     42,209                  33 197                  175 150 889     953 280         
00000.M2TS      4352 (0x1100)   0x80            LPCM            jpn (Japanese)          42,209                  6 930                   36 563 744      202 944         
00000.M2TS      4353 (0x1101)   0x80            LPCM            jpn (Japanese)          42,209                  2 314                   12 210 464      67 648         
00002.M2TS      4113 (0x1011)   0x1B            AVC                                     7339,465                31 821                  29 194 002 227  158 902 240     
00002.M2TS      4352 (0x1100)   0x80            LPCM            jpn (Japanese)          7339,465                6 918                   6 347 229 868   35 229 768     
00002.M2TS      4353 (0x1101)   0x80            LPCM            jpn (Japanese)          7339,465                2 310                   2 119 657 708   11 743 256     
00005.M2TS      4113 (0x1011)   0x1B            AVC                                     36,937                  3 269                   15 094 100      83 262         
00005.M2TS      4352 (0x1100)   0x80            LPCM            jpn (Japanese)          36,937                  6 937                   32 027 868      177 768         
00005.M2TS      4353 (0x1101)   0x80            LPCM            jpn (Japanese)          36,937                  2 317                   10 695 708      59 256         

Код:

                                                                                                                Total   Video                                             
Title                                                           Codec   Length  Movie Size      Disc Size       Bitrate Bitrate Main Audio Track                          Secondary Audio Track
-----                                                           ------  ------- --------------  --------------  ------- ------- ------------------                        ---------------------
00002.MPLS                                                      AVC     0:00:52 159 418 368     41 692 633 944  24,50   18,67   LPCM 5.1 4608Kbps (48kHz/16-bit)         

Код:



DISC INFO:

Disc Title:     K_ON2_LIVE_DISC1
Disc Size:      41 692 633 944 bytes
Protection:     AACS
BD-Java:        No
BDInfo:         0.5.6

PLAYLIST REPORT:

Name:                   00002.MPLS
Length:                 0:00:52 (h:m:s)
Size:                   159 418 368 bytes
Total Bitrate:          24,50 Mbps

VIDEO:

Codec                   Bitrate             Description     
-----                   -------             -----------     
MPEG-4 AVC Video        18671 kbps          1080i / 29,970 fps / 16:9 / High Profile 4.1

AUDIO:

Codec                           Language        Bitrate         Description     
-----                           --------        -------         -----------     
LPCM Audio                      Japanese        4608 kbps       5.1 / 48 kHz / 4608 kbps / 16-bit

FILES:

Name            Time In         Length          Size            Total Bitrate   
----            -------         ------          ----            -------------   
00003.M2TS      0:00:00.000     0:00:52.051     159 418 368     24 501         

CHAPTERS:

Number          Time In         Length          Avg Video Rate  Max 1-Sec Rate  Max 1-Sec Time  Max 5-Sec Rate  Max 5-Sec Time  Max 10Sec Rate  Max 10Sec Time  Avg Frame Size  Max Frame Size  Max Frame Time 
------          -------         ------          --------------  --------------  --------------  --------------  --------------  --------------  --------------  --------------  --------------  -------------- 
1               0:00:00.000     0:00:52.051     18 671 kbps     60 345 kbps     00:00:40.373    41 343 kbps     00:00:08.575    35 833 kbps     00:00:08.475    77 875 bytes    462 663 bytes   00:00:30.530   

STREAM DIAGNOSTICS:

File            PID             Type            Codec           Language                Seconds                 Bitrate                 Bytes           Packets         
----            ---             ----            -----           --------                --------------          --------------          -------------   -----           
00003.M2TS      4113 (0x1011)   0x1B            AVC                                     51,985                  18 695                  121 485 429     661 963         
00003.M2TS      4352 (0x1100)   0x80            LPCM            jpn (Japanese)          51,985                  4 621                   30 025 324      166 576         

Код:

                                                                                                                Total   Video                                             
Title                                                           Codec   Length  Movie Size      Disc Size       Bitrate Bitrate Main Audio Track                          Secondary Audio Track
-----                                                           ------  ------- --------------  --------------  ------- ------- ------------------                        ---------------------
00000.MPLS                                                      AVC     1:33:07 29 896 826 880  42 779 845 464  42,80   31,50   LPCM 5.1 6912Kbps (48kHz/24-bit)          LPCM 2.0 2304Kbps (48kHz/24-bit)

Код:



DISC INFO:

Disc Title:     K_ON2_LIVE_DISC2
Disc Size:      42 779 845 464 bytes
Protection:     AACS
BD-Java:        No
BDInfo:         0.5.6

PLAYLIST REPORT:

Name:                   00000.MPLS
Length:                 1:33:07 (h:m:s)
Size:                   29 896 826 880 bytes
Total Bitrate:          42,80 Mbps

VIDEO:

Codec                   Bitrate             Description     
-----                   -------             -----------     
MPEG-4 AVC Video        31502 kbps          1080i / 29,970 fps / 16:9 / High Profile 4.1

AUDIO:

Codec                           Language        Bitrate         Description     
-----                           --------        -------         -----------     
LPCM Audio                      Japanese        6912 kbps       5.1 / 48 kHz / 6912 kbps / 24-bit
LPCM Audio                      Japanese        2304 kbps       2.0 / 48 kHz / 2304 kbps / 24-bit

FILES:

Name            Time In         Length          Size            Total Bitrate   
----            -------         ------          ----            -------------   
00000.M2TS      0:00:00.000     1:32:37.018     29 843 693 568  42 964         
00004.M2TS      1:32:37.018     0:00:30.697     53 133 312      13 847         

CHAPTERS:

Number          Time In         Length          Avg Video Rate  Max 1-Sec Rate  Max 1-Sec Time  Max 5-Sec Rate  Max 5-Sec Time  Max 10Sec Rate  Max 10Sec Time  Avg Frame Size  Max Frame Size  Max Frame Time 
------          -------         ------          --------------  --------------  --------------  --------------  --------------  --------------  --------------  --------------  --------------  -------------- 
1               0:00:00.000     0:01:00.560     31 881 kbps     42 003 kbps     00:00:16.916    35 070 kbps     00:00:16.082    33 608 kbps     00:00:16.082    132 897 bytes   397 373 bytes   00:00:54.988   
2               0:01:00.560     0:06:17.877     32 303 kbps     41 296 kbps     00:03:21.501    38 705 kbps     00:03:21.401    36 328 kbps     00:03:17.997    134 732 bytes   367 515 bytes   00:02:21.107   
3               0:07:18.438     0:07:24.443     32 391 kbps     44 056 kbps     00:08:51.063    37 508 kbps     00:08:51.063    35 938 kbps     00:08:45.992    135 096 bytes   378 156 bytes   00:10:41.540   
4               0:14:42.881     0:01:40.100     33 122 kbps     42 512 kbps     00:15:23.522    35 280 kbps     00:16:02.661    34 810 kbps     00:15:49.481    138 147 bytes   415 178 bytes   00:16:07.433   
5               0:16:22.982     0:08:20.933     32 213 kbps     40 853 kbps     00:17:58.277    36 083 kbps     00:17:51.670    34 867 kbps     00:17:51.203    134 356 bytes   395 215 bytes   00:23:21.867   
6               0:24:43.915     0:06:36.963     31 600 kbps     39 882 kbps     00:30:24.022    36 070 kbps     00:29:57.195    34 895 kbps     00:29:55.527    131 798 bytes   401 550 bytes   00:30:27.492   
7               0:31:20.879     0:05:32.332     32 791 kbps     45 262 kbps     00:33:05.750    37 727 kbps     00:33:03.848    35 382 kbps     00:32:58.576    136 767 bytes   480 853 bytes   00:36:29.086   
8               0:36:53.211     0:08:59.538     32 213 kbps     44 853 kbps     00:38:26.304    38 618 kbps     00:40:39.236    36 371 kbps     00:40:33.497    134 357 bytes   394 318 bytes   00:43:46.790   
9               0:45:52.750     0:04:24.464     33 221 kbps     44 213 kbps     00:49:30.100    37 010 kbps     00:47:31.481    35 791 kbps     00:46:29.786    138 559 bytes   361 187 bytes   00:46:51.875   
10              0:50:17.214     0:07:20.873     32 814 kbps     49 137 kbps     00:51:29.119    36 853 kbps     00:51:28.018    35 128 kbps     00:52:23.573    136 863 bytes   402 299 bytes   00:54:50.020   
11              0:57:38.087     0:24:18.456     31 644 kbps     42 250 kbps     01:06:09.632    34 524 kbps     00:58:16.926    34 019 kbps     00:58:17.994    131 981 bytes   411 593 bytes   01:15:14.476   
12              1:21:56.544     0:11:11.170     26 542 kbps     50 219 kbps     01:25:43.137    40 249 kbps     01:23:43.351    36 689 kbps     01:25:35.296    110 706 bytes   396 516 bytes   01:27:15.863   

STREAM DIAGNOSTICS:

File            PID             Type            Codec           Language                Seconds                 Bitrate                 Bytes           Packets         
----            ---             ----            -----           --------                --------------          --------------          -------------   -----           
00000.M2TS      4113 (0x1011)   0x1B            AVC                                     5556,951                31 656                  21 988 747 992  119 684 794     
00000.M2TS      4352 (0x1100)   0x80            LPCM            jpn (Japanese)          5556,951                6 918                   4 805 710 896   26 673 696     
00000.M2TS      4353 (0x1101)   0x80            LPCM            jpn (Japanese)          5556,951                2 310                   1 604 867 376   8 891 232       
00004.M2TS      4113 (0x1011)   0x1B            AVC                                     30,631                  3 764                   14 411 150      79 197         
00004.M2TS      4352 (0x1100)   0x80            LPCM            jpn (Japanese)          30,631                  6 934                   26 549 360      147 360         
00004.M2TS      4353 (0x1101)   0x80            LPCM            jpn (Japanese)          30,631                  2 316                   8 866 160       49 120         

Код:

                                                                                                                Total   Video                                             
Title                                                           Codec   Length  Movie Size      Disc Size       Bitrate Bitrate Main Audio Track                          Secondary Audio Track
-----                                                           ------  ------- --------------  --------------  ------- ------- ------------------                        ---------------------
00001.MPLS                                                      AVC     0:50:59 12 877 578 240  42 779 845 464  33,67   29,82   LPCM 2.0 2304Kbps (48kHz/24-bit)         

Код:



DISC INFO:

Disc Title:     K_ON2_LIVE_DISC2
Disc Size:      42 779 845 464 bytes
Protection:     AACS
BD-Java:        No
BDInfo:         0.5.6

PLAYLIST REPORT:

Name:                   00001.MPLS
Length:                 0:50:59 (h:m:s)
Size:                   12 877 578 240 bytes
Total Bitrate:          33,67 Mbps

VIDEO:

Codec                   Bitrate             Description     
-----                   -------             -----------     
MPEG-4 AVC Video        29819 kbps          1080i / 29,970 fps / 16:9 / High Profile 4.1

AUDIO:

Codec                           Language        Bitrate         Description     
-----                           --------        -------         -----------     
LPCM Audio                      Japanese        2304 kbps       2.0 / 48 kHz / 2304 kbps / 24-bit

FILES:

Name            Time In         Length          Size            Total Bitrate   
----            -------         ------          ----            -------------   
00001.M2TS      0:00:00.000     0:50:59.322     12 877 578 240  33 674         

CHAPTERS:

Number          Time In         Length          Avg Video Rate  Max 1-Sec Rate  Max 1-Sec Time  Max 5-Sec Rate  Max 5-Sec Time  Max 10Sec Rate  Max 10Sec Time  Avg Frame Size  Max Frame Size  Max Frame Time 
------          -------         ------          --------------  --------------  --------------  --------------  --------------  --------------  --------------  --------------  --------------  -------------- 
1               0:00:00.000     0:16:52.011     29 910 kbps     52 818 kbps     00:03:33.880    37 306 kbps     00:00:07.574    35 408 kbps     00:00:07.474    124 746 bytes   438 659 bytes   00:03:28.508   
2               0:16:52.011     0:03:56.235     28 309 kbps     37 584 kbps     00:18:08.320    33 926 kbps     00:17:27.379    32 825 kbps     00:17:42.761    118 071 bytes   273 092 bytes   00:19:09.414   
3               0:20:48.247     0:04:13.252     29 035 kbps     58 589 kbps     00:20:50.949    34 453 kbps     00:23:41.420    34 104 kbps     00:24:02.340    121 102 bytes   425 764 bytes   00:20:51.049   
4               0:25:01.500     0:11:46.706     29 566 kbps     50 585 kbps     00:31:22.347    36 715 kbps     00:33:56.701    35 293 kbps     00:25:09.241    123 316 bytes   324 974 bytes   00:25:12.477   
5               0:36:48.206     0:14:11.116     30 573 kbps     49 852 kbps     00:43:35.746    39 652 kbps     00:37:01.485    37 544 kbps     00:36:56.747    127 521 bytes   333 047 bytes   00:44:44.882   

STREAM DIAGNOSTICS:

File            PID             Type            Codec           Language                Seconds                 Bitrate                 Bytes           Packets         
----            ---             ----            -----           --------                --------------          --------------          -------------   -----           
00001.M2TS      4113 (0x1011)   0x1B            AVC                                     3059,256                29 820                  11 403 294 831  62 073 299     
00001.M2TS      4352 (0x1100)   0x80            LPCM            jpn (Japanese)          3059,256                2 310                   883 533 060     4 894 920       


info [Профиль]  [ЛС] 

ZerotakerZX

Стаж: 5 лет 5 месяцев

Сообщений: 718

Рейтинг

post 22-Авг-2011 03:11 (спустя 12 часов) [-]-6[+]

[Цитировать] 

о, ранетки!
info [Профиль]  [ЛС] 

Фауст24

Пол: Пол:Муж

Стаж: 6 лет 9 месяцев

Сообщений: 11

Россия
Рейтинг

post 22-Авг-2011 04:07 (спустя 55 минут) [-]3[+]

[Цитировать] 

ZerotakerZX писал(а):

о, ранетки!
Сгори еретик. anime_10
info [Профиль]  [ЛС] 

xaoc_matrix

Пол: Пол:Муж

Стаж: 7 лет 4 месяца

Сообщений: 2

Предупреждений: 1

Россия
Рейтинг

post 22-Авг-2011 06:52 (спустя 2 часа 44 минуты) [-]1[+]

[Цитировать] 

Фауст24 писал(а):

ZerotakerZX писал(а):

о, ранетки!
Сгори еретик. anime_10
anime_6
info [Профиль]  [ЛС] 

Rohi

Пол: Пол:Муж

Стаж: 5 лет 5 месяцев

Сообщений: 19

Россия
Рейтинг

post 15-Окт-2013 00:45 (спустя 2 года 1 месяц) [-]0[+]

[Цитировать] 

Ааа! Народ, хочу! Сидеры, подъем. Дайте хоть аналог чтоли. =(
info [Профиль]  [ЛС] 
Показать сообщения:    
Ответить на тему

Текущее время: 08-Дек 08:11

Часовой пояс: GMT + 4



Вы не можете начинать темы
Вы не можете отвечать на сообщения
Вы не можете редактировать свои сообщения
Вы не можете удалять свои сообщения
Вы не можете голосовать в опросах
Вы не можете прикреплять файлы к сообщениям
Вы не можете скачивать файлы