Ошибка

Мальчик в полосатой пижаме / The Boy in the Striped Pyjamas (Марк Херман) [2008 г., триллер, драма, военный, BD-Remux 1080р]

Ответить на тему
 
Автор Сообщение

Pahan

Пол: Пол:Муж

Стаж: 6 лет 2 месяца

Сообщений: 922

Предупреждений: 3

Россия
Рейтинг

post 20-Июл-2011 07:36 2[+]

[Цитировать] 

pic="http://i32.fastpic.ru/big/2012/0109/6d/b1a154743d66f2f3840716dc1bd6c46d.jpg"
Мальчик в полосатой пижаме / The Boy in the Striped Pyjamas


Год выпуска: 2008
Страна: США, Великобритания / Miramax
Жанр: триллер, драма, военный
Продолжительность: 01:34:29
Перевод: дублированный
Субтитры: русские, английские, украинские

Режиссер:
  • Марк Херман


В ролях:
  • Вера Фармига, Аса Баттерфилд, Дэвид Тьюлис, Джек Скэнлон, Шила Хэнкок, Ричард Джонсон, Руперт Френд, Эмбер Битти, Лазло Арон, Домонкос Немит


Описание:
История, происходящая во время Второй мировой войны и показанная сквозь глаза невинного и ничего не подозревающего о происходящих событиях Бруно, восьмилетнего сына коменданта концентрационного лагеря. Его случайное знакомство и дружба с еврейским мальчиком по другую сторону ограды лагеря, в конечном счете, приводит к самым непредсказуемым и ошеломительным последствиям.




Качество: BD-Remux 1080р
Формат: BDAV
Видео кодек: x264
Аудио кодек: DTS, AC3
Видео: 1920x1080 (16:9), 23.976 fps, ~19994 kbps
Аудио 1: 48.0 KHz, AC3, (6 ch) (L,C,R,l,r) + LFE, ~384.00 kbps |Дубляж|
Аудио 2: 48.0 KHz, AC3, (2 ch) (L,R), 192.00 kbps |Двухголосый закадровый|
Аудио 3: 48.0 KHz, AC3, (2 ch) (L,R), 192.00 kbps |Многоголосый закадровый|
Аудио 4: 48.0 KHz, DTS-HD MA 5.1, (6 ch) (L,C,R,l,r) + LFE, ~3438.00 kbps |оригинал| / AC3, (2 ch) (L,R), 192.00 kbps |комментарии|



General
ID : 1
Complete name : D:\The.Boy.In.The.Striped.Pyjamas.2008.1080p.BD-Remux.2xRus.Ukr.Eng\BDMV\STREAM\00000.m2ts
Format : BDAV
Format/Info : Blu-ray Video
File size : 17.2 GiB
Duration : 1h 34mn
Overall bit rate : 26.1 Mbps
Maximum Overall bit rate : 35.5 Mbps

Video
ID : 4113 (0x1011)
Menu ID : 1 (0x1)
Format : AVC
Format/Info : Advanced Video Codec
Format profile : High@L4.1
Format settings, CABAC : Yes
Format settings, ReFrames : 4 frames
Duration : 1h 34mn
Bit rate mode : Variable
Maximum bit rate : 37.0 Mbps
Width : 1 920 pixels
Height : 1 080 pixels
Display aspect ratio : 16:9
Frame rate : 23.976 fps
Color space : YUV
Chroma subsampling : 4:2:0
Bit depth : 8 bits
Scan type : Progressive

Audio #1
ID : 4352 (0x1100)
Menu ID : 1 (0x1)
Format : AC-3
Format/Info : Audio Coding 3
Mode extension : CM (complete main)
Duration : 1h 34mn
Bit rate mode : Constant
Bit rate : 384 Kbps
Channel(s) : 6 channels
Channel positions : Front: L C R, Side: L R, LFE
Sampling rate : 48.0 KHz
Stream size : 260 MiB (1%)
Language : Russian

Audio #2
ID : 4353 (0x1101)
Menu ID : 1 (0x1)
Format : AC-3
Format/Info : Audio Coding 3
Mode extension : CM (complete main)
Duration : 1h 34mn
Bit rate mode : Constant
Bit rate : 192 Kbps
Channel(s) : 2 channels
Channel positions : Front: L R
Sampling rate : 48.0 KHz
Stream size : 130 MiB (1%)
Language : Ukrainian

Audio #3
ID : 4354 (0x1102)
Menu ID : 1 (0x1)
Format : AC-3
Format/Info : Audio Coding 3
Mode extension : CM (complete main)
Duration : 1h 34mn
Bit rate mode : Constant
Bit rate : 192 Kbps
Channel(s) : 2 channels
Channel positions : Front: L R
Sampling rate : 48.0 KHz
Stream size : 130 MiB (1%)
Language : Russian

Audio #4
ID : 4355 (0x1103)
Menu ID : 1 (0x1)
Format : DTS
Format/Info : Digital Theater Systems
Format profile : MA
Muxing mode : Stream extension
Duration : 1h 34mn
Bit rate mode : Variable
Channel(s) : 6 channels
Channel positions : Front: L C R, Side: L R, LFE
Sampling rate : 48.0 KHz
Bit depth : 24 bits
Language : English

Audio #5
ID : 4356 (0x1104)
Menu ID : 1 (0x1)
Format : AC-3
Format/Info : Audio Coding 3
Mode extension : CM (complete main)
Duration : 1h 34mn
Bit rate mode : Constant
Bit rate : 192 Kbps
Channel(s) : 2 channels
Channel positions : Front: L R
Sampling rate : 48.0 KHz
Stream size : 130 MiB (1%)
Language : English

Text #1
ID : 4608 (0x1200)
Menu ID : 1 (0x1)
Format : PGS
Language : Russian

Text #2
ID : 4609 (0x1201)
Menu ID : 1 (0x1)
Format : PGS
Language : Ukrainian

Text #3
ID : 4610 (0x1202)
Menu ID : 1 (0x1)
Format : PGS
Language : English

Text #4
ID : 4611 (0x1203)
Menu ID : 1 (0x1)
Format : PGS
Language : English

Text #5
ID : 4612 (0x1204)
Menu ID : 1 (0x1)
Format : PGS
Video delay : 7s 49ms
Language : Russian

Text #6
ID : 4613 (0x1205)
Menu ID : 1 (0x1)
Format : PGS
Video delay : 7s 49ms
Language : Ukrainian

Text #7
ID : 4614 (0x1206)
Menu ID : 1 (0x1)
Format : PGS
Language : Russian

info [Профиль]  [ЛС] 

Pahan

Пол: Пол:Муж

Стаж: 6 лет 2 месяца

Сообщений: 922

Предупреждений: 3

Россия
Рейтинг

post 20-Июл-2011 07:40 (спустя 3 минуты) [-]0[+]

[Цитировать] 

Фильм обязателен к просмотру.
info [Профиль]  [ЛС] 

omg4aku

Пол: Пол:Муж

Стаж: 5 лет 4 месяца

Сообщений: 3

Рейтинг

post 20-Июл-2011 11:37 (спустя 3 часа) [-]0[+]

[Цитировать] 

а чё так много весит??
info [Профиль]  [ЛС] 

GT

Пол: Пол:Муж

Стаж: 5 лет 5 месяцев

Сообщений: 516

Россия
Рейтинг

post 20-Июл-2011 11:48 (спустя 11 минут) [-]0[+]

[Цитировать] 

omg4aku

Цитата:

Видео: 1920x1080 (16:9), 23.976 fps, ~19994 kbps

_________________
FX8150 4GHz, 16Gb DDR3, GTX560Ti, Arch x64 (Main)
Q83000 3GHz, 8Gb DDR2, 8800GT, Debian Jessie x64 + Win7 x64 (Oldschool)
Dual Core E5200, 2.5GHz, 2Gb DDR, GF7600GS, WinXP x32 (True oldschool)
info [Профиль]  [ЛС] 

arman1

Пол: Пол:Муж

Стаж: 7 лет 3 месяца

Сообщений: 42

Армения
Рейтинг

post 20-Июл-2011 17:59 (спустя 6 часов) [-]0[+]

[Цитировать] 

концовка жесткая в этом фильме.
info [Профиль]  [ЛС] 

L O S T

Пол: Пол:Муж

Стаж: 5 лет 5 месяцев

Сообщений: 128

Россия
Рейтинг

post 23-Июл-2011 20:18 (спустя 3 дня) [-]1[+]

[Цитировать] 

Фильм просто супер!!!!!
info [Профиль]  [ЛС] 

youssefgothic2

Стаж: 6 лет 11 месяцев

Сообщений: 46

Алжир
Рейтинг

post 14-Сен-2011 09:37 (спустя 1 месяц 21 день) [-]0[+]

[Цитировать] 

Очень признателен за этот фильм в ремуксе.
info [Профиль]  [ЛС] 

Vitaha94

Пол: Пол:Муж

Стаж: 6 лет 4 месяца

Сообщений: 66

Украина
Рейтинг

post 16-Окт-2011 21:35 (спустя 1 месяц 2 дня) [-]0[+]

[Цитировать] 

Скорости пожайлуста.
info [Профиль]  [ЛС] 

lord861

Пол: Пол:Муж

Стаж: 5 лет 5 месяцев

Сообщений: 107

Рейтинг

post 19-Янв-2012 03:34 (спустя 3 месяца 2 дня) [-]0[+]

[Цитировать] 

Спасибо за раздачу.
Постараюсь посидировать как можно дольше.
Ап.
info [Профиль]  [ЛС] 

XYLUGAH

Пол: Пол:Муж

Стаж: 4 года 7 месяцев

Сообщений: 2

Россия
Рейтинг

post 31-Мар-2013 13:04 (спустя 1 год 2 месяца) [-]0[+]

[Цитировать] 

А можно кого-нибудь на раздачу? Заранее спасибо.
info [Профиль]  [ЛС] 

kulyashik

Пол: Пол:Жен

Стаж: 3 года 6 месяцев

Сообщений: 6

Рейтинг

post 15-Окт-2013 23:17 (спустя 6 месяцев 15 дней) [-]0[+]

[Цитировать] 

Очень тяжелый фильм. На мой взгляд тяжелее "Пианиста"...
info [Профиль]  [ЛС] 
Показать сообщения:    
Ответить на тему

Текущее время: 11-Дек 00:33

Часовой пояс: GMT + 4



Вы не можете начинать темы
Вы не можете отвечать на сообщения
Вы не можете редактировать свои сообщения
Вы не можете удалять свои сообщения
Вы не можете голосовать в опросах
Вы не можете прикреплять файлы к сообщениям
Вы не можете скачивать файлы