Ошибка

Сказание о демонах сакуры / Hakuouki: Hekketsu-roku [ТВ-2][1-11 из 11][2010][приключения, история, мистика, драма][HDTVRip][720p][Любительский(JAP+SUB)]

Ответить на тему
 
Автор Сообщение

Sunny17

Пол: Пол:Жен

Стаж: 7 лет 3 месяца

Сообщений: 733

Россия
Рейтинг

post 02-Июл-2011 10:59 0[+]

[Цитировать] 

Сказание о демонах сакуры | Hakuouki: Hekketsu-roku | 薄桜鬼 碧血録 新選組奇譚


Выпуск: c 04.10.2010 по 06.12.2010
Страна:
Жанр: приключения, история, мистика, драма
Тип: ТВ (10 эп. + эп.-коллаж)
Продолжительность: 25 мин.

Режиссер: Ямасаки Осаму / Yamasaki Osamu / 山崎理 / ヤマサキオサム
Автор оригинала: Фудзисава Цунэкиё / Fujisawa Tsunekiyo / 藤澤経清
Студия:

Перевод:
  • Любительский (многоголосый, закадровый) [Mai & Flamen & Tensa1] [ext]
Субтитры:
  • Русские (внешние, ass) [Sora_P3_Heaven & sys3x] [00-10]
  • Русские (внешние, ass) [Dreamers Team & Fratelli] [01-10]

Описание: Продолжается Реставрация Мэйдзи, и сторонники бакуфу явно сдают позиции. Против многотысячных армий с европейским оружием бессильны самурайский дух и фехтовальное мастерство. Чтобы уравнять шансы, синсэнгуми прибегли к тайному эликсиру доктора Юкимуры под названием «отимидзу», который удесятеряет силы, но взамен быстро превращает человека в кровожадного берсерка. Увы, не помогло и чудесное снадобье, ибо на стороне императора сражаются воины, которым сверхчеловеческие способности даны от рождения. Потеряв многих командиров и простых солдат, «новое ополчение» бесславно возвращается в Эдо.

Тидзуру, узнав тайну своего происхождения, остается в отряде, ибо он стал ей новой семьей, лишь там есть люди, на которых можно опереться в смутные времена. Но не все так просто – кроме врагов явных и потому понятных, предатели завелись и среди павших духом «рыцарей сегуната», вожди синсэнгуми с горечью понимают, что их используют как разменную монету. В любом случае, хотя ход истории не остановить, каждый волен сделать выбор, и большинство героев, включая Тидзуру, решает драться до конца и умереть достойно. А еще зрительниц порадуют красавцы-капитаны, впервые примерившие европейскую одежду!
© Hollow, World Art

Качество: HDTVRip, 720p [Raws-4U]
Хардсаб: Отсутствует
Формат: MPEG-4
Видео: AVC, 1280х720 (16:9), 23.976 fps, ~2000 kbps
Аудио:
  • - MP3, 48,0 KHz, 2 channels (Front: L R), 128 kbps
  • - AAC, 48,0 KHz, 2 channels (Front: L R), 253 kbps

http://tapochek.net/viewtopic.php?t=56993 (HDTVRip, 720p) - лучшее качество видео, лучший звук (яп. дорожка), полный сезон (серии 1-10)
Сравнение
Общее
Полное имя : D:\АНИМЕ\Hakuouki Hekketsu-roku [Сказание о демонах сакуры_ТВ 2]\[Raws-4U] Hakuouki Hekketsu-roku - 06 (1280x720 H.264 AAC Chap).mp4
Формат : MPEG-4
Профиль формата : Base Media
Идентификатор кодека : isom
Размер файла : 419 Мбайт
Продолжительность : 23 м.
Общий поток : 2466 Кбит/сек
Дата кодирования : UTC 2010-11-18 16:21:10
Дата пометки : UTC 2010-11-18 16:21:10

Видео
Идентификатор : 1
Формат : AVC
Формат/Информация : Advanced Video Codec
Профиль формата : High@L4.1
Параметр CABAC формата : Да
Параметр ReFrames формата : 4 кадра
Идентификатор кодека : avc1
Идентификатор кодека/Информация : Advanced Video Coding
Продолжительность : 23 м.
Вид битрейта : Переменный
Битрейт : 2210 Кбит/сек
Максимальный битрейт : 9152 Кбит/сек
Ширина : 1280 пикс.
Высота : 720 пикс.
Соотношение сторон : 16:9
Режим частоты кадров : Переменный
Частота кадров : 24,467 кадр/сек
Частота кадров в оригинале : 29,970 кадр/сек
Минимальная частота кадров : 13,320 кадр/сек
Максимальная частота кадров : 119,880 кадр/сек
Цветовое пространство : YUV
Подвыборка цветности : 4:2:0
Битовая глубина : 8 бит
Тип развёртки : Прогрессивная
Бит/(Пиксели*Кадры) : 0.098
Размер потока : 375 Мбайт (90%)
Заголовок : MX
Библиотека кодирования : x264 core 94 r1564+7_DANGEROUS
Настройки программы : cabac=1 / ref=4 / deblock=1:-1:-1 / analyse=0x3:0x113 / me=umh / subme=9 / psy=1 / fade_compensate=0.00 / psy_rd=0.30:0.00 / mixed_ref=1 / me_range=32 / chroma_me=1 / trellis=0 / 8x8dct=1 / cqm=0 / deadzone=21,11 / fast_pskip=0 / chroma_qp_offset=-2 / threads=12 / sliced_threads=0 / nr=0 / decimate=0 / interlaced=0 / constrained_intra=0 / fgo=0 / bframes=3 / b_pyramid=0 / b_adapt=2 / b_bias=0 / direct=3 / wpredb=1 / wpredp=2 / keyint=300 / keyint_min=1 / scenecut=70 / intra_refresh=0 / rc=crf / mbtree=0 / crf=20.0 / qcomp=0.70 / qpmin=10 / qpmax=32 / qpstep=16 / ip_ratio=1.40 / pb_ratio=1.30 / aq=1 / aq-metric=0 / aq-strength=0.30 / aq-sensitivity=10.00 / aq-ifactor=1.00 / aq-pfactor=1.00 / aq-bfactor=1.00 / aq2=1 / aq2-strength=0.40 / aq2-sensitivity=10.00
Язык : Japanese
Дата кодирования : UTC 2010-11-18 16:20:47
Дата пометки : UTC 2010-11-18 16:21:12
Основные цвета : BT.709-5, BT.1361, IEC 61966-2-4, SMPTE RP177
Характеристики трансфера : BT.709-5, BT.1361
Коэффициенты матрицы : BT.709-5, BT.1361, IEC 61966-2-4 709, SMPTE RP177

Аудио
Идентификатор : 2
Формат : AAC
Формат/Информация : Advanced Audio Codec
Профиль формата : LC
Идентификатор кодека : 40
Продолжительность : 23 м.
Вид битрейта : Переменный
Битрейт : 253 Кбит/сек
Максимальный битрейт : 262 Кбит/сек
Каналы : 2 канала
Расположение каналов : Front: L R
Частота : 48,0 КГц
Метод сжатия : С потерями
Размер потока : 42,9 Мбайт (10%)
Заголовок : tvk+SUN
Язык : Japanese
Дата кодирования : UTC 2010-11-18 16:21:11
Дата пометки : UTC 2010-11-18 16:21:12

Меню
00:00:00.000 : avant-title
00:00:32.967 : OP
00:02:17.972 : A part
00:11:58.953 : B part
00:21:44.905 : ED
00:23:14.928 : preview

Общее
Уникальный идентификатор : 209747954219009986428672500471635955968 (0x9DCBFC9089111606A620F9BA9B94D100)
Полное имя : D:\АНИМЕ\Hakuouki Hekketsu-roku [Сказание о демонах сакуры_ТВ 2]\RUS dub [SakuraNight]\[Raws-4U] Hakuouki Hekketsu-roku - 07 (1280x720 H.264 AAC Chap).mka
Формат : Matroska
Размер файла : 21,9 Мбайт
Продолжительность : 23 м.
Общий поток : 129 Кбит/сек
Дата кодирования : UTC 2010-12-23 18:25:45
Программа кодирования : mkvmerge v2.9.7 ('Tenderness') built on Jul 1 2009 18:43:35
Библиотека кодирования : libebml v0.7.7 + libmatroska v0.8.1

Аудио
Идентификатор : 1
Формат : MPEG Audio
Версия формата : Version 1
Профиль формата : Layer 3
Режим : Joint stereo
Расширение режима : MS Stereo
Идентификатор кодека : A_MPEG/L3

Сказание о демонах сакуры / Hakuouki: Shinsengumi Kitan [ТВ-1][HDTVRip][720p]
Сказание о демонах сакуры / Hakuouki Sekkaroku [OVA][DVDRip]
Сказание о демонах сакуры / Hakuouki: Shinsengumi Kitan [Special][DVDRip]
(OST) Сказание о демонах сакуры / Hakuouki: Soundtrack Collection (15 CD)
info [Профиль]  [ЛС] 
Показать сообщения:    
Ответить на тему

Текущее время: 08-Дек 06:12

Часовой пояс: GMT + 4



Вы не можете начинать темы
Вы не можете отвечать на сообщения
Вы не можете редактировать свои сообщения
Вы не можете удалять свои сообщения
Вы не можете голосовать в опросах
Вы не можете прикреплять файлы к сообщениям
Вы не можете скачивать файлы