Ошибка

За облаками / Beyond the Clouds: The Place Promised in Our Early Days [Movie][2004][фантастика, романтика, драма][Blu-Ray Disc][1080p][Дублированный(JAP+SUB)]

Ответить на тему
 
Автор Сообщение

ANtreides

Пол: Пол:Муж

Стаж: 7 лет 4 месяца

Сообщений: 1014

Рейтинг

post 30-Янв-2011 19:21 0[+]

[Цитировать] 

За облаками
Beyond the Clouds, The Promised Place | Kumo no Mukou, Yakusoku no Basho | 雲のむこう、約束の場所

Премьера: 20.11.2004
Страна: Япония
Жанр: фантастика, романтика, драма
Тип: полнометражный фильм
Продолжительность: 1:30:20
Перевод:
  • Озвучено:
    • Полное профессиональное дублирование - XL Media
  • Субтитры:
    • Профессиональный перевод - XL Media (полные и только надписи)

Источник: Lizing Home Studio и
Режиссер: Синкай Макото
Средний балл: 8.8 из 10 (World Art)
Студия:
Описание:
Согласно альтернативному варианту развития истории, после поражения во второй мировой войне Япония оказалась разделённой между союзниками - северный остров Хоккайдо аннексировал Советский Союз, а Хонсю и другими южными островами овладели американцы. Летом 1996 года Советы начали сооружать в своей зоне оккупации загадочное сооружение - башню столь исполинских размеров, что трое товарищей-старшеклассников с американского Хонсю, гуляющих вместе в пору школьных каникул, могли отчётливо видеть её контуры, возносящиеся в заоблочную высь. Друзья дали друг другу зарок, что однажды они построют аэроплан и раскроют секрет гигантской башни, но все планы рухнули, когда красавица Саюри Саватари, предмет тайных воздыханий двух её друзей, начала испытывать симптомы странной сонной болезни, и её отправили на лечение в Токио, а после окончания средней школы пути ребят разошлись. Спустя три года повзрослевший Хироки Фудзисава случайно узнаёт, что Саюри с тех пор пребывает в коме, и обращается за помощью к своему прежнему закадычному другу Такуя Сиракава, чтобы привести девушку в себя. Он ещё не знает, что бессознательное состояние Саюри напрямую связано с таинственной северной башней...
© Алексей Фадеев, World Art

Качество: Blu-Ray | Хардсаб: Отсутствует | Формат: BDMV
Видео: MPEG-4 AVC Video / High Profile 4.1 / ~25 MBps / 1920x1080 / 16:9 / 23,976 fps
Аудио:
1. Русский - AC3 5.1 48 kHz 448 kbps
2. Японский - LPCM 5.1 48 kHz 4608 kbps 16-bit
Диск пересобран из оригинального Blu-ray диска. Используемые программы: BD Reauthor от DVDLogic Software (http://www.dvd-logic.com) и Sonic Scenarist BD. Меню на русском языке.

Код:

                                                                                                                Total   Video                                             
Title                                                           Codec   Length  Movie Size      Disc Size       Bitrate Bitrate Main Audio Track                          Secondary Audio Track
-----                                                           ------  ------- --------------  --------------  ------- ------- ------------------                        ---------------------
00000.MPLS                                                      AVC     1:30:20 21 435 457 536  22 725 534 272  31,64   25,05   LPCM 5.1 4608Kbps (48kHz/16-bit)         


Код:



DISC INFO:

Disc Title:     Beyond the Clouds
Disc Size:      22 725 534 272 bytes
Protection:     AACS
BD-Java:        No
BDInfo:         0.5.6

PLAYLIST REPORT:

Name:                   00000.MPLS
Length:                 1:30:20 (h:m:s)
Size:                   21 435 457 536 bytes
Total Bitrate:          31,64 Mbps

VIDEO:

Codec                   Bitrate             Description     
-----                   -------             -----------     
MPEG-4 AVC Video        25047 kbps          1080p / 23,976 fps / 16:9 / High Profile 4.1

AUDIO:

Codec                           Language        Bitrate         Description     
-----                           --------        -------         -----------     
LPCM Audio                      Japanese        4608 kbps       5.1 / 48 kHz / 4608 kbps / 16-bit
Dolby Digital Audio             Russian         448 kbps        5.1 / 48 kHz / 448 kbps / DN -4dB

SUBTITLES:

Codec                           Language        Bitrate         Description     
-----                           --------        -------         -----------     
Presentation Graphics           Russian         28,222 kbps                     
Presentation Graphics           Russian         0,774 kbps                     

FILES:

Name            Time In         Length          Size            Total Bitrate   
----            -------         ------          ----            -------------   
00000.M2TS      0:00:00.000     1:30:20.415     21 435 457 536  31 637         

CHAPTERS:

Number          Time In         Length          Avg Video Rate  Max 1-Sec Rate  Max 1-Sec Time  Max 5-Sec Rate  Max 5-Sec Time  Max 10Sec Rate  Max 10Sec Time  Avg Frame Size  Max Frame Size  Max Frame Time 
------          -------         ------          --------------  --------------  --------------  --------------  --------------  --------------  --------------  --------------  --------------  -------------- 
1               0:00:00.000     0:01:42.936     23 235 kbps     40 364 kbps     00:00:17.892    38 001 kbps     00:00:14.097    36 050 kbps     00:00:12.721    121 086 bytes   848 759 bytes   00:00:57.474   
2               0:01:42.936     0:09:15.346     26 622 kbps     40 968 kbps     00:09:56.053    39 594 kbps     00:03:24.871    39 029 kbps     00:07:43.963    138 794 bytes   721 374 bytes   00:09:21.060   
3               0:10:58.282     0:03:05.560     24 308 kbps     44 341 kbps     00:10:59.742    39 818 kbps     00:12:15.401    38 216 kbps     00:12:24.910    126 732 bytes   618 619 bytes   00:12:07.601   
4               0:14:03.843     0:04:40.905     26 114 kbps     43 731 kbps     00:15:30.095    40 171 kbps     00:15:12.620    39 184 kbps     00:15:31.472    136 148 bytes   679 198 bytes   00:15:17.583   
5               0:18:44.748     0:02:58.178     25 046 kbps     41 361 kbps     00:21:18.151    39 464 kbps     00:18:50.629    34 542 kbps     00:18:47.584    130 577 bytes   621 232 bytes   00:20:47.829   
6               0:21:42.926     0:05:13.313     26 049 kbps     41 291 kbps     00:23:42.212    39 822 kbps     00:23:38.417    39 536 kbps     00:23:21.650    135 808 bytes   570 898 bytes   00:22:33.018   
7               0:26:56.239     0:05:48.556     24 700 kbps     42 062 kbps     00:28:23.159    39 662 kbps     00:27:05.040    39 362 kbps     00:27:00.994    128 773 bytes   603 102 bytes   00:28:34.587   
8               0:32:44.796     0:03:22.201     23 599 kbps     43 351 kbps     00:34:16.804    40 316 kbps     00:34:12.884    39 803 kbps     00:34:07.879    123 036 bytes   567 825 bytes   00:34:59.806   
9               0:36:06.998     0:06:08.534     26 049 kbps     42 482 kbps     00:38:48.617    39 769 kbps     00:38:21.549    39 623 kbps     00:37:56.399    135 809 bytes   857 759 bytes   00:39:09.513   
10              0:42:15.533     0:05:51.559     21 284 kbps     48 029 kbps     00:45:23.721    41 228 kbps     00:45:19.717    37 689 kbps     00:44:16.028    110 963 bytes   598 012 bytes   00:46:38.962   
11              0:48:07.092     0:02:20.932     25 414 kbps     44 826 kbps     00:50:10.173    39 673 kbps     00:49:25.629    35 427 kbps     00:49:25.587    132 499 bytes   417 655 bytes   00:49:30.634   
12              0:50:28.025     0:07:15.643     26 522 kbps     41 230 kbps     00:55:13.810    39 873 kbps     00:56:12.452    39 723 kbps     00:56:07.447    138 271 bytes   558 689 bytes   00:55:17.188   
13              0:57:43.668     0:05:07.306     24 443 kbps     41 421 kbps     01:01:26.057    39 712 kbps     01:00:40.553    39 640 kbps     01:00:41.763    127 433 bytes   540 313 bytes   01:01:23.304   
14              1:02:50.975     0:04:44.075     21 030 kbps     37 436 kbps     01:04:32.869    30 832 kbps     01:02:52.685    30 382 kbps     01:02:51.893    109 638 bytes   474 046 bytes   01:07:30.796   
15              1:07:35.051     0:07:09.637     21 801 kbps     46 928 kbps     01:11:52.850    39 737 kbps     01:11:14.728    39 341 kbps     01:11:09.598    113 663 bytes   617 592 bytes   01:11:54.351   
16              1:14:44.688     0:04:45.535     25 039 kbps     43 863 kbps     01:18:21.279    39 650 kbps     01:18:00.008    38 614 kbps     01:17:55.545    130 542 bytes   520 035 bytes   01:18:22.239   
17              1:19:30.223     0:05:54.729     37 002 kbps     42 951 kbps     01:24:13.423    39 876 kbps     01:21:13.118    39 703 kbps     01:20:59.521    192 913 bytes   489 176 bytes   01:24:06.875   
18              1:25:24.953     0:04:53.459     18 359 kbps     42 147 kbps     01:26:02.574    40 083 kbps     01:25:58.570    39 664 kbps     01:26:07.745    95 717 bytes    532 812 bytes   01:26:03.491   
19              1:30:18.412     0:00:02.002     2 026 kbps      2 069 kbps      01:30:19.372    0 kbps          00:00:00.000    0 kbps          00:00:00.000    10 787 bytes    10 860 bytes    01:30:19.414   

STREAM DIAGNOSTICS:

File            PID             Type            Codec           Language                Seconds                 Bitrate                 Bytes           Packets         
----            ---             ----            -----           --------                --------------          --------------          -------------   -----           
00000.M2TS      4113 (0x1011)   0x1B            AVC                                     5420,248                25 048                  16 970 610 152  92 307 837     
00000.M2TS      4352 (0x1100)   0x81            AC3             rus (Russian)           5420,248                448                     303 541 504     1 693 870       
00000.M2TS      4353 (0x1101)   0x80            LPCM            jpn (Japanese)          5420,248                4 615                   3 126 495 372   17 345 328     
00000.M2TS      4608 (0x1200)   0x90            PGS             rus (Russian)           5420,248                28                      19 121 544      111 387         
00000.M2TS      4609 (0x1201)   0x90            PGS             rus (Russian)           5420,248                1                       524 615         2 987           



Код:

                                                                                                                Total   Video                                             
Title                                                           Codec   Length  Movie Size      Disc Size       Bitrate Bitrate Main Audio Track                          Secondary Audio Track
-----                                                           ------  ------- --------------  --------------  ------- ------- ------------------                        ---------------------
00003.MPLS                                                      AVC     0:06:00 728 137 728     22 725 534 272  16,17   8,96    LPCM 5.1 4608Kbps (48kHz/16-bit)         


Код:



DISC INFO:

Disc Title:     Beyond the Clouds
Disc Size:      22 725 534 272 bytes
Protection:     AACS
BD-Java:        No
BDInfo:         0.5.6

PLAYLIST REPORT:

Name:                   00003.MPLS
Length:                 0:06:00 (h:m:s)
Size:                   728 137 728 bytes
Total Bitrate:          16,17 Mbps

VIDEO:

Codec                   Bitrate             Description     
-----                   -------             -----------     
MPEG-4 AVC Video        8955 kbps           1080p / 23,976 fps / 16:9 / High Profile 4.1

AUDIO:

Codec                           Language        Bitrate         Description     
-----                           --------        -------         -----------     
LPCM Audio                      Japanese        4608 kbps       5.1 / 48 kHz / 4608 kbps / 16-bit
LPCM Audio                      Russian         1536 kbps       2.0 / 48 kHz / 1536 kbps / 16-bit

SUBTITLES:

Codec                           Language        Bitrate         Description     
-----                           --------        -------         -----------     
Presentation Graphics           Russian         0,032 kbps                     

FILES:

Name            Time In         Length          Size            Total Bitrate   
----            -------         ------          ----            -------------   
00002.M2TS      0:00:00.000     0:06:00.151     728 137 728     16 174         

CHAPTERS:

Number          Time In         Length          Avg Video Rate  Max 1-Sec Rate  Max 1-Sec Time  Max 5-Sec Rate  Max 5-Sec Time  Max 10Sec Rate  Max 10Sec Time  Avg Frame Size  Max Frame Size  Max Frame Time 
------          -------         ------          --------------  --------------  --------------  --------------  --------------  --------------  --------------  --------------  --------------  -------------- 
1               0:00:00.000     0:06:00.151     8 955 kbps      14 761 kbps     00:05:58.316    10 108 kbps     00:05:54.312    9 526 kbps      00:05:49.307    46 689 bytes    729 620 bytes   00:00:01.000   

STREAM DIAGNOSTICS:

File            PID             Type            Codec           Language                Seconds                 Bitrate                 Bytes           Packets         
----            ---             ----            -----           --------                --------------          --------------          -------------   -----           
00002.M2TS      4113 (0x1011)   0x1B            AVC                                     359,985                 8 959                   403 157 581     2 195 619       
00002.M2TS      4352 (0x1100)   0x80            LPCM            rus (Russian)           359,985                 1 543                   69 436 920      432 180         
00002.M2TS      4353 (0x1101)   0x80            LPCM            jpn (Japanese)          359,985                 4 617                   207 734 520     1 152 480       
00002.M2TS      4608 (0x1200)   0x90            PGS             rus (Russian)           359,985                 0                       1 447           15             



Код:

                                                                                                                Total   Video                                             
Title                                                           Codec   Length  Movie Size      Disc Size       Bitrate Bitrate Main Audio Track                          Secondary Audio Track
-----                                                           ------  ------- --------------  --------------  ------- ------- ------------------                        ---------------------
00001.MPLS                                                      AVC     0:02:19 537 182 208     22 725 534 272  30,78   25,89   LPCM 2.0 1536Kbps (48kHz/16-bit)         


Код:



DISC INFO:

Disc Title:     Beyond the Clouds
Disc Size:      22 725 534 272 bytes
Protection:     AACS
BD-Java:        No
BDInfo:         0.5.6

PLAYLIST REPORT:

Name:                   00001.MPLS
Length:                 0:02:19 (h:m:s)
Size:                   537 182 208 bytes
Total Bitrate:          30,78 Mbps

VIDEO:

Codec                   Bitrate             Description     
-----                   -------             -----------     
MPEG-4 AVC Video        25890 kbps          1080p / 23,976 fps / 16:9 / High Profile 4.1

AUDIO:

Codec                           Language        Bitrate         Description     
-----                           --------        -------         -----------     
LPCM Audio                      Japanese        1536 kbps       2.0 / 48 kHz / 1536 kbps / 16-bit
LPCM Audio                      Russian         1536 kbps       2.0 / 48 kHz / 1536 kbps / 16-bit

SUBTITLES:

Codec                           Language        Bitrate         Description     
-----                           --------        -------         -----------     
Presentation Graphics           Russian         0,083 kbps                     

FILES:

Name            Time In         Length          Size            Total Bitrate   
----            -------         ------          ----            -------------   
00001.M2TS      0:00:00.000     0:02:19.639     537 182 208     30 775         

CHAPTERS:

Number          Time In         Length          Avg Video Rate  Max 1-Sec Rate  Max 1-Sec Time  Max 5-Sec Rate  Max 5-Sec Time  Max 10Sec Rate  Max 10Sec Time  Avg Frame Size  Max Frame Size  Max Frame Time 
------          -------         ------          --------------  --------------  --------------  --------------  --------------  --------------  --------------  --------------  --------------  -------------- 
1               0:00:00.000     0:02:19.639     25 890 kbps     42 928 kbps     00:00:40.832    39 513 kbps     00:01:15.283    37 382 kbps     00:00:37.579    134 979 bytes   754 278 bytes   00:00:54.888   

STREAM DIAGNOSTICS:

File            PID             Type            Codec           Language                Seconds                 Bitrate                 Bytes           Packets         
----            ---             ----            -----           --------                --------------          --------------          -------------   -----           
00001.M2TS      4113 (0x1011)   0x1B            AVC                                     139,473                 25 921                  451 910 818     2 457 966       
00001.M2TS      4352 (0x1100)   0x80            LPCM            rus (Russian)           139,473                 1 544                   26 922 592      167 568         
00001.M2TS      4353 (0x1101)   0x80            LPCM            jpn (Japanese)          139,473                 1 544                   26 922 592      167 568         
00001.M2TS      4608 (0x1200)   0x90            PGS             rus (Russian)           139,473                 0                       1 447           15             



Код:

                                                                                                                Total   Video                                             
Title                                                           Codec   Length  Movie Size      Disc Size       Bitrate Bitrate Main Audio Track                          Secondary Audio Track
-----                                                           ------  ------- --------------  --------------  ------- ------- ------------------                        ---------------------
00002.MPLS                                                      AVC     0:00:29 19 955 712      22 725 534 272  5,50    3,44    LPCM 2.0 1536Kbps (48kHz/16-bit)         


Код:



DISC INFO:

Disc Title:     Beyond the Clouds
Disc Size:      22 725 534 272 bytes
Protection:     AACS
BD-Java:        No
BDInfo:         0.5.6

PLAYLIST REPORT:

Name:                   00002.MPLS
Length:                 0:00:29 (h:m:s)
Size:                   19 955 712 bytes
Total Bitrate:          5,50 Mbps

VIDEO:

Codec                   Bitrate             Description     
-----                   -------             -----------     
MPEG-4 AVC Video        3437 kbps           1080p / 23,976 fps / 16:9 / High Profile 4.1

AUDIO:

Codec                           Language        Bitrate         Description     
-----                           --------        -------         -----------     
LPCM Audio                      Russian         1536 kbps       2.0 / 48 kHz / 1536 kbps / 16-bit

FILES:

Name            Time In         Length          Size            Total Bitrate   
----            -------         ------          ----            -------------   
00003.M2TS      0:00:00.000     0:00:29.028     19 955 712      5 500           

CHAPTERS:

Number          Time In         Length          Avg Video Rate  Max 1-Sec Rate  Max 1-Sec Time  Max 5-Sec Rate  Max 5-Sec Time  Max 10Sec Rate  Max 10Sec Time  Avg Frame Size  Max Frame Size  Max Frame Time 
------          -------         ------          --------------  --------------  --------------  --------------  --------------  --------------  --------------  --------------  --------------  -------------- 
1               0:00:00.000     0:00:29.028     3 437 kbps      13 373 kbps     00:00:01.000    5 896 kbps      00:00:07.966    5 289 kbps      00:00:00.959    17 918 bytes    324 296 bytes   00:00:02.001   

STREAM DIAGNOSTICS:

File            PID             Type            Codec           Language                Seconds                 Bitrate                 Bytes           Packets         
----            ---             ----            -----           --------                --------------          --------------          -------------   -----           
00003.M2TS      4113 (0x1011)   0x1B            AVC                                     28,862                  3 457                   12 470 787      68 117         
00003.M2TS      4352 (0x1100)   0x80            LPCM            rus (Russian)           28,862                  1 551                   5 596 984       34 836         

info [Профиль]  [ЛС] 

ManDrake

Пол: Пол:Муж

Стаж: 6 лет 9 месяцев

Сообщений: 139

Россия
Рейтинг

post 30-Янв-2011 22:08 (спустя 2 часа 47 минут) [-]0[+]

[Цитировать] 

Шикарное творение! Помнится, после просмотра запустил файл заново, и разобрал мульт по скриншотам))) Есть супер красивые сцены!

_________________
"Выживает не тот,Кто умеет жить "на пять",
А тот,Кто просто не умеет умирать..."

info [Профиль]  [ЛС] 

Dimidrollko

Пол: Пол:Муж

Стаж: 6 лет 8 месяцев

Сообщений: 891

Украина
Рейтинг

post 31-Янв-2011 04:59 (спустя 6 часов) [-]0[+]

[Цитировать] 

красивая анимка... =) но концовка как по мне слишком странная О_О но всяко быват.... я ее так и не понял, скажем так...
info [Профиль]  [ЛС] 

Takoyaki

Пол: Пол:Муж

Стаж: 6 лет 3 месяца

Сообщений: 6

Россия
Рейтинг

post 31-Янв-2011 16:10 (спустя 11 часов) [-]0[+]

[Цитировать] 

наконец то! докачал! щас запалим.
info [Профиль]  [ЛС] 
Показать сообщения:    
Ответить на тему

Текущее время: 06-Дек 20:07

Часовой пояс: GMT + 4



Вы не можете начинать темы
Вы не можете отвечать на сообщения
Вы не можете редактировать свои сообщения
Вы не можете удалять свои сообщения
Вы не можете голосовать в опросах
Вы не можете прикреплять файлы к сообщениям
Вы не можете скачивать файлы