Ошибка

Гадкий Я: Мини-фильмы (Преображение дома, Ознакомительный день, Банан) / Despicable Me: Mini-Movies (Home makeover, Orientation Day, Banana) (Пьер Коффен / Pierre Coffi, Крис Рено / Chris Renaud) [2010, мульт., BDRemux] DVO + Original (eng) + Subs

Ответить на тему
 
Автор Сообщение

Flylife

Пол: Пол:Муж

Стаж: 6 лет

Сообщений: 226

Россия
Рейтинг

post 27-Янв-2011 12:32 0[+]

[Цитировать] 

Гадкий Я: Мини-фильмы / Despicable Me: Mini-Movies


Год выпуска: 2010
Страна: США
Жанр: Короткометражная анимация
Продолжительность: 3 x ~ 00:04:00
Перевод: профессиональный двухголосый (Кубик в кубе)
Субтитры:русские

Режиссер: Пьер Коффин, Крис Рено / Pierre Coffin, Chris Reno
Описание: Жёлтые коротышки, служат армией и помощниками для Грю. Хотя и понимают человеческую речь, говорить по-человечески не умеют, но могут произносить отдельные слова, но чаще они общаются на своём языке между собой. Глуповатые, но очень полезные. Интересно, что у некоторых миньонов только один глаз. Замечательное дополнение к известному мультфильму "Гадкий я"
Список серий:
1. Банан / Banana
2. Преображение дома / Home Makeover
3. Ознакомительный день / Orientation Day
Качество: BDRemux
Формат:MKV
Видео кодек: AVC
Аудио кодек: DTS
Видео: 1280x720, 23.976 fps, ~4000 kbps avg, 0.185 bit/pixel
Аудио1: 48.00 kHz, 6ch, ~768 kbps avg Оригинал (ENG)
Аудио2: 48.00 kHz, 6ch, ~768 kbps avg Профессиональный двухголосый (Кубик в кубе)
Субтитры:русские, английские, французские, испанские
General
Unique ID : 195123463034474209049058986727459128316 (0x92CB697ADE246DAC8E0F10C62D6E03FC)
Complete name : J:\загрузки\Miniony\Banana.mkv
Format : Matroska
File size : 390 MiB
Duration : 3mn 45s
Overall bit rate : 14.5 Mbps
Encoded date : UTC 2011-01-20 20:50:22
Writing application : mkvmerge v4.4.0 ('Die Wiederkehr') сборка от Oct 31 2010 21:52:48
Writing library : libebml v1.0.0 + libmatroska v1.0.0

Video
ID : 1
Format : AVC
Format/Info : Advanced Video Codec
Format profile : High@L4.1
Format settings, CABAC : Yes
Format settings, ReFrames : 4 frames
Format settings, GOP : M=3, N=26
Muxing mode : Container profile=Unknown@0.0
Codec ID : V_MPEG4/ISO/AVC
Duration : 3mn 45s
Bit rate mode : Variable
Bit rate : 13.5 Mbps
Maximum bit rate : 35.0 Mbps
Width : 1 920 pixels
Height : 1 080 pixels
Display aspect ratio : 16:9
Frame rate : 23.976 fps
Color space : YUV
Chroma subsampling : 4:2:0
Bit depth : 8 bits
Scan type : Progressive
Bits/(Pixel*Frame) : 0.271
Stream size : 361 MiB (93%)
Title : Banana
Language : English
Color primaries : BT.709-5, BT.1361, IEC 61966-2-4, SMPTE RP177
Transfer characteristics : BT.709-5, BT.1361
Matrix coefficients : BT.709-5, BT.1361, IEC 61966-2-4 709, SMPTE RP177

Audio
ID : 2
Format : DTS
Format/Info : Digital Theater Systems
Codec ID : A_DTS
Duration : 3mn 45s
Bit rate mode : Constant
Bit rate : 755 Kbps
Channel(s) : 6 channels
Channel positions : Front: L C R, Side: L R, LFE
Sampling rate : 48.0 KHz
Bit depth : 24 bits
Compression mode : Lossy
Delay relative to video : 11ms
Stream size : 20.3 MiB (5%)
Title : DTS 5.1ch 755 kbps
Language : English

Text #1
ID : 3
Format : UTF-8
Codec ID : S_TEXT/UTF8
Codec ID/Info : UTF-8 Plain Text
Language : Russian

Text #2
ID : 4
Format : UTF-8
Codec ID : S_TEXT/UTF8
Codec ID/Info : UTF-8 Plain Text
Language : English

Text #3
ID : 5
Format : UTF-8
Codec ID : S_TEXT/UTF8
Codec ID/Info : UTF-8 Plain Text
Language : French

Text #4
ID : 6
Format : UTF-8
Codec ID : S_TEXT/UTF8
Codec ID/Info : UTF-8 Plain Text
Language : Spanish
General
Unique ID : 233740290081096746623720636623054282128 (0xAFD8BE0D1EB3FC539B4B17362BE59D90)
Complete name : J:\загрузки\Miniony\Orientation Day.mkv
Format : Matroska
File size : 439 MiB
Duration : 4mn 0s
Overall bit rate : 15.3 Mbps
Encoded date : UTC 2011-01-20 21:01:59
Writing application : mkvmerge v4.4.0 ('Die Wiederkehr') сборка от Oct 31 2010 21:52:48
Writing library : libebml v1.0.0 + libmatroska v1.0.0

Video
ID : 1
Format : AVC
Format/Info : Advanced Video Codec
Format profile : High@L4.1
Format settings, CABAC : Yes
Format settings, ReFrames : 4 frames
Muxing mode : Container profile=Unknown@0.0
Codec ID : V_MPEG4/ISO/AVC
Duration : 4mn 0s
Bit rate mode : Variable
Bit rate : 13.5 Mbps
Maximum bit rate : 35.0 Mbps
Width : 1 920 pixels
Height : 1 080 pixels
Display aspect ratio : 16:9
Frame rate : 23.976 fps
Color space : YUV
Chroma subsampling : 4:2:0
Bit depth : 8 bits
Scan type : Progressive
Bits/(Pixel*Frame) : 0.272
Stream size : 387 MiB (88%)
Title : Orientation Day
Language : English
Color primaries : BT.709-5, BT.1361, IEC 61966-2-4, SMPTE RP177
Transfer characteristics : BT.709-5, BT.1361
Matrix coefficients : BT.709-5, BT.1361, IEC 61966-2-4 709, SMPTE RP177

Audio #1
ID : 2
Format : DTS
Format/Info : Digital Theater Systems
Codec ID : A_DTS
Duration : 4mn 0s
Bit rate mode : Constant
Bit rate : 755 Kbps
Channel(s) : 6 channels
Channel positions : Front: L C R, Side: L R, LFE
Sampling rate : 48.0 KHz
Bit depth : 24 bits
Compression mode : Lossy
Stream size : 21.6 MiB (5%)
Title : DTS 5.1ch 755 kbps - Двухголосый, «Кубик в кубе»
Language : Russian

Audio #2
ID : 3
Format : DTS
Format/Info : Digital Theater Systems
Codec ID : A_DTS
Duration : 4mn 0s
Bit rate mode : Constant
Bit rate : 755 Kbps
Channel(s) : 6 channels
Channel positions : Front: L C R, Side: L R, LFE
Sampling rate : 48.0 KHz
Bit depth : 24 bits
Compression mode : Lossy
Delay relative to video : 11ms
Stream size : 21.6 MiB (5%)
Title : DTS 5.1ch 755 kbps
Language : English

Text #1
ID : 4
Format : UTF-8
Codec ID : S_TEXT/UTF8
Codec ID/Info : UTF-8 Plain Text
Title : full (voronine)
Language : Russian

Text #2
ID : 5
Format : UTF-8
Codec ID : S_TEXT/UTF8
Codec ID/Info : UTF-8 Plain Text
Title : forced (voronine)
Language : Russian

Text #3
ID : 6
Format : UTF-8
Codec ID : S_TEXT/UTF8
Codec ID/Info : UTF-8 Plain Text
Title : full (Blu-ray)
Language : Russian

Text #4
ID : 7
Format : UTF-8
Codec ID : S_TEXT/UTF8
Codec ID/Info : UTF-8 Plain Text
Language : English

Text #5
ID : 8
Format : UTF-8
Codec ID : S_TEXT/UTF8
Codec ID/Info : UTF-8 Plain Text
Language : French

Text #6
ID : 9
Format : UTF-8
Codec ID : S_TEXT/UTF8
Codec ID/Info : UTF-8 Plain Text
Language : Spanish
General
Unique ID : 183972418361981394153824779276750720055 (0x8A67CC87C175A55ABFC1CFAB2AD88C37)
Complete name : J:\загрузки\Miniony\Home Makeover.mkv
Format : Matroska
File size : 478 MiB
Duration : 4mn 22s
Overall bit rate : 15.3 Mbps
Encoded date : UTC 2011-01-20 20:57:49
Writing application : mkvmerge v4.4.0 ('Die Wiederkehr') сборка от Oct 31 2010 21:52:48
Writing library : libebml v1.0.0 + libmatroska v1.0.0

Video
ID : 1
Format : AVC
Format/Info : Advanced Video Codec
Format profile : High@L4.1
Format settings, CABAC : Yes
Format settings, ReFrames : 4 frames
Format settings, GOP : M=2, N=26
Muxing mode : Container profile=Unknown@0.0
Codec ID : V_MPEG4/ISO/AVC
Duration : 4mn 22s
Bit rate mode : Variable
Bit rate : 13.5 Mbps
Maximum bit rate : 35.0 Mbps
Width : 1 920 pixels
Height : 1 080 pixels
Display aspect ratio : 16:9
Frame rate : 23.976 fps
Color space : YUV
Chroma subsampling : 4:2:0
Bit depth : 8 bits
Scan type : Progressive
Bits/(Pixel*Frame) : 0.271
Stream size : 421 MiB (88%)
Title : Home Makeover
Language : English
Color primaries : BT.709-5, BT.1361, IEC 61966-2-4, SMPTE RP177
Transfer characteristics : BT.709-5, BT.1361
Matrix coefficients : BT.709-5, BT.1361, IEC 61966-2-4 709, SMPTE RP177

Audio #1
ID : 2
Format : DTS
Format/Info : Digital Theater Systems
Codec ID : A_DTS
Duration : 4mn 22s
Bit rate mode : Constant
Bit rate : 755 Kbps
Channel(s) : 6 channels
Channel positions : Front: L C R, Side: L R, LFE
Sampling rate : 48.0 KHz
Bit depth : 24 bits
Compression mode : Lossy
Stream size : 23.6 MiB (5%)
Title : DTS 5.1ch 755 kbps - Двухголосый, «Кубик в кубе»
Language : Russian

Audio #2
ID : 3
Format : DTS
Format/Info : Digital Theater Systems
Codec ID : A_DTS
Duration : 4mn 22s
Bit rate mode : Constant
Bit rate : 755 Kbps
Channel(s) : 6 channels
Channel positions : Front: L C R, Side: L R, LFE
Sampling rate : 48.0 KHz
Bit depth : 24 bits
Compression mode : Lossy
Delay relative to video : 11ms
Stream size : 23.6 MiB (5%)
Title : DTS 5.1ch 755 kbps
Language : English

Text #1
ID : 4
Format : UTF-8
Codec ID : S_TEXT/UTF8
Codec ID/Info : UTF-8 Plain Text
Title : full (voronine)
Language : Russian

Text #2
ID : 5
Format : UTF-8
Codec ID : S_TEXT/UTF8
Codec ID/Info : UTF-8 Plain Text
Title : full (Blu-ray)
Language : Russian

Text #3
ID : 6
Format : UTF-8
Codec ID : S_TEXT/UTF8
Codec ID/Info : UTF-8 Plain Text
Language : English

Text #4
ID : 7
Format : UTF-8
Codec ID : S_TEXT/UTF8
Codec ID/Info : UTF-8 Plain Text
Language : French

Text #5
ID : 8
Format : UTF-8
Codec ID : S_TEXT/UTF8
Codec ID/Info : UTF-8 Plain Text
Language : Spanish
info [Профиль]  [ЛС] 

Toxins

Пол: Пол:Муж

Стаж: 7 лет 2 месяца

Сообщений: 164

Украина
Рейтинг

post 27-Янв-2011 14:52 (спустя 2 часа 20 минут) [-]0[+]

[Цитировать] 

Ахаха,клас!Хоть и видел,но в качестве пересмотрю,полюбил я миньйонов.Спасибо!

_________________
info [Профиль]  [ЛС] 

MadPerez

Пол: Пол:Муж

Стаж: 6 лет 8 месяцев

Сообщений: 73

Рейтинг

post 27-Янв-2011 17:49 (спустя 2 часа 57 минут) [-]0[+]

[Цитировать] 

Супер, обязательно посмотрим, Очень мне понравился Гадкий Я

_________________
info [Профиль]  [ЛС] 

GeparD

Пол: Пол:Муж

Стаж: 6 лет 11 месяцев

Сообщений: 142

Россия
Рейтинг

post 27-Янв-2011 18:57 (спустя 1 час 8 минут) [-]1[+]

[Цитировать] 

Спасибо скачаю )
info [Профиль]  [ЛС] 

plflok

Стаж: 6 лет 5 месяцев

Сообщений: 8

Рейтинг

post 27-Янв-2011 19:30 (спустя 32 минуты) [-]0[+]

[Цитировать] 

BAAANAAANAAA!!!!!

супер! =)
info [Профиль]  [ЛС] 

Fairy

Пол: Пол:Жен

Стаж: 5 лет 5 месяцев

Сообщений: 1174

Россия
Рейтинг

post 25-Июл-2011 16:12 (спустя 5 месяцев 28 дней) [-]0[+]

[Цитировать] 

Миньоны отжигают, няшки ^_^

_________________
Крафт: Да ты меня просто дразнишь.
Холо: Привилегия самки ♥ (с) Волчица и пряности
info [Профиль]  [ЛС] 
Показать сообщения:    
Ответить на тему

Текущее время: 07-Дек 12:44

Часовой пояс: GMT + 4



Вы не можете начинать темы
Вы не можете отвечать на сообщения
Вы не можете редактировать свои сообщения
Вы не можете удалять свои сообщения
Вы не можете голосовать в опросах
Вы не можете прикреплять файлы к сообщениям
Вы не можете скачивать файлы