Ошибка

До окончания фрилича осталось:


National Geographic : Путешествие по планетам : Сатурн / A traveler's guide to the planets : Saturn [2010 г., Документальный, научно-популярный, SATRip]

Ответить на тему
 
Автор Сообщение

dante2120

Пол: Пол:Муж

Стаж: 6 лет 4 месяца

Сообщений: 78

Украина
Рейтинг

post 17-Янв-2011 12:08 0[+]

[Цитировать] 

Путешествие по планетам : Сатурн / A traveler's guide to the planets : Saturn

Год выпуска: 2010
Выпущено: National Geographic Television
Жанр: Документальный, научно-популярный
Продолжительность: 00:45:00
Перевод: Профессиональный (одноголосый)

Описание:
Ни одна планета не сравниться с Сатурном по захватывающей дух красоте . Но на открытках видна лишь внешняя сторона .
Еще большей тайной окружены величественные фонтаны Энцелада . Возможно , что соленые гейзеры этой луны таят разгадку
происхождения жизни . Мы облетим большую оранжевую луну Титан и опустимся под туманную завесу ее облаков . Мы пролетим
над пропановыми озерами , горючими песчанными дюнами и метановыми реками . Но внешность здесь всегда обманчива - если
опустить руку в поток лавы на Титане , вы не обожжете ее , а обморозите . Все эти удивительные вещи находятся всего лишь
в полутора миллиардах километрах от нас . Сейчас самое подходящее время отправиться туда , куда не ступала нога человека
- последовать за космическим аппаратом Кассини и исследовать Сатурн и его спутники . Вы готовы отправиться в путь!?

Качество: SATRip
Формат: AVI
Видео кодек: XviD
Аудио кодек: MP3
Видео: 640x368 (1.74:1), 25 fps, XviD MPEG-4 ~1636 kbps avg, 0.28 bit/pixel
Аудио: 48 kHz, MPEG Layer 3, 2 ch, ~128.00 kbps avg

Общее
Полное имя : E:\Хрень\From iTorrent\Saturn.SATRip by Alex Smit.avi
Формат : AVI
Формат/Информация : Audio Video Interleave
Размер файла : 571 Мбайт
Продолжительность : 45 м.
Общий поток : 1774 Кбит/сек
Программа кодирования : VirtualDubMod 1.5.10.2 (build 2542/release)
Библиотека кодирования : VirtualDubMod build 2542/release

Видео
Идентификатор : 0
Формат : MPEG-4 Visual
Профиль формата : Advanced Simple@L5
Параметр BVOP формата : Да
Параметр QPel формата : Нет
Параметр GMC формата : Без точки перехода
Параметр матрицы формата : Default (MPEG)
Режим смешивания : Сжатый битовый поток
Идентификатор кодека : XVID
Идентификатор кодека/Подсказка : XviD
Продолжительность : 45 м.
Битрейт : 1637 Кбит/сек
Ширина : 640 пикс.
Высота : 368 пикс.
Соотношение сторон : 16:9
Частота кадров : 25,000 кадр/сек
Цветовое пространство : YUV
Подвыборка цветности : 4:2:0
Битовая глубина : 8 бит
Тип развёртки : Прогрессивная
Метод сжатия : С потерями
Бит/(Пиксели*Кадры) : 0.278
Размер потока : 527 Мбайт (92%)
Библиотека кодирования : XviD 1.2.1 (UTC 2008-12-04)

Аудио
Идентификатор : 1
Формат : MPEG Audio
Версия формата : Version 1
Профиль формата : Layer 3
Идентификатор кодека : 55
Идентификатор кодека/Подсказка : MP3
Продолжительность : 45 м.
Вид битрейта : Постоянный
Битрейт : 128 Кбит/сек
Канал(ы) : 2 канала(ов)
Частота : 48,0 КГц
Метод сжатия : С потерями
Размер потока : 41,2 Мбайт (7%)
Выравнивание : Соединение по промежуткам
Продолжительность промежутка : 40 мс. (1,00 видеокадр)
Время предзагрузки промежутка : 504 ms


info [Профиль]  [ЛС] 
Показать сообщения:    
Ответить на тему

Текущее время: 10-Дек 05:12

Часовой пояс: GMT + 4



Вы не можете начинать темы
Вы не можете отвечать на сообщения
Вы не можете редактировать свои сообщения
Вы не можете удалять свои сообщения
Вы не можете голосовать в опросах
Вы не можете прикреплять файлы к сообщениям
Вы не можете скачивать файлы