Ошибка

[Discovery Channel] Столкновение галактик / Galactic Collisions [2009 г., Научно-популярный, HDTVRip]

Ответить на тему
 
Автор Сообщение

Captain

Пол: Пол:Муж

Стаж: 6 лет 6 месяцев

Сообщений: 932

Россия
Рейтинг

post 10-Янв-2011 16:15 0[+]

[Цитировать] 


Galactic Collisions
Столкновение галактик

Год выпуска: 2009
Страна: США
Жанр: Научно-популярный
Продолжительность: 00:43:33
Перевод: Профессиональный (одноголосый)
Описание: Космические столкновения на уровне галактик впечатляющие, но очень медленные явления. Симуляция на компьютерах позволяет в деталях увидеть картину в динамике. Между тем нашей галактике весьма повезло, и через несколько миллиардов лет ее ожидает столкновение с более крупной галактикой - Андромедой, и образование супергалактики…
Качество: HDTVRip
Формат: MKV
Видео кодек: x.264
Видео: AVC, 1280x720 (1.778:1), 29.970 fps, 3 129 Кбит/с
Аудио кодек: AC3
    Аудио: Russian, AC3, 48000 Hz, CBR 192 Кбит/с
    Аудио: English, AC3, 48000 Hz, CBR 384 Кбит/с

General
Unique ID : 225878635370679555815532327211319409240 (0xA9EEA48C4C30B2C78F86A668E233BA58)
Complete name : C:\Времененное на раздачи по BitTorrent's сетям\Galaktika.2009.HDTV.mkv
Format : Matroska
File size : 1.15 GiB
Duration : 43mn 33s
Overall bit rate : 3 780 Kbps
Encoded date : UTC 2009-07-28 07:26:31
Writing application : mkvmerge v2.4.1 ('Use Me') built on Dec 5 2008 18:30:05
Writing library : libebml v0.7.7 + libmatroska v0.8.1

Video
ID : 1
Format : AVC
Format/Info : Advanced Video Codec
Format profile : High@L3.1
Format settings, CABAC : Yes
Format settings, ReFrames : 3 frames
Format settings, GOP : M=1, N=19
Codec ID : V_MPEG4/ISO/AVC
Duration : 43mn 33s
Bit rate : 3 200 Kbps
Width : 1 280 pixels
Height : 720 pixels
Display aspect ratio : 16:9
Frame rate : 29.970 fps
Color space : YUV
Chroma subsampling : 4:2:0
Bit depth : 8 bits
Scan type : Progressive
Bits/(Pixel*Frame) : 0.116
Stream size : 975 MiB (83%)
Title : Video
Writing library : x264 core 65 r1074M b6bb3d4
Encoding settings : cabac=1 / ref=3 / deblock=1:0:0 / analyse=0x3:0x133 / me=hex / subme=6 / psy_rd=1.0:0.0 / mixed_ref=1 / me_range=16 / chroma_me=1 / trellis=1 / 8x8dct=1 / cqm=0 / deadzone=21,11 / chroma_qp_offset=-2 / threads=6 / nr=0 / decimate=1 / mbaff=0 / bframes=3 / b_pyramid=1 / b_adapt=1 / b_bias=0 / direct=1 / wpredb=1 / keyint=300 / keyint_min=30 / scenecut=40(pre) / rc=2pass / bitrate=3200 / ratetol=1.5 / qcomp=0.60 / qpmin=10 / qpmax=51 / qpstep=4 / cplxblur=20.0 / qblur=0.5 / ip_ratio=1.40 / pb_ratio=1.30 / aq=1:1.00
Language : English

Audio #1
ID : 2
Format : AC-3
Format/Info : Audio Coding 3
Mode extension : CM (complete main)
Codec ID : A_AC3
Duration : 43mn 33s
Bit rate mode : Constant
Bit rate : 192 Kbps
Channel(s) : 2 channels
Channel positions : Front: L R
Sampling rate : 48.0 KHz
Bit depth : 16 bits
Compression mode : Lossy
Stream size : 59.8 MiB (5%)
Title : Audio
Language : Russian

Audio #2
ID : 3
Format : AC-3
Format/Info : Audio Coding 3
Mode extension : CM (complete main)
Codec ID : A_AC3
Duration : 43mn 33s
Bit rate mode : Constant
Bit rate : 384 Kbps
Channel(s) : 6 channels
Channel positions : Front: L C R, Side: L R, LFE
Sampling rate : 48.0 KHz
Bit depth : 16 bits
Compression mode : Lossy
Stream size : 120 MiB (10%)
Title : Audio
Language : English

info [Профиль]  [ЛС] 

post 10-Янв-2011 16:16 (спустя 51 секунда) [-]0[+]

Топик был перенесен из форума Оформление раздач (Кинематограф) в форум Документальные фильмы и телепередачи

KWG
 

Person-molecule

Стаж: 7 лет 7 месяцев

Сообщений: 190

О.Святой Елены
Рейтинг

post 10-Янв-2011 17:54 (спустя 1 час 38 минут) [-]0[+]

[Цитировать] 

Ух ты! Интересно! Спасибо!

_________________
Короли Латиносы!
info [Профиль]  [ЛС] 

Alexsander Mad

Пол: Пол:Муж

Стаж: 6 лет 7 месяцев

Сообщений: 122

Россия
Рейтинг

post 10-Янв-2011 20:24 (спустя 2 часа 30 минут) [-]0[+]

[Цитировать] 

Где ты их набрал?) Я уже 3-й качаю и все твои.

_________________
info [Профиль]  [ЛС] 

Captain

Пол: Пол:Муж

Стаж: 6 лет 6 месяцев

Сообщений: 932

Россия
Рейтинг

post 10-Янв-2011 20:51 (спустя 26 минут) [-]0[+]

[Цитировать] 

Alexsander Mad писал(а):

Где ты их набрал?) Я уже 3-й качаю и все твои.
Места знать надо kolob_107
завтра выложу еще несколько документальных фильмов

_________________
info [Профиль]  [ЛС] 
Показать сообщения:    
Ответить на тему

Текущее время: 05-Дек 16:40

Часовой пояс: GMT + 4



Вы не можете начинать темы
Вы не можете отвечать на сообщения
Вы не можете редактировать свои сообщения
Вы не можете удалять свои сообщения
Вы не можете голосовать в опросах
Вы не можете прикреплять файлы к сообщениям
Вы не можете скачивать файлы