Ошибка

Акулоград / National Geographic - Sharkville (Стефания Мюллер / Stefania Muller) [2008, Документальный, HDTVRip, 720p]

Ответить на тему
 
Автор Сообщение

UcrusPazzo

Пол: Пол:Муж

Стаж: 6 лет 9 месяцев

Сообщений: 56

Россия
Рейтинг

post 09-Янв-2011 16:18 0[+]

[Цитировать] 

Акулоград / National Geographic - Sharkville



Год выпуска: 2008
Производство: ЮАР (An Obsessively Creative), Нидерланды (Off the Fence Production) для National Geographic Channel
Жанр: Документальный
Продолжительность: 00:47:37
Перевод: Профессиональный (многоголосый, закадровый)
Оригинальный аудиопоток: Английский
Режиссер: Стефания Мюллер / Stefania Muller
В ролях: Акулы
Описание: У побережья Южно-Африканской республики крупная популяция белых акул начала охотиться под покровом темноты. Они живут здесь почти круглый год, всего в нескольких метрах от пляжа, наводненного туристами. Райен Джонсон, ученый изучающий акул собрался раскрыть тайны окружающие этих гигантских хищников. Его цель - раскрыть тайны невероятного поведения больших белых акул, живущих в месте прозванном - Акулоград.
Источник/Качество: HDTVRip
Формат: MKV
Стандарт разрешения: 720p
Видео кодек: H.26x
Аудио кодек: AC3
Видео: MPEG-4 AVC, 5166 Кбит/с, 1280x720, 25.000 кадр/с
Аудио: Русский (AC3, 2 ch, 192 Кбит/с, 48 kHz), английский (AC3, 2 ch, 192 Кбит/с, 48 kHz)
Субтитры: нет
Формат : Matroska
Размер файла : 1,88 Гбайт
Продолжительность : 47 м.
Общий поток : 5663 Кбит/сек
Дата кодирования : UTC 2010-11-29 09:26:50
Программа кодирования : mkvmerge v3.2.0 ('Beginnings') built on Feb 12 2010 16:46:17
Библиотека кодирования : libebml v0.7.9 + libmatroska v0.8.1
Видео
Идентификатор : 1
Формат : AVC
Формат/Информация : Advanced Video Codec
Профиль формата : High@L4.1
Параметр CABAC формата : Да
Параметр ReFrames формата : 4 кадры
Идентификатор кодека : V_MPEG4/ISO/AVC
Продолжительность : 47 м.
Битрейт : 5166 Кбит/сек
Ширина : 1280 пикс.
Высота : 720 пикс.
Соотношение сторон : 16:9
Частота кадров : 25,000 кадр/сек
Цветовое пространство : YUV
Подвыборка цветности : 4:2:0
Битовая глубина : 8 бит
Тип развёртки : Прогрессивная
Бит/(Пиксели*Кадры) : 0.224
Размер потока : 1,72 Гбайт (91%)
Язык : English
Аудио #1
Идентификатор : 2
Формат : AC-3
Формат/Информация : Audio Coding 3
Расширение режима : CM (complete main)
Идентификатор кодека : A_AC3
Продолжительность : 47 м.
Вид битрейта : Постоянный
Битрейт : 192 Кбит/сек
Канал(ы) : 2 канала(ов)
Расположение каналов : Front: L R
Частота : 48,0 КГц
Битовая глубина : 16 бит
Метод сжатия : С потерями
Размер потока : 65,4 Мбайт (3%)
Заголовок : warkvil_by_nyctalus
Язык : Russian
Аудио #2
Идентификатор : 3
Формат : AC-3
Формат/Информация : Audio Coding 3
Расширение режима : CM (complete main)
Идентификатор кодека : A_AC3
Продолжительность : 47 м.
Вид битрейта : Постоянный
Битрейт : 192 Кбит/сек
Канал(ы) : 2 канала(ов)
Расположение каналов : Front: L R
Частота : 48,0 КГц
Битовая глубина : 16 бит
Метод сжатия : С потерями
Размер потока : 65,4 Мбайт (3%)
Заголовок : sharvillage
Язык : English

info [Профиль]  [ЛС] 

PNYKLR

Пол: Пол:Муж

Стаж: 7 лет 8 месяцев

Сообщений: 1886

Россия
Рейтинг

post 09-Янв-2011 17:35 (спустя 1 час 17 минут) [-]0[+]

[Цитировать] 

UcrusPazzo
Скриншоты под спойлер.

_________________
.
info [Профиль]  [ЛС] 

fallenAngel

Пол: Пол:Муж

Стаж: 6 лет 3 месяца

Сообщений: 96

Украина
Рейтинг

post 10-Янв-2011 04:02 (спустя 10 часов) [-]0[+]

[Цитировать] 

Спасибо интересно посмотреть Улыбаюсь

_________________
info [Профиль]  [ЛС] 
Показать сообщения:    
Ответить на тему

Текущее время: 09-Дек 13:41

Часовой пояс: GMT + 4



Вы не можете начинать темы
Вы не можете отвечать на сообщения
Вы не можете редактировать свои сообщения
Вы не можете удалять свои сообщения
Вы не можете голосовать в опросах
Вы не можете прикреплять файлы к сообщениям
Вы не можете скачивать файлы