Ошибка

Последняя львица / The Last Lioness (Дэвид Падруш) [2010, Документальный, HDTVRip, 720p]

Ответить на тему
 
Автор Сообщение

UcrusPazzo

Пол: Пол:Муж

Стаж: 6 лет 8 месяцев

Сообщений: 56

Россия
Рейтинг

post 03-Янв-2011 11:10 0[+]

[Цитировать] 

Последняя львица / The Last Lioness



Год выпуска: 2010
Производство: США, National Geographic Channel
Жанр: Документальный
Продолжительность: 00:46:59
Перевод: Профессиональный (одноголосый)
Оригинальный аудиопоток: Английский
Режиссер: Дэвид Падруш
В ролях: Дэвид Падруш
Описание: На всю равнину простирается рык Лиуа. Здесь никого нет уже много лет. У нее нет гордости, нет поддержки, она одна должна сохранить себя. Ее имя Леди Лиуа и она – Последняя Львица.

Незаконная охота на кошек уничтожила весь оставшийся вид в регионе, Леди Лиуа осталась единственным львом, выжившим на равнине в Замбии. В течение четырех лет за ее одинокой жизнью наблюдал видео-оператор Герберт Брауэр, пока львица сама не протянула лапу для общения с ним.

Но Герберт понимает, что он не может быть ее компаньоном и она должна находиться среди своего вида. В мае 2009 было предпринято решение переместить льва самца на эту территорию. Леди Лиуа больше не будет Последней Львицей и впервые, более чем за пять лет, здесь вновь появятся львы!
Источник/Качество: HDTVRip
Формат: MKV
Стандарт разрешения: 720p
Видео кодек: х264
Аудио кодек: AC3
Видео: 1280x720p at 25.000 fps, MPEG4 AVC HighL3.1 Ref 3, 2943 Kbps
Аудио #1: Russian DD 5.1, 48 KHz, 384 Kbps
Аудио #2: English DD 5.1, 48 KHz, 384 Kbps
Субтитры: нет
Формат : Matroska
Размер файла : 1,22 Гбайт
Продолжительность : 46 м.
Общий поток : 3715 Кбит/сек
Дата кодирования : UTC 2010-07-23 14:39:48
Программа кодирования : mkvmerge v2.4.1 ('Use Me') built on Dec 5 2008 18:30:05
Библиотека кодирования : libebml v0.7.7 + libmatroska v0.8.1
Видео
Идентификатор : 1
Формат : AVC
Формат/Информация : Advanced Video Codec
Профиль формата : High@L3.1
Параметр CABAC формата : Да
Параметр ReFrames формата : 3 кадры
Идентификатор кодека : V_MPEG4/ISO/AVC
Продолжительность : 46 м.
Битрейт : 2943 Кбит/сек
Ширина : 1280 пикс.
Высота : 720 пикс.
Соотношение сторон : 16:9
Частота кадров : 25,000 кадр/сек
Цветовое пространство : YUV
Подвыборка цветности : 4:2:0
Битовая глубина : 8 бит
Тип развёртки : Прогрессивная
Бит/(Пиксели*Кадры) : 0.128
Размер потока : 965 Мбайт (77%)
Заголовок : Video
Библиотека кодирования : x264 core 76 r1268 d542926
Настройки программы : cabac=1 / ref=3 / deblock=1:1:1 / analyse=0x3:0x113 / me=hex / subme=6 / psy=1 / psy_rd=0.0:1.0 / mixed_ref=1 / me_range=16 / chroma_me=1 / trellis=1 / 8x8dct=1 / cqm=0 / deadzone=21,11 / chroma_qp_offset=-2 / threads=6 / nr=0 / decimate=1 / mbaff=0 / bframes=3 / b_pyramid=0 / b_adapt=1 / b_bias=0 / direct=1 / wpredb=1 / keyint=250 / keyint_min=25 / scenecut=40 / rc_lookahead=40 / rc=2pass / mbtree=1 / bitrate=2943 / ratetol=1.0 / qcomp=0.60 / qpmin=10 / qpmax=51 / qpstep=4 / cplxblur=20.0 / qblur=0.5 / ip_ratio=1.40 / aq=1:1.00
Аудио #1
Идентификатор : 2
Формат : AC-3
Формат/Информация : Audio Coding 3
Расширение режима : CM (complete main)
Идентификатор кодека : A_AC3
Продолжительность : 46 м.
Вид битрейта : Постоянный
Битрейт : 384 Кбит/сек
Канал(ы) : 6 канала(ов)
Расположение каналов : Front: L C R, Side: L R, LFE
Частота : 48,0 КГц
Битовая глубина : 16 бит
Метод сжатия : С потерями
Размер потока : 129 Мбайт (10%)
Заголовок : Audio
Язык : Russian
Аудио #2
Идентификатор : 3
Формат : AC-3
Формат/Информация : Audio Coding 3
Расширение режима : CM (complete main)
Идентификатор кодека : A_AC3
Продолжительность : 46 м.
Вид битрейта : Постоянный
Битрейт : 384 Кбит/сек
Канал(ы) : 6 канала(ов)
Расположение каналов : Front: L C R, Side: L R, LFE
Частота : 48,0 КГц
Битовая глубина : 16 бит
Метод сжатия : С потерями
Размер потока : 129 Мбайт (10%)
Заголовок : Audio
Язык : English
info [Профиль]  [ЛС] 
Показать сообщения:    
Ответить на тему

Текущее время: 03-Дек 04:27

Часовой пояс: GMT + 4



Вы не можете начинать темы
Вы не можете отвечать на сообщения
Вы не можете редактировать свои сообщения
Вы не можете удалять свои сообщения
Вы не можете голосовать в опросах
Вы не можете прикреплять файлы к сообщениям
Вы не можете скачивать файлы