Ошибка

Жажда / Thirst / Bakjwi (Пак Чхан-ук / Park Chan-wook) [2009 г., ужасы, эротика, драма, DVDRip][Режиссерская версия] AVO (Сербин, © acolith)

Ответить на тему
 
Автор Сообщение

Captain

Пол: Пол:Муж

Стаж: 6 лет 6 месяцев

Сообщений: 932

Россия
Рейтинг

post 13-Дек-2010 13:04 0[+]

[Цитировать] 


Жажда / Thirst / Bakjwi

Режиссёрская версия
Еще больше крови, еще больше ужаса

Год выпуска: 2009
Страна: Южная Корея
Жанр: ужасы, эротика, драма, мелодрама, фэнтези
Продолжительность: 02:27:41.319
Перевод: авторский (одноголосый, закадровый) Юрий Сербин и © acolith
Русские субтитры: нет
Режиссер: Пак Чхан-ук / Park Chan-wook
В ролях:
Кан Хо Сон / Kang-ho Song,
Ок-бин Ким / Ok-bin Kim,
Hae-sook Kim,
Син Ха Гюн / Ha-kyun Shin,
In-hwan Park,
Дал-су Ох / Dal-su Oh,
Ён-чан Сон / Young-chang Song,
Мерседес Кебрал / Mercedes Cabral,
Эрик Эбони / Eriq Ebouaney
Рейтинг Кинопоиск.Ru:

Описание:
Уважаемый и любимый прихожанами священник добровольно соглашается на медицинский эксперимент, в результате которого он непредвиденно становится вампиром. Физические и психологические изменения приводят к тому, что герой вступает в порочную связь с уставшей от рутинной жизни женой лучшего друга. С каждым днем вампиру-священнику все труднее сохранять в себе что-то человеческое…
Качество: DVDRip
Формат: AVI
Видео кодек: XviD
Аудио кодек: AC3
Видео: 720x304 (2.37:1), 23.976 fps, XviD build 50 ~1698 kbps avg, 0.32 bit/pixel
Аудио: 48 kHz, AC3 Dolby Digital, 2/0 (L,R) ch, ~384.00 kbps avg
General
Complete name : D:\Video\Tapochek.net\Thirst.2009.Uncut.DVDRip.Rus.avi
Format : AVI
Format/Info : Audio Video Interleave
Format profile : OpenDML
File size : 2.16 GiB
Duration : 2h 27mn
Overall bit rate : 2 090 Kbps
Writing application : VirtualDubMod 1.5.10.2 (build 2540/release)
Writing library : VirtualDubMod build 2540/release

Video
ID : 0
Format : MPEG-4 Visual
Format profile : Advanced Simple@L5
Format settings, BVOP : Yes
Format settings, QPel : No
Format settings, GMC : No warppoints
Format settings, Matrix : Default (MPEG)
Codec ID : XVID
Codec ID/Hint : XviD
Duration : 2h 27mn
Bit rate : 1 696 Kbps
Width : 720 pixels
Height : 304 pixels
Display aspect ratio : 2.35:1
Frame rate : 23.976 fps
Color space : YUV
Chroma subsampling : 4:2:0
Bit depth : 8 bits
Scan type : Progressive
Compression mode : Lossy
Bits/(Pixel*Frame) : 0.323
Stream size : 1.75 GiB (81%)
Writing library : XviD 1.2.1 (UTC 2008-12-04)

Audio
ID : 1
Format : AC-3
Format/Info : Audio Coding 3
Mode extension : CM (complete main)
Codec ID : 2000
Duration : 2h 27mn
Bit rate mode : Constant
Bit rate : 384 Kbps
Channel(s) : 2 channels
Channel positions : Front: L R
Sampling rate : 48.0 KHz
Bit depth : 16 bits
Compression mode : Lossy
Stream size : 406 MiB (18%)
Alignment : Split accross interleaves
Interleave, duration : 64 ms (1.53 video frames)
Interleave, preload duration : 64 ms
Скачать сэмпл
Скриншоты:

«Я вампир, но это нормально!»
info [Профиль]  [ЛС] 

post 13-Дек-2010 13:06 (спустя 2 минуты) [-]0[+]

Топик был перенесен из форума Оформление раздач (Кинематограф) в форум Азиатское кино | Rips

KWG
 

SevER_7

Стаж: 7 лет 6 месяцев

Сообщений: 77

Предупреждений: 1

Россия
Рейтинг

post 13-Дек-2010 14:04 (спустя 1 час) [-]0[+]

[Цитировать] 

Фильм могу посоветовать любителям вампирской тематики и корейской жестокости)
info [Профиль]  [ЛС] 

Captain

Пол: Пол:Муж

Стаж: 6 лет 6 месяцев

Сообщений: 932

Россия
Рейтинг

post 13-Дек-2010 14:39 (спустя 35 минут) [-]0[+]

[Цитировать] 

SevER_7
согласен, но хочу добавить свое мнение о том, что любителям сумерек это кино может непонравиться))

_________________
info [Профиль]  [ЛС] 

SevER_7

Стаж: 7 лет 6 месяцев

Сообщений: 77

Предупреждений: 1

Россия
Рейтинг

post 13-Дек-2010 16:15 (спустя 1 час 35 минут) [-]0[+]

[Цитировать] 

KWG
Истину глаголишЬ)
info [Профиль]  [ЛС] 

rumata

Стаж: 7 лет 5 месяцев

Сообщений: 16

Рейтинг

post 13-Дек-2010 17:14 (спустя 58 минут) [-]0[+]

[Цитировать] 

KWG писал(а):

SevER_7
любителям сумерек это кино может непонравиться))
А вот это уже интересно))) Надо посмотреть.
info [Профиль]  [ЛС] 

Captain

Пол: Пол:Муж

Стаж: 6 лет 6 месяцев

Сообщений: 932

Россия
Рейтинг

post 13-Дек-2010 20:05 (спустя 2 часа 50 минут) [-]0[+]

[Цитировать] 

просьба скачавшим не уходить с раздачи и помочь в сидировании ибо много что раздаётся одновременно и пока не могу повысить скорость((( я на Вас расчитываю

_________________
info [Профиль]  [ЛС] 

Destropaty

Пол: Пол:Муж

Стаж: 6 лет 7 месяцев

Сообщений: 3

Рейтинг

post 11-Сен-2011 19:38 (спустя 8 месяцев 28 дней) [-]0[+]

[Цитировать] 

Вернитесь на раздачу плиз.
Докачаю - с раздачи не уйду, год минимум. kolob_100
info [Профиль]  [ЛС] 
Показать сообщения:    
Ответить на тему

Текущее время: 03-Дек 08:34

Часовой пояс: GMT + 4



Вы не можете начинать темы
Вы не можете отвечать на сообщения
Вы не можете редактировать свои сообщения
Вы не можете удалять свои сообщения
Вы не можете голосовать в опросах
Вы не можете прикреплять файлы к сообщениям
Вы не можете скачивать файлы