Ошибка

(SkaPunk / SkaCore) Operation Ivy - Дискография - 1988-1997, FLAC (tracks), lossless

Ответить на тему
 
Автор Сообщение

taizer004

Пол: Пол:Муж

Стаж: 6 лет 7 месяцев

Сообщений: 5

Россия
Рейтинг

post 10-Ноя-2010 15:41 0[+]

[Цитировать] 

Operation Ivy - Дискография

pic="http://s001.youpic.su/pictures/1289325600/1b9997a350c627ee3b5d0043c532f5ed.jpg"
Жанр: Ska-Punk/Ska-Core
Год издания данного носителя: 1988-1997
Страна-производитель носителя: USA
Тип релиза: tracks+.cue
Аудио кодек: FLAC
Битрейт аудио: lossless
Продолжительность: 4:03:30

01. Junkie's Runnin' Dry
02. Here We Go Again
03. Hoboken
04. Yellin in my Ear
05. Sleep Long
06. Healthy Body

Код:

 
AUDIOCHECKER v1.2 - by Dester - opdester@freemail.hu
~~~~~~~~~~~~~~~~~

1 -===- J:\Operation Ivy\1988 - Hectic (EP)\Operation Ivy - 01 - Junkies Running Dry.flac
  Extracted successfully
  Conclusion: This track looks like CDDA with probability 100%

2 -===- J:\Operation Ivy\1988 - Hectic (EP)\Operation Ivy - 02 - Here We Go Again.flac
  Extracted successfully
  Conclusion: This track looks like CDDA with probability 100%

3 -===- J:\Operation Ivy\1988 - Hectic (EP)\Operation Ivy - 03 - Hoboken.flac
  Extracted successfully
  Conclusion: This track looks like CDDA with probability 100%

4 -===- J:\Operation Ivy\1988 - Hectic (EP)\Operation Ivy - 04 - Yellin' In My Ear.flac
  Extracted successfully
  Conclusion: This track looks like CDDA with probability 100%

5 -===- J:\Operation Ivy\1988 - Hectic (EP)\Operation Ivy - 05 - Sleep Long.flac
  Extracted successfully
  Conclusion: This track looks like CDDA with probability 100%

6 -===- J:\Operation Ivy\1988 - Hectic (EP)\Operation Ivy - 06 - Healthy Body.flac
  Extracted successfully
  Conclusion: This track looks like CDDA with probability 99%

1. Knowledge
2. Sound System
3. Jaded
4. Take Warning
5. The Crowd
6. Bombshell
7. Unity
8. Vulnerability
9. Bankshot
10. One Of These Days
11. Gonna Find You
12. Bad Town
13. Smiling
14. Caution
15. Freeze Up
16. Artificial Life
17. Room Without A Window
18. Big City
19. Missionary
20. Junkie's Runnin' Dry
21. Here We Go Again
22. Hoboken
23. Yellin' In My Ear
24. Sleep Long
25. Healthy Body
26. Officer
27. I Got No

Код:

 AUDIOCHECKER v1.2 - by Dester - opdester@freemail.hu
~~~~~~~~~~~~~~~~~

01 -===- J:\Operation Ivy\1990 - Energy\01 - Knowledge.flac
  Extracted successfully
  Conclusion: This track looks like CDDA with probability 99%

02 -===- J:\Operation Ivy\1990 - Energy\02 - Sound System.flac
  Extracted successfully
  Conclusion: This track looks like CDDA with probability 100%

03 -===- J:\Operation Ivy\1990 - Energy\03 - Jaded.flac
  Extracted successfully
  Conclusion: This track looks like CDDA with probability 100%

04 -===- J:\Operation Ivy\1990 - Energy\04 - Take Warning.flac
  Extracted successfully
  Conclusion: This track looks like CDDA with probability 100%

05 -===- J:\Operation Ivy\1990 - Energy\05 - The Crowd.flac
  Extracted successfully
  Conclusion: This track looks like CDDA with probability 100%

06 -===- J:\Operation Ivy\1990 - Energy\06 - Bombshell.flac
  Extracted successfully
  Conclusion: This track looks like CDDA with probability 100%

07 -===- J:\Operation Ivy\1990 - Energy\07 - Unity.flac
  Extracted successfully
  Conclusion: This track looks like CDDA with probability 100%

08 -===- J:\Operation Ivy\1990 - Energy\08 - Vulnerability.flac
  Extracted successfully
  Conclusion: This track looks like CDDA with probability 99%

09 -===- J:\Operation Ivy\1990 - Energy\09 - Bankshot.flac
  Extracted successfully
  Conclusion: This track looks like CDDA with probability 100%

10 -===- J:\Operation Ivy\1990 - Energy\10 - One Of These Days.flac
  Extracted successfully
  Conclusion: This track looks like CDDA with probability 99%

11 -===- J:\Operation Ivy\1990 - Energy\11 - Gonna Find You.flac
  Extracted successfully
  Conclusion: This track looks like CDDA with probability 99%

12 -===- J:\Operation Ivy\1990 - Energy\12 - Bad Town.flac
  Extracted successfully
  Conclusion: This track looks like CDDA with probability 100%

13 -===- J:\Operation Ivy\1990 - Energy\13 - Smiling.flac
  Extracted successfully
  Conclusion: This track looks like CDDA with probability 100%

14 -===- J:\Operation Ivy\1990 - Energy\14 - Caution.flac
  Extracted successfully
  Conclusion: This track looks like CDDA with probability 100%

15 -===- J:\Operation Ivy\1990 - Energy\15 - Freeze Up.flac
  Extracted successfully
  Conclusion: This track looks like CDDA with probability 100%

16 -===- J:\Operation Ivy\1990 - Energy\16 - Artificial Life.flac
  Extracted successfully
  Conclusion: This track looks like CDDA with probability 100%

17 -===- J:\Operation Ivy\1990 - Energy\17 - Room Without A Window.flac
  Extracted successfully
  Conclusion: This track looks like CDDA with probability 100%

18 -===- J:\Operation Ivy\1990 - Energy\18 - Big City.flac
  Extracted successfully
  Conclusion: This track looks like CDDA with probability 100%

19 -===- J:\Operation Ivy\1990 - Energy\19 - Missionary.flac
  Extracted successfully
  Conclusion: This track looks like CDDA with probability 100%

20 -===- J:\Operation Ivy\1990 - Energy\20 - Junkie's Runnin' Dry.flac
  Extracted successfully
  Conclusion: This track looks like CDDA with probability 99%

21 -===- J:\Operation Ivy\1990 - Energy\21 - Here We Go Again.flac
  Extracted successfully
  Conclusion: This track looks like CDDA with probability 100%

22 -===- J:\Operation Ivy\1990 - Energy\22 - Hoboken.flac
  Extracted successfully
  Conclusion: This track looks like CDDA with probability 100%

23 -===- J:\Operation Ivy\1990 - Energy\23 - Yellin' In My Ear.flac
  Extracted successfully
  Conclusion: This track looks like CDDA with probability 100%

24 -===- J:\Operation Ivy\1990 - Energy\24 - Sleep Long.flac
  Extracted successfully
  Conclusion: This track looks like CDDA with probability 100%

25 -===- J:\Operation Ivy\1990 - Energy\25 - Healthy Body.flac
  Extracted successfully
  Conclusion: This track looks like CDDA with probability 100%

26 -===- J:\Operation Ivy\1990 - Energy\26 - Officer.flac
  Extracted successfully
  Conclusion: This track looks like CDDA with probability 100%

27 -===- J:\Operation Ivy\1990 - Energy\27 - I Got No.flac
  Extracted successfully
  Conclusion: This track looks like CDDA with probability 99%

Код:

EAC extraction logfile from 21. July 2006, 3:46 for CD
Operation Ivy / Energy

Used drive  : PIONEER DVD-RW  DVR-109   Adapter: 2  ID: 0
Read mode   : Secure with NO C2, accurate stream, disable cache
Read offset correction : 48
Overread into Lead-In and Lead-Out : No

Used output format : FLAC 1.1.0   (User Defined Encoder)
                     192 kBit/s
                     Additional command line options : -8 -V -T "artist=%a" -T "title=%t" -T "album=%g" -T "date=%y" -T "tracknumber=%n" -T "genre=%m" %s

Other options      :
    Fill up missing offset samples with silence : Yes
    Delete leading and trailing silent blocks : No
    Native Win32 interface for Win NT & 2000

Track  1
   Filename 01 - Knowledge.wav

   Pre-gap length  0:00:02.00

   Peak level 94.3 %
   Track quality 100.0 %
   Test CRC DCD4EB97
   Copy CRC DCD4EB97
   Copy OK

Track  2
   Filename 02 - Sound System.wav

   Peak level 94.1 %
   Track quality 100.0 %
   Test CRC E96699E3
   Copy CRC E96699E3
   Copy OK

Track  3
   Filename 03 - Jaded.wav

   Peak level 94.7 %
   Track quality 100.0 %
   Test CRC 952B04BC
   Copy CRC 952B04BC
   Copy OK

Track  4
   Filename 04 - Take Warning.wav

   Peak level 94.4 %
   Track quality 100.0 %
   Test CRC 4F28309A
   Copy CRC 4F28309A
   Copy OK

Track  5
   Filename 05 - The Crowd.wav

   Peak level 96.2 %
   Track quality 100.0 %
   Test CRC 734360E0
   Copy CRC 734360E0
   Copy OK

Track  6
   Filename 06 - Bombshell.wav

   Pre-gap length  0:00:00.01

   Peak level 93.8 %
   Track quality 100.0 %
   Test CRC B1BA19B3
   Copy CRC B1BA19B3
   Copy OK

Track  7
   Filename 07 - Unity.wav

   Peak level 94.2 %
   Track quality 100.0 %
   Test CRC 0A7439B6
   Copy CRC 0A7439B6
   Copy OK

Track  8
   Filename 08 - Vulnerability.wav

   Peak level 93.3 %
   Track quality 100.0 %
   Test CRC 25C10275
   Copy CRC 25C10275
   Copy OK

Track  9
   Filename 09 - Bankshot.wav

   Peak level 95.3 %
   Track quality 100.0 %
   Test CRC E6910F80
   Copy CRC E6910F80
   Copy OK

Track 10
   Filename 10 - One Of These Days.wav

   Peak level 96.2 %
   Track quality 100.0 %
   Test CRC AA5F60A9
   Copy CRC AA5F60A9
   Copy OK

Track 11
   Filename 11 - Gonna Find You.wav

   Peak level 96.9 %
   Track quality 100.0 %
   Test CRC 9E887D8F
   Copy CRC 9E887D8F
   Copy OK

Track 12
   Filename 12 - Bad Town.wav

   Peak level 95.3 %
   Track quality 100.0 %
   Test CRC BFFC32F8
   Copy CRC BFFC32F8
   Copy OK

Track 13
   Filename 13 - Smiling.wav

   Peak level 96.9 %
   Track quality 99.9 %
   Test CRC 9D0C254C
   Copy CRC 9D0C254C
   Copy OK

Track 14
   Filename 14 - Caution.wav

   Peak level 94.3 %
   Track quality 100.0 %
   Test CRC 1BB66E0F
   Copy CRC 1BB66E0F
   Copy OK

Track 15
   Filename 15 - Freeze Up.wav

   Peak level 96.3 %
   Track quality 100.0 %
   Test CRC BADE5A6D
   Copy CRC BADE5A6D
   Copy OK

Track 16
   Filename 16 - Artificial Life.wav

   Peak level 94.8 %
   Track quality 100.0 %
   Test CRC 8CD3EB0F
   Copy CRC 8CD3EB0F
   Copy OK

Track 17
   Filename 17 - Room Without A Window.wav

   Peak level 96.0 %
   Track quality 99.8 %
   Test CRC 73E7C84D
   Copy CRC 73E7C84D
   Copy OK

Track 18
   Filename 18 - Big City.wav

   Peak level 95.2 %
   Track quality 100.0 %
   Test CRC BDCA2B1C
   Copy CRC BDCA2B1C
   Copy OK

Track 19
   Filename 19 - Missionary.wav

   Peak level 94.4 %
   Track quality 100.0 %
   Test CRC D5F5C085
   Copy CRC D5F5C085
   Copy OK

Track 20
   Filename 20 - Junkie's Runnin' Dry.wav

   Peak level 94.5 %
   Track quality 100.0 %
   Test CRC 8C130E9D
   Copy CRC 8C130E9D
   Copy OK

Track 21
   Filename 21 - Here We Go Again.wav

   Peak level 93.8 %
   Track quality 100.0 %
   Test CRC AB5A579B
   Copy CRC AB5A579B
   Copy OK

Track 22
   Filename 22 - Hoboken.wav

   Peak level 93.6 %
   Track quality 100.0 %
   Test CRC BDE2E7A5
   Copy CRC BDE2E7A5
   Copy OK

Track 23
   Filename 23 - Yellin' In My Ear.wav

   Peak level 93.6 %
   Track quality 100.0 %
   Test CRC EE2CEAF1
   Copy CRC EE2CEAF1
   Copy OK

Track 24
   Filename 24 - Sleep Long.wav

   Peak level 93.2 %
   Track quality 100.0 %
   Test CRC AD5090FF
   Copy CRC AD5090FF
   Copy OK

Track 25
   Filename 25 - Healthy Body.wav

   Peak level 94.2 %
   Track quality 100.0 %
   Test CRC B9E14E64
   Copy CRC B9E14E64
   Copy OK

Track 26
   Filename 26 - Officer.wav

   Peak level 84.1 %
   Track quality 100.0 %
   Test CRC 53989274
   Copy CRC 53989274
   Copy OK

Track 27
   Filename 27 - I Got No.wav

   Peak level 85.4 %
   Track quality 100.0 %
   Test CRC EF66187A
   Copy CRC EF66187A
   Copy OK

No errors occured

End of status report

Код:

 
PERFORMER "Operation Ivy"
TITLE "Energy"
CATALOG 0000000000000
FILE "01 - Knowledge.flac" WAVE
  TRACK 01 AUDIO
    INDEX 01 00:00:00
FILE "02 - Sound System.flac" WAVE
  TRACK 02 AUDIO
    INDEX 01 00:00:00
FILE "03 - Jaded.flac" WAVE
  TRACK 03 AUDIO
    INDEX 01 00:00:00
FILE "04 - Take Warning.flac" WAVE
  TRACK 04 AUDIO
    INDEX 01 00:00:00
FILE "05 - The Crowd.flac" WAVE
  TRACK 05 AUDIO
    INDEX 01 00:00:00
  TRACK 06 AUDIO
    INDEX 00 02:11:24
FILE "06 - Bombshell.flac" WAVE
    INDEX 01 00:00:00
FILE "07 - Unity.flac" WAVE
  TRACK 07 AUDIO
    INDEX 01 00:00:00
FILE "08 - Vulnerability.flac" WAVE
  TRACK 08 AUDIO
    INDEX 01 00:00:00
FILE "09 - Bankshot.flac" WAVE
  TRACK 09 AUDIO
    INDEX 01 00:00:00
FILE "10 - One Of These Days.flac" WAVE
  TRACK 10 AUDIO
    INDEX 01 00:00:00
FILE "11 - Gonna Find You.flac" WAVE
  TRACK 11 AUDIO
    INDEX 01 00:00:00
FILE "12 - Bad Town.flac" WAVE
  TRACK 12 AUDIO
    INDEX 01 00:00:00
FILE "13 - Smiling.flac" WAVE
  TRACK 13 AUDIO
    INDEX 01 00:00:00
FILE "14 - Caution.flac" WAVE
  TRACK 14 AUDIO
    INDEX 01 00:00:00
FILE "15 - Freeze Up.flac" WAVE
  TRACK 15 AUDIO
    INDEX 01 00:00:00
FILE "16 - Artificial Life.flac" WAVE
  TRACK 16 AUDIO
    INDEX 01 00:00:00
FILE "17 - Room Without A Window.flac" WAVE
  TRACK 17 AUDIO
    INDEX 01 00:00:00
FILE "18 - Big City.flac" WAVE
  TRACK 18 AUDIO
    INDEX 01 00:00:00
FILE "19 - Missionary.flac" WAVE
  TRACK 19 AUDIO
    INDEX 01 00:00:00
FILE "20 - Junkie's Runnin' Dry.flac" WAVE
  TRACK 20 AUDIO
    INDEX 01 00:00:00
FILE "21 - Here We Go Again.flac" WAVE
  TRACK 21 AUDIO
    INDEX 01 00:00:00
FILE "22 - Hoboken.flac" WAVE
  TRACK 22 AUDIO
    INDEX 01 00:00:00
FILE "23 - Yellin' In My Ear.flac" WAVE
  TRACK 23 AUDIO
    INDEX 01 00:00:00
FILE "24 - Sleep Long.flac" WAVE
  TRACK 24 AUDIO
    INDEX 01 00:00:00
FILE "25 - Healthy Body.flac" WAVE
  TRACK 25 AUDIO
    INDEX 01 00:00:00
FILE "26 - Officer.flac" WAVE
  TRACK 26 AUDIO
    INDEX 01 00:00:00
FILE "27 - I Got No.flac" WAVE
  TRACK 27 AUDIO
    INDEX 01 00:00:00
1. Knowledge
2. Sound System
3. Jaded
4. Take Warning
5. The Crowd
6. Bombshell
7. Unity
8. Vulnerability
9. Bankshot
10. One Of These Days
11. Gonna Find You
12. Bad Town
13. Smiling
14. Caution
15. Freeze Up
16. Artificial Life
17. Room Without A Window
18. Big City
19. Missionary
20. Junkie's Runnin' Dry
21. Here We Go Again
22. Hoboken
23. Yellin' In My Ear
24. Sleep Long
25. Healthy Body
26. Officer
27. I Got No

Код:

AUDIOCHECKER v1.2 - by Dester - opdester@freemail.hu
~~~~~~~~~~~~~~~~~

01 -===- J:\Operation Ivy\1991 - Operation Ivy\01 - Knowledge.flac
Extracted successfully
Conclusion: This track looks like CDDA with probability 100%

02 -===- J:\Operation Ivy\1991 - Operation Ivy\02 - Sound System.flac
Extracted successfully
Conclusion: This track looks like CDDA with probability 100%

03 -===- J:\Operation Ivy\1991 - Operation Ivy\03 - Jaded.flac
Extracted successfully
Conclusion: This track looks like CDDA with probability 99%

04 -===- J:\Operation Ivy\1991 - Operation Ivy\04 - Take Warning.flac
Extracted successfully
Conclusion: This track looks like CDDA with probability 100%

05 -===- J:\Operation Ivy\1991 - Operation Ivy\05 - The Crowd.flac
Extracted successfully
Conclusion: This track looks like CDDA with probability 100%

06 -===- J:\Operation Ivy\1991 - Operation Ivy\06 - Bombshell.flac
Extracted successfully
Conclusion: This track looks like CDDA with probability 100%

07 -===- J:\Operation Ivy\1991 - Operation Ivy\07 - Unity.flac
Extracted successfully
Conclusion: This track looks like CDDA with probability 100%

08 -===- J:\Operation Ivy\1991 - Operation Ivy\08 - Vulnerability.flac
Extracted successfully
Conclusion: This track looks like CDDA with probability 100%

09 -===- J:\Operation Ivy\1991 - Operation Ivy\09 - Bankshot.flac
Extracted successfully
Conclusion: This track looks like CDDA with probability 100%

10 -===- J:\Operation Ivy\1991 - Operation Ivy\10 - One Of These Days.flac
Extracted successfully
Conclusion: This track looks like CDDA with probability 99%

11 -===- J:\Operation Ivy\1991 - Operation Ivy\11 - Gonna Find You.flac
Extracted successfully
Conclusion: This track looks like CDDA with probability 100%

12 -===- J:\Operation Ivy\1991 - Operation Ivy\12 - Bad Town.flac
Extracted successfully
Conclusion: This track looks like CDDA with probability 99%

13 -===- J:\Operation Ivy\1991 - Operation Ivy\13 - Smiling.flac
Extracted successfully
Conclusion: This track looks like CDDA with probability 100%

14 -===- J:\Operation Ivy\1991 - Operation Ivy\14 - Caution.flac
Extracted successfully
Conclusion: This track looks like CDDA with probability 100%

15 -===- J:\Operation Ivy\1991 - Operation Ivy\15 - Freeze Up.flac
Extracted successfully
Conclusion: This track looks like CDDA with probability 100%

16 -===- J:\Operation Ivy\1991 - Operation Ivy\16 - Artificial Life.flac
Extracted successfully
Conclusion: This track looks like CDDA with probability 100%

17 -===- J:\Operation Ivy\1991 - Operation Ivy\17 - Room Without A Window.flac
Extracted successfully
Conclusion: This track looks like CDDA with probability 100%

18 -===- J:\Operation Ivy\1991 - Operation Ivy\18 - Big City.flac
Extracted successfully
Conclusion: This track looks like CDDA with probability 100%

19 -===- J:\Operation Ivy\1991 - Operation Ivy\19 - Missionary.flac
Extracted successfully
Conclusion: This track looks like CDDA with probability 100%

20 -===- J:\Operation Ivy\1991 - Operation Ivy\20 - Junkie's Runnin' Dry.flac
Extracted successfully
Conclusion: This track looks like CDDA with probability 100%

21 -===- J:\Operation Ivy\1991 - Operation Ivy\21 - Here We Go Again.flac
Extracted successfully
Conclusion: This track looks like CDDA with probability 100%

22 -===- J:\Operation Ivy\1991 - Operation Ivy\22 - Hoboken.flac
Extracted successfully
Conclusion: This track looks like CDDA with probability 100%

23 -===- J:\Operation Ivy\1991 - Operation Ivy\23 - Yellin' In My Ear.flac
Extracted successfully
Conclusion: This track looks like CDDA with probability 100%

24 -===- J:\Operation Ivy\1991 - Operation Ivy\24 - Sleep Long.flac
Extracted successfully
Conclusion: This track looks like CDDA with probability 100%

25 -===- J:\Operation Ivy\1991 - Operation Ivy\25 - Healthy Body.flac
Extracted successfully
Conclusion: This track looks like CDDA with probability 100%

26 -===- J:\Operation Ivy\1991 - Operation Ivy\26 - Officer.flac
Extracted successfully
Conclusion: This track looks like CDDA with probability 100%

27 -===- J:\Operation Ivy\1991 - Operation Ivy\27 - I Got No.flac
Extracted successfully
Conclusion: This track looks like CDDA with probability 99%

Код:

 
Exact Audio Copy V0.99 prebeta 3 from 28. July 2007

EAC extraction logfile from 7. January 2008, 18:33

Operation Ivy / Operation Ivy

Used drive  : SONY    DVD RW DRU-810A   Adapter: 4  ID: 0

Read mode               : Secure
Utilize accurate stream : Yes
Defeat audio cache      : Yes
Make use of C2 pointers : No

Read offset correction                      : 618
Overread into Lead-In and Lead-Out          : No
Fill up missing offset samples with silence : Yes
Delete leading and trailing silent blocks   : No
Null samples used in CRC calculations       : Yes
Used interface                              : Installed external ASPI interface
Gap handling                                : Appended to previous track

Used output format              : User Defined Encoder
Selected bitrate                : 128 kBit/s
Quality                         : High
Add ID3 tag                     : No
Command line compressor         : F:\Program Files\Exact Audio Copy\flac.exe
Additional command line options : -8 -A tukey(0.25) -A gauss(0.1875) -b 4096 -V -T "artist=%a" -T "title=%t" -T "album=%g" -T "date=%y" -T "tracknumber=%n" -T "genre=%m" %s --sector-align

TOC of the extracted CD

     Track |   Start  |  Length  | Start sector | End sector
    ---------------------------------------------------------
        1  |  0:00.00 |  1:42.08 |         0    |     7657   
        2  |  1:42.08 |  2:14.02 |      7658    |    17709   
        3  |  3:56.10 |  1:51.23 |     17710    |    26057   
        4  |  5:47.33 |  2:44.15 |     26058    |    38372   
        5  |  8:31.48 |  2:11.25 |     38373    |    48222   
        6  | 10:42.73 |  1:03.45 |     48223    |    52992   
        7  | 11:46.43 |  2:13.62 |     52993    |    63029   
        8  | 14:00.30 |  2:00.33 |     63030    |    72062   
        9  | 16:00.63 |  1:33.32 |     72063    |    79069   
       10  | 17:34.20 |  1:07.25 |     79070    |    84119   
       11  | 18:41.45 |  1:54.10 |     84120    |    92679   
       12  | 20:35.55 |  2:35.33 |     92680    |   104337   
       13  | 23:11.13 |  1:46.42 |    104338    |   112329   
       14  | 24:57.55 |  1:28.10 |    112330    |   118939   
       15  | 26:25.65 |  2:20.10 |    118940    |   129449   
       16  | 28:46.00 |  2:05.05 |    129450    |   138829   
       17  | 30:51.05 |  1:32.20 |    138830    |   145749   
       18  | 32:23.25 |  2:16.50 |    145750    |   155999   
       19  | 34:40.00 |  2:07.05 |    156000    |   165529   
       20  | 36:47.05 |  2:05.43 |    165530    |   174947   
       21  | 38:52.48 |  2:04.67 |    174948    |   184314   
       22  | 40:57.40 |  1:11.58 |    184315    |   189697   
       23  | 42:09.23 |  1:33.35 |    189698    |   196707   
       24  | 43:42.58 |  2:08.30 |    196708    |   206337   
       25  | 45:51.13 |  1:40.62 |    206338    |   213899   
       26  | 47:32.00 |  1:59.25 |    213900    |   222849   
       27  | 49:31.25 |  1:16.18 |    222850    |   228567   

Track  1

     Filename C:\Torrent Uploads\Operation Ivy - Operation Ivy\01 - Knowledge.wav

     Pre-gap length  0:00:02.00

     Peak level 94.3 %
     Track quality 100.0 %
     Test CRC 07E88F45
     Copy CRC 07E88F45
     Accurately ripped (confidence 3)  [73F67731]
     Copy OK

Track  2

     Filename C:\Torrent Uploads\Operation Ivy - Operation Ivy\02 - Sound System.wav

     Peak level 94.1 %
     Track quality 100.0 %
     Test CRC 17C03769
     Copy CRC 17C03769
     Accurately ripped (confidence 3)  [1EED0EF9]
     Copy OK

Track  3

     Filename C:\Torrent Uploads\Operation Ivy - Operation Ivy\03 - Jaded.wav

     Peak level 94.7 %
     Track quality 100.0 %
     Test CRC 2B4545CA
     Copy CRC 2B4545CA
     Accurately ripped (confidence 3)  [341ACED2]
     Copy OK

Track  4

     Filename C:\Torrent Uploads\Operation Ivy - Operation Ivy\04 - Take Warning.wav

     Peak level 94.4 %
     Track quality 100.0 %
     Test CRC 9F498864
     Copy CRC 9F498864
     Accurately ripped (confidence 3)  [F22334E8]
     Copy OK

Track  5

     Filename C:\Torrent Uploads\Operation Ivy - Operation Ivy\05 - The Crowd.wav

     Peak level 96.2 %
     Track quality 100.0 %
     Test CRC C729E30C
     Copy CRC C729E30C
     Accurately ripped (confidence 3)  [CD04AADF]
     Copy OK

Track  6

     Filename C:\Torrent Uploads\Operation Ivy - Operation Ivy\06 - Bombshell.wav

     Peak level 93.8 %
     Track quality 100.0 %
     Test CRC 1FB50CDB
     Copy CRC 1FB50CDB
     Accurately ripped (confidence 3)  [84BC337A]
     Copy OK

Track  7

     Filename C:\Torrent Uploads\Operation Ivy - Operation Ivy\07 - Unity.wav

     Peak level 94.2 %
     Track quality 99.9 %
     Test CRC F3C3C49E
     Copy CRC F3C3C49E
     Accurately ripped (confidence 3)  [AA8B1F69]
     Copy OK

Track  8

     Filename C:\Torrent Uploads\Operation Ivy - Operation Ivy\08 - Vulnerability.wav

     Peak level 93.3 %
     Track quality 100.0 %
     Test CRC 8A29E3E3
     Copy CRC 8A29E3E3
     Accurately ripped (confidence 3)  [074AC1C1]
     Copy OK

Track  9

     Filename C:\Torrent Uploads\Operation Ivy - Operation Ivy\09 - Bankshot.wav

     Peak level 95.3 %
     Track quality 100.0 %
     Test CRC F7504606
     Copy CRC F7504606
     Accurately ripped (confidence 3)  [249DA9A8]
     Copy OK

Track 10

     Filename C:\Torrent Uploads\Operation Ivy - Operation Ivy\10 - One Of These Days.wav

     Peak level 96.2 %
     Track quality 100.0 %
     Test CRC 05906F5C
     Copy CRC 05906F5C
     Accurately ripped (confidence 3)  [3AB33697]
     Copy OK

Track 11

     Filename C:\Torrent Uploads\Operation Ivy - Operation Ivy\11 - Gonna Find You.wav

     Peak level 96.9 %
     Track quality 100.0 %
     Test CRC 91D9D39F
     Copy CRC 91D9D39F
     Accurately ripped (confidence 3)  [87F4A47E]
     Copy OK

Track 12

     Filename C:\Torrent Uploads\Operation Ivy - Operation Ivy\12 - Bad Town.wav

     Peak level 95.3 %
     Track quality 100.0 %
     Test CRC CD077189
     Copy CRC CD077189
     Accurately ripped (confidence 3)  [03BA6DEA]
     Copy OK

Track 13

     Filename C:\Torrent Uploads\Operation Ivy - Operation Ivy\13 - Smiling.wav

     Peak level 96.9 %
     Track quality 99.9 %
     Test CRC FB20D55F
     Copy CRC FB20D55F
     Accurately ripped (confidence 3)  [98957B3E]
     Copy OK

Track 14

     Filename C:\Torrent Uploads\Operation Ivy - Operation Ivy\14 - Caution.wav

     Peak level 94.3 %
     Track quality 100.0 %
     Test CRC D899B223
     Copy CRC D899B223
     Accurately ripped (confidence 3)  [87A034C4]
     Copy OK

Track 15

     Filename C:\Torrent Uploads\Operation Ivy - Operation Ivy\15 - Freeze Up.wav

     Peak level 96.3 %
     Track quality 99.9 %
     Test CRC BEB19E8C
     Copy CRC BEB19E8C
     Accurately ripped (confidence 3)  [D2247F1B]
     Copy OK

Track 16

     Filename C:\Torrent Uploads\Operation Ivy - Operation Ivy\16 - Artificial Life.wav

     Peak level 94.8 %
     Track quality 100.0 %
     Test CRC 5FD45958
     Copy CRC 5FD45958
     Accurately ripped (confidence 3)  [68BA2092]
     Copy OK

Track 17

     Filename C:\Torrent Uploads\Operation Ivy - Operation Ivy\17 - Room Without A Window.wav

     Suspicious position 0:01:31

     Peak level 96.0 %
     Track quality 99.4 %
     Test CRC D8A0BBE9
     Copy CRC D8A0BBE9
     Cannot be verified as accurate (confidence 2)  [E019D01B], AccurateRip returned [6FEF6188]
     Copy finished

Track 18

     Filename C:\Torrent Uploads\Operation Ivy - Operation Ivy\18 - Big City.wav

     Peak level 95.2 %
     Track quality 100.0 %
     Test CRC A9D9C32D
     Copy CRC A9D9C32D
     Accurately ripped (confidence 3)  [5A9EF65F]
     Copy OK

Track 19

     Filename C:\Torrent Uploads\Operation Ivy - Operation Ivy\19 - Missionary.wav

     Peak level 94.4 %
     Track quality 100.0 %
     Test CRC C501259F
     Copy CRC C501259F
     Accurately ripped (confidence 3)  [D91D0FE5]
     Copy OK

Track 20

     Filename C:\Torrent Uploads\Operation Ivy - Operation Ivy\20 - Junkie's Runnin' Dry.wav

     Peak level 94.5 %
     Track quality 100.0 %
     Test CRC 607A5960
     Copy CRC 607A5960
     Accurately ripped (confidence 3)  [4311371A]
     Copy OK

Track 21

     Filename C:\Torrent Uploads\Operation Ivy - Operation Ivy\21 - Here We Go Again.wav

     Peak level 93.8 %
     Track quality 100.0 %
     Test CRC F79892E8
     Copy CRC F79892E8
     Accurately ripped (confidence 3)  [547896B8]
     Copy OK

Track 22

     Filename C:\Torrent Uploads\Operation Ivy - Operation Ivy\22 - Hoboken.wav

     Peak level 93.6 %
     Track quality 100.0 %
     Test CRC A95A6B85
     Copy CRC A95A6B85
     Accurately ripped (confidence 3)  [8877AF01]
     Copy OK

Track 23

     Filename C:\Torrent Uploads\Operation Ivy - Operation Ivy\23 - Yellin' In My Ear.wav

     Peak level 93.6 %
     Track quality 100.0 %
     Test CRC E36CF8FA
     Copy CRC E36CF8FA
     Accurately ripped (confidence 3)  [0AC785B0]
     Copy OK

Track 24

     Filename C:\Torrent Uploads\Operation Ivy - Operation Ivy\24 - Sleep Long.wav

     Peak level 93.2 %
     Track quality 100.0 %
     Test CRC F7967DD6
     Copy CRC F7967DD6
     Accurately ripped (confidence 3)  [995FA27D]
     Copy OK

Track 25

     Filename C:\Torrent Uploads\Operation Ivy - Operation Ivy\25 - Healthy Body.wav

     Peak level 94.2 %
     Track quality 100.0 %
     Test CRC AAFEF98D
     Copy CRC AAFEF98D
     Accurately ripped (confidence 3)  [87462265]
     Copy OK

Track 26

     Filename C:\Torrent Uploads\Operation Ivy - Operation Ivy\26 - Officer.wav

     Peak level 84.1 %
     Track quality 100.0 %
     Test CRC BD369761
     Copy CRC BD369761
     Accurately ripped (confidence 3)  [E8273A26]
     Copy OK

Track 27

     Filename C:\Torrent Uploads\Operation Ivy - Operation Ivy\27 - I Got No.wav

     Peak level 85.4 %
     Track quality 100.0 %
     Test CRC 859701AB
     Copy CRC 859701AB
     Accurately ripped (confidence 3)  [CE00E755]
     Copy OK

26 track(s) accurately ripped
 1 track(s) could not be verified as accurate

Some tracks could not be verified as accurate

There were errors

End of status report

Код:

 
REM GENRE Ska
REM DATE 1991
REM DISCID 870BE71B
REM COMMENT "ExactAudioCopy v0.99pb3"
PERFORMER "Operation Ivy"
TITLE "Operation Ivy"
FILE "01 - Knowledge.wav" WAVE
  TRACK 01 AUDIO
    TITLE "Knowledge"
    PERFORMER "Operation Ivy"
    INDEX 01 00:00:00
FILE "02 - Sound System.wav" WAVE
  TRACK 02 AUDIO
    TITLE "Sound System"
    PERFORMER "Operation Ivy"
    FLAGS DCP
    INDEX 01 00:00:00
FILE "03 - Jaded.wav" WAVE
  TRACK 03 AUDIO
    TITLE "Jaded"
    PERFORMER "Operation Ivy"
    FLAGS DCP
    INDEX 01 00:00:00
FILE "04 - Take Warning.wav" WAVE
  TRACK 04 AUDIO
    TITLE "Take Warning"
    PERFORMER "Operation Ivy"
    FLAGS DCP
    INDEX 01 00:00:00
FILE "05 - The Crowd.wav" WAVE
  TRACK 05 AUDIO
    TITLE "The Crowd"
    PERFORMER "Operation Ivy"
    FLAGS DCP
    INDEX 01 00:00:00
FILE "06 - Bombshell.wav" WAVE
  TRACK 06 AUDIO
    TITLE "Bombshell"
    PERFORMER "Operation Ivy"
    FLAGS DCP
    INDEX 01 00:00:00
FILE "07 - Unity.wav" WAVE
  TRACK 07 AUDIO
    TITLE "Unity"
    PERFORMER "Operation Ivy"
    FLAGS DCP
    INDEX 01 00:00:00
FILE "08 - Vulnerability.wav" WAVE
  TRACK 08 AUDIO
    TITLE "Vulnerability"
    PERFORMER "Operation Ivy"
    FLAGS DCP
    INDEX 01 00:00:00
FILE "09 - Bankshot.wav" WAVE
  TRACK 09 AUDIO
    TITLE "Bankshot"
    PERFORMER "Operation Ivy"
    FLAGS DCP
    INDEX 01 00:00:00
FILE "10 - One Of These Days.wav" WAVE
  TRACK 10 AUDIO
    TITLE "One Of These Days"
    PERFORMER "Operation Ivy"
    FLAGS DCP
    INDEX 01 00:00:00
FILE "11 - Gonna Find You.wav" WAVE
  TRACK 11 AUDIO
    TITLE "Gonna Find You"
    PERFORMER "Operation Ivy"
    FLAGS DCP
    INDEX 01 00:00:00
FILE "12 - Bad Town.wav" WAVE
  TRACK 12 AUDIO
    TITLE "Bad Town"
    PERFORMER "Operation Ivy"
    FLAGS DCP
    INDEX 01 00:00:00
FILE "13 - Smiling.wav" WAVE
  TRACK 13 AUDIO
    TITLE "Smiling"
    PERFORMER "Operation Ivy"
    FLAGS DCP
    INDEX 01 00:00:00
FILE "14 - Caution.wav" WAVE
  TRACK 14 AUDIO
    TITLE "Caution"
    PERFORMER "Operation Ivy"
    FLAGS DCP
    INDEX 01 00:00:00
FILE "15 - Freeze Up.wav" WAVE
  TRACK 15 AUDIO
    TITLE "Freeze Up"
    PERFORMER "Operation Ivy"
    FLAGS DCP
    INDEX 01 00:00:00
FILE "16 - Artificial Life.wav" WAVE
  TRACK 16 AUDIO
    TITLE "Artificial Life"
    PERFORMER "Operation Ivy"
    FLAGS DCP
    INDEX 01 00:00:00
FILE "17 - Room Without A Window.wav" WAVE
  TRACK 17 AUDIO
    TITLE "Room Without A Window"
    PERFORMER "Operation Ivy"
    FLAGS DCP
    INDEX 01 00:00:00
FILE "18 - Big City.wav" WAVE
  TRACK 18 AUDIO
    TITLE "Big City"
    PERFORMER "Operation Ivy"
    FLAGS DCP
    INDEX 01 00:00:00
FILE "19 - Missionary.wav" WAVE
  TRACK 19 AUDIO
    TITLE "Missionary"
    PERFORMER "Operation Ivy"
    FLAGS DCP
    INDEX 01 00:00:00
FILE "20 - Junkie's Runnin' Dry.wav" WAVE
  TRACK 20 AUDIO
    TITLE "Junkie's Runnin' Dry"
    PERFORMER "Operation Ivy"
    FLAGS DCP
    INDEX 01 00:00:00
FILE "21 - Here We Go Again.wav" WAVE
  TRACK 21 AUDIO
    TITLE "Here We Go Again"
    PERFORMER "Operation Ivy"
    FLAGS DCP
    INDEX 01 00:00:00
FILE "22 - Hoboken.wav" WAVE
  TRACK 22 AUDIO
    TITLE "Hoboken"
    PERFORMER "Operation Ivy"
    FLAGS DCP
    INDEX 01 00:00:00
FILE "23 - Yellin' In My Ear.wav" WAVE
  TRACK 23 AUDIO
    TITLE "Yellin' In My Ear"
    PERFORMER "Operation Ivy"
    FLAGS DCP
    INDEX 01 00:00:00
FILE "24 - Sleep Long.wav" WAVE
  TRACK 24 AUDIO
    TITLE "Sleep Long"
    PERFORMER "Operation Ivy"
    FLAGS DCP
    INDEX 01 00:00:00
FILE "25 - Healthy Body.wav" WAVE
  TRACK 25 AUDIO
    TITLE "Healthy Body"
    PERFORMER "Operation Ivy"
    FLAGS DCP
    INDEX 01 00:00:00
FILE "26 - Officer.wav" WAVE
  TRACK 26 AUDIO
    TITLE "Officer"
    PERFORMER "Operation Ivy"
    FLAGS DCP
    INDEX 01 00:00:00
FILE "27 - I Got No.wav" WAVE
  TRACK 27 AUDIO
    TITLE "I Got No"
    PERFORMER "Operation Ivy"
    FLAGS DCP
    INDEX 01 00:00:00

01. Uncertain
02. Troublebound
03. Someday
04. Plea for Peace
05. Healthy Body (extended)
06. Bombshell
07. Hedgecore
08. Hangin' Out
09. Sarcastic
10. Left Behind
11. Break it Down
12. Steppin' Out
13. Artificial Life
14. Freeze Up
15. Sound System
16. Jaded
17. Take Warning
18. 6 to 10
19. Missionary
20. Bankshot
21. Unity (w horns)
22. Smiling
23. One of These Days
24. Face That Screams
25. Gonna Find You
26. Room without a Window
27. Hangin' Out
28. Sound System (instrumental)
29. Sound System (extended)
30. Unity (instrumental)

Код:

 
AUDIOCHECKER v1.2 - by Dester - opdester@freemail.hu
~~~~~~~~~~~~~~~~~

01 -===- J:\Operation Ivy\1996 - Unreleased Energy\01 - Operation Ivy - Uncertain (1987 Demo).flac
Extracted successfully
Conclusion: This track looks like CDDA with probability 99%

02 -===- J:\Operation Ivy\1996 - Unreleased Energy\02 - Operation Ivy - Trouble Bound (1987 Demo).flac
Extracted successfully
Conclusion: This track looks like CDDA with probability 100%

03 -===- J:\Operation Ivy\1996 - Unreleased Energy\03 - Operation Ivy - SomeDay (1987 Demo).flac
Extracted successfully
Conclusion: This track looks like CDDA with probability 100%

04 -===- J:\Operation Ivy\1996 - Unreleased Energy\04 - Operation Ivy - Plea For Peace (1987 Demo).flac
Extracted successfully
Conclusion: This track looks like CDDA with probability 100%

05 -===- J:\Operation Ivy\1996 - Unreleased Energy\05 - Operation Ivy - Healthy Body (Extended Version) (1988 Gilman St. Demo).flac
Extracted successfully
Conclusion: This track looks like CDDA with probability 100%

06 -===- J:\Operation Ivy\1996 - Unreleased Energy\06 - Operation Ivy - Bombshell (1988 Gilman St. Demo).flac
Extracted successfully
Conclusion: This track looks like CDDA with probability 100%

07 -===- J:\Operation Ivy\1996 - Unreleased Energy\07 - Operation Ivy - Hedgecore (1988 Gilman St. Demo).flac
Extracted successfully
Conclusion: This track looks like CDDA with probability 100%

08 -===- J:\Operation Ivy\1996 - Unreleased Energy\08 - Operation Ivy - Hangin' Out (1988 Gilman St. Demo).flac
Extracted successfully
Conclusion: This track looks like CDDA with probability 100%

09 -===- J:\Operation Ivy\1996 - Unreleased Energy\09 - Operation Ivy - Sarcastic (1988 Gilman St. Demo).flac
Extracted successfully
Conclusion: This track looks like CDDA with probability 100%

10 -===- J:\Operation Ivy\1996 - Unreleased Energy\10 - Operation Ivy - Left Behind (1988 Gilman St. Demo).flac
Extracted successfully
Conclusion: This track looks like CDDA with probability 100%

11 -===- J:\Operation Ivy\1996 - Unreleased Energy\11 - Operation Ivy - Break It Down (1988 Gilman St. Demo).flac
Extracted successfully
Conclusion: This track looks like CDDA with probability 100%

12 -===- J:\Operation Ivy\1996 - Unreleased Energy\12 - Operation Ivy - Steppin' Out (1988 Gilman St. Demo).flac
Extracted successfully
Conclusion: This track looks like CDDA with probability 100%

13 -===- J:\Operation Ivy\1996 - Unreleased Energy\13 - Operation Ivy - Artificial Life (1988 Energy Demos).flac
Extracted successfully
Conclusion: This track looks like CDDA with probability 100%

14 -===- J:\Operation Ivy\1996 - Unreleased Energy\14 - Operation Ivy - Freeze Up (1988 Energy Demos).flac
Extracted successfully
Conclusion: This track looks like CDDA with probability 100%

15 -===- J:\Operation Ivy\1996 - Unreleased Energy\15 - Operation Ivy - Sound System (1988 Energy Demos).flac
Extracted successfully
Conclusion: This track looks like CDDA with probability 100%

16 -===- J:\Operation Ivy\1996 - Unreleased Energy\16 - Operation Ivy - Jaded (1988 Energy Demos).flac
Extracted successfully
Conclusion: This track looks like CDDA with probability 99%

17 -===- J:\Operation Ivy\1996 - Unreleased Energy\17 - Operation Ivy - Take Warning (1988 Energy Demos).flac
Extracted successfully
Conclusion: This track looks like CDDA with probability 100%

18 -===- J:\Operation Ivy\1996 - Unreleased Energy\18 - Operation Ivy - 6 To 10 (1988 Energy Demos).flac
Extracted successfully
Conclusion: This track looks like CDDA with probability 100%

19 -===- J:\Operation Ivy\1996 - Unreleased Energy\19 - Operation Ivy - Missionary (1988 Energy Demos).flac
Extracted successfully
Conclusion: This track looks like CDDA with probability 100%

20 -===- J:\Operation Ivy\1996 - Unreleased Energy\20 - Operation Ivy - Bankshot (1988 Energy Demos).flac
Extracted successfully
Conclusion: This track looks like CDDA with probability 100%

21 -===- J:\Operation Ivy\1996 - Unreleased Energy\21 - Operation Ivy - Unity (With Horns) (1988 Energy Demos).flac
Extracted successfully
Conclusion: This track looks like CDDA with probability 100%

22 -===- J:\Operation Ivy\1996 - Unreleased Energy\22 - Operation Ivy - Smiling (1988 Energy Demos).flac
Extracted successfully
Conclusion: This track looks like CDDA with probability 100%

23 -===- J:\Operation Ivy\1996 - Unreleased Energy\23 - Operation Ivy - One Of These Days (1988 Energy Demos).flac
Extracted successfully
Conclusion: This track looks like CDDA with probability 100%

24 -===- J:\Operation Ivy\1996 - Unreleased Energy\24 - Operation Ivy - Face That Screams (1988 Energy Demos).flac
Extracted successfully
Conclusion: This track looks like CDDA with probability 100%

25 -===- J:\Operation Ivy\1996 - Unreleased Energy\25 - Operation Ivy - Gonna Find You (1988 Energy Demos).flac
Extracted successfully
Conclusion: This track looks like CDDA with probability 99%

26 -===- J:\Operation Ivy\1996 - Unreleased Energy\26 - Operation Ivy - Room Without A Window (1988 Energy Demos).flac
Extracted successfully
Conclusion: This track looks like CDDA with probability 100%

27 -===- J:\Operation Ivy\1996 - Unreleased Energy\27 - Operation Ivy - Hangin' Out (1988 Energy Demos).flac
Extracted successfully
Conclusion: This track looks like CDDA with probability 100%

28 -===- J:\Operation Ivy\1996 - Unreleased Energy\28 - Operation Ivy - Sound System (Instro) (1988 Energy Demos).flac
Extracted successfully
Conclusion: This track looks like CDDA with probability 100%

29 -===- J:\Operation Ivy\1996 - Unreleased Energy\29 - Operation Ivy - Sound System (Ext.) (1988 Energy Demos).flac
Extracted successfully
Conclusion: This track looks like CDDA with probability 100%

30 -===- J:\Operation Ivy\1996 - Unreleased Energy\30 - Operation Ivy - Unity (Instro W- Sax) (1988 Energy Demos).flac
Extracted successfully
Conclusion: This track looks like CDDA with probability 100%

Код:

 
EAC extraction logfile from 25. June 2008, 10:38 for CD
Operation Ivy / Unreleased Energy

Used drive  : PLEXTOR DVDR   PX-708A   Adapter: 1  ID: 1
Read mode   : Secure with NO C2, accurate stream, disable cache
Read offset correction : 30
Overread into Lead-In and Lead-Out : No

Used output format : C:\Program Files\FLAC\flac.exe   (User Defined Encoder)
                     320 kBit/s
                     Additional command line options : -V -8 -T "artist=%a" -T "title=%t" -T "album=%g" -T "date=%y" -T "tracknumber=%n" -T "genre=%m" %s 

Other options      :
    Fill up missing offset samples with silence : Yes
    Delete leading and trailing silent blocks : No
    Native Win32 interface for Win NT & 2000

Track  1
     Filename E:\Ripped\Operation Ivy - Unreleased Energy (flac)\01 - Operation Ivy - Uncertain (1987 Demo).wav

     Pre-gap length  0:00:02.00

     Peak level 94.5 %
     Track quality 99.9 %
     Test CRC DB39147E
     Copy CRC DB39147E
     Copy OK

Track  2
     Filename E:\Ripped\Operation Ivy - Unreleased Energy (flac)\02 - Operation Ivy - Trouble Bound (1987 Demo).wav

     Pre-gap length  0:00:02.02

     Peak level 100.0 %
     Track quality 100.0 %
     Test CRC 6E27C947
     Copy CRC 6E27C947
     Copy OK

Track  3
     Filename E:\Ripped\Operation Ivy - Unreleased Energy (flac)\03 - Operation Ivy - SomeDay (1987 Demo).wav

     Pre-gap length  0:00:01.02

     Peak level 97.0 %
     Track quality 100.0 %
     Test CRC 3C4305E0
     Copy CRC 3C4305E0
     Copy OK

Track  4
     Filename E:\Ripped\Operation Ivy - Unreleased Energy (flac)\04 - Operation Ivy - Plea For Peace (1987 Demo).wav

     Pre-gap length  0:00:03.02

     Peak level 98.8 %
     Track quality 100.0 %
     Test CRC 4BF3B805
     Copy CRC 4BF3B805
     Copy OK

Track  5
     Filename E:\Ripped\Operation Ivy - Unreleased Energy (flac)\05 - Operation Ivy - Healthy Body (Extended Version) (1988 Gilman St. Demo).wav

     Pre-gap length  0:00:01.02

     Peak level 100.0 %
     Track quality 100.0 %
     Test CRC F284907A
     Copy CRC F284907A
     Copy OK

Track  6
     Filename E:\Ripped\Operation Ivy - Unreleased Energy (flac)\06 - Operation Ivy - Bombshell (1988 Gilman St. Demo).wav

     Pre-gap length  0:00:00.05

     Peak level 98.4 %
     Track quality 100.0 %
     Test CRC CAEDAE00
     Copy CRC CAEDAE00
     Copy OK

Track  7
     Filename E:\Ripped\Operation Ivy - Unreleased Energy (flac)\07 - Operation Ivy - Hedgecore (1988 Gilman St. Demo).wav

     Pre-gap length  0:00:00.05

     Peak level 94.0 %
     Track quality 100.0 %
     Test CRC 74F1B319
     Copy CRC 74F1B319
     Copy OK

Track  8
     Filename E:\Ripped\Operation Ivy - Unreleased Energy (flac)\08 - Operation Ivy - Hangin' Out (1988 Gilman St. Demo).wav

     Pre-gap length  0:00:00.05

     Peak level 100.0 %
     Track quality 100.0 %
     Test CRC 46DE6CAA
     Copy CRC 46DE6CAA
     Copy OK

Track  9
     Filename E:\Ripped\Operation Ivy - Unreleased Energy (flac)\09 - Operation Ivy - Sarcastic (1988 Gilman St. Demo).wav

     Pre-gap length  0:00:00.05

     Peak level 84.2 %
     Track quality 100.0 %
     Test CRC FDE08816
     Copy CRC FDE08816
     Copy OK

Track 10
     Filename E:\Ripped\Operation Ivy - Unreleased Energy (flac)\10 - Operation Ivy - Left Behind (1988 Gilman St. Demo).wav

     Pre-gap length  0:00:00.06

     Peak level 98.5 %
     Track quality 100.0 %
     Test CRC F8B329EA
     Copy CRC F8B329EA
     Copy OK

Track 11
     Filename E:\Ripped\Operation Ivy - Unreleased Energy (flac)\11 - Operation Ivy - Break It Down (1988 Gilman St. Demo).wav

     Pre-gap length  0:00:00.05

     Peak level 100.0 %
     Track quality 100.0 %
     Test CRC 799BC4DF
     Copy CRC 799BC4DF
     Copy OK

Track 12
     Filename E:\Ripped\Operation Ivy - Unreleased Energy (flac)\12 - Operation Ivy - Steppin' Out (1988 Gilman St. Demo).wav

     Pre-gap length  0:00:00.06

     Peak level 99.8 %
     Track quality 100.0 %
     Test CRC CC11FA7D
     Copy CRC CC11FA7D
     Copy OK

Track 13
     Filename E:\Ripped\Operation Ivy - Unreleased Energy (flac)\13 - Operation Ivy - Artificial Life (1988 Energy Demos).wav

     Pre-gap length  0:00:01.04

     Peak level 98.9 %
     Track quality 99.9 %
     Test CRC 385F12B7
     Copy CRC 385F12B7
     Copy OK

Track 14
     Filename E:\Ripped\Operation Ivy - Unreleased Energy (flac)\14 - Operation Ivy - Freeze Up (1988 Energy Demos).wav

     Pre-gap length  0:00:03.02

     Peak level 100.0 %
     Track quality 100.0 %
     Test CRC D9CB1F44
     Copy CRC D9CB1F44
     Copy OK

Track 15
     Filename E:\Ripped\Operation Ivy - Unreleased Energy (flac)\15 - Operation Ivy - Sound System (1988 Energy Demos).wav

     Pre-gap length  0:00:02.93

     Peak level 99.1 %
     Track quality 100.0 %
     Test CRC 04099F72
     Copy CRC 04099F72
     Copy OK

Track 16
     Filename E:\Ripped\Operation Ivy - Unreleased Energy (flac)\16 - Operation Ivy - Jaded (1988 Energy Demos).wav

     Pre-gap length  0:00:03.02

     Peak level 76.4 %
     Track quality 100.0 %
     Test CRC FB4ABC80
     Copy CRC FB4ABC80
     Copy OK

Track 17
     Filename E:\Ripped\Operation Ivy - Unreleased Energy (flac)\17 - Operation Ivy - Take Warning (1988 Energy Demos).wav

     Pre-gap length  0:00:00.06

     Peak level 94.3 %
     Track quality 100.0 %
     Test CRC 5CD42473
     Copy CRC 5CD42473
     Copy OK

Track 18
     Filename E:\Ripped\Operation Ivy - Unreleased Energy (flac)\18 - Operation Ivy - 6 To 10 (1988 Energy Demos).wav

     Pre-gap length  0:00:01.02

     Peak level 100.0 %
     Track quality 99.8 %
     Test CRC 225B3AD7
     Copy CRC 225B3AD7
     Copy OK

Track 19
     Filename E:\Ripped\Operation Ivy - Unreleased Energy (flac)\19 - Operation Ivy - Missionary (1988 Energy Demos).wav

     Pre-gap length  0:00:01.02

     Peak level 99.6 %
     Track quality 99.9 %
     Test CRC DF5F58B0
     Copy CRC DF5F58B0
     Copy OK

Track 20
     Filename E:\Ripped\Operation Ivy - Unreleased Energy (flac)\20 - Operation Ivy - Bankshot (1988 Energy Demos).wav

     Pre-gap length  0:00:01.02

     Peak level 99.5 %
     Track quality 100.0 %
     Test CRC F07E0394
     Copy CRC F07E0394
     Copy OK

Track 21
     Filename E:\Ripped\Operation Ivy - Unreleased Energy (flac)\21 - Operation Ivy - Unity (With Horns) (1988 Energy Demos).wav

     Pre-gap length  0:00:01.02

     Peak level 100.0 %
     Track quality 100.0 %
     Test CRC 92655B8A
     Copy CRC 92655B8A
     Copy OK

Track 22
     Filename E:\Ripped\Operation Ivy - Unreleased Energy (flac)\22 - Operation Ivy - Smiling (1988 Energy Demos).wav

     Pre-gap length  0:00:01.02

     Peak level 99.3 %
     Track quality 100.0 %
     Test CRC CFDFE7F1
     Copy CRC CFDFE7F1
     Copy OK

Track 23
     Filename E:\Ripped\Operation Ivy - Unreleased Energy (flac)\23 - Operation Ivy - One Of These Days (1988 Energy Demos).wav

     Pre-gap length  0:00:01.02

     Peak level 95.4 %
     Track quality 100.0 %
     Test CRC 72DCE9C7
     Copy CRC 72DCE9C7
     Copy OK

Track 24
     Filename E:\Ripped\Operation Ivy - Unreleased Energy (flac)\24 - Operation Ivy - Face That Screams (1988 Energy Demos).wav

     Pre-gap length  0:00:00.06

     Peak level 90.0 %
     Track quality 100.0 %
     Test CRC 054590EC
     Copy CRC 054590EC
     Copy OK

Track 25
     Filename E:\Ripped\Operation Ivy - Unreleased Energy (flac)\25 - Operation Ivy - Gonna Find You (1988 Energy Demos).wav

     Pre-gap length  0:00:00.05

     Peak level 99.1 %
     Track quality 100.0 %
     Test CRC 512A808D
     Copy CRC 512A808D
     Copy OK

Track 26
     Filename E:\Ripped\Operation Ivy - Unreleased Energy (flac)\26 - Operation Ivy - Room Without A Window (1988 Energy Demos).wav

     Pre-gap length  0:00:00.06

     Peak level 87.2 %
     Track quality 100.0 %
     Test CRC FDCE8B4C
     Copy CRC FDCE8B4C
     Copy OK

Track 27
     Filename E:\Ripped\Operation Ivy - Unreleased Energy (flac)\27 - Operation Ivy - Hangin' Out (1988 Energy Demos).wav

     Pre-gap length  0:00:00.06

     Peak level 97.8 %
     Track quality 100.0 %
     Test CRC 91A04CAC
     Copy CRC 91A04CAC
     Copy OK

Track 28
     Filename E:\Ripped\Operation Ivy - Unreleased Energy (flac)\28 - Operation Ivy - Sound System (Instro) (1988 Energy Demos).wav

     Pre-gap length  0:00:00.05

     Peak level 100.0 %
     Track quality 100.0 %
     Test CRC BFFBC63C
     Copy CRC BFFBC63C
     Copy OK

Track 29
     Filename E:\Ripped\Operation Ivy - Unreleased Energy (flac)\29 - Operation Ivy - Sound System (Ext.) (1988 Energy Demos).wav

     Pre-gap length  0:00:00.05

     Peak level 97.5 %
     Track quality 100.0 %
     Test CRC 3CA6FFE7
     Copy CRC 3CA6FFE7
     Copy OK

Track 30
     Filename E:\Ripped\Operation Ivy - Unreleased Energy (flac)\30 - Operation Ivy - Unity (Instro W- Sax) (1988 Energy Demos).wav

     Pre-gap length  0:00:00.06

     Peak level 72.1 %
     Track quality 100.0 %
     Test CRC EE0DA6C0
     Copy CRC EE0DA6C0
     Copy OK

No errors occured

End of status report

Код:

 
REM GENRE "Punk Rock"
REM DATE 1996
REM DISCID 8D0F2B1E
REM COMMENT "ExactAudioCopy v0.95b3"
PERFORMER "Operation Ivy"
TITLE "Unreleased Energy"
FILE "01 - Operation Ivy - Uncertain (1987 Demo).wav" WAVE
  TRACK 01 AUDIO
    TITLE "Uncertain (1987 Demo)"
    PERFORMER "Operation Ivy"
    INDEX 01 00:00:00
  TRACK 02 AUDIO
    TITLE "Trouble Bound (1987 Demo)"
    PERFORMER "Operation Ivy"
    INDEX 00 02:07:10
FILE "02 - Operation Ivy - Trouble Bound (1987 Demo).wav" WAVE
    INDEX 01 00:00:00
  TRACK 03 AUDIO
    TITLE "SomeDay (1987 Demo)"
    PERFORMER "Operation Ivy"
    INDEX 00 01:36:11
FILE "03 - Operation Ivy - SomeDay (1987 Demo).wav" WAVE
    INDEX 01 00:00:00
  TRACK 04 AUDIO
    TITLE "Plea For Peace (1987 Demo)"
    PERFORMER "Operation Ivy"
    INDEX 00 01:37:73
FILE "04 - Operation Ivy - Plea For Peace (1987 Demo).wav" WAVE
    INDEX 01 00:00:00
  TRACK 05 AUDIO
    TITLE "Healthy Body (Extended Version) (1988 Gilman St. Demo)"
    PERFORMER "Operation Ivy"
    INDEX 00 02:11:23
FILE "05 - Operation Ivy - Healthy Body (Extended Version) (1988 Gilman St. Demo).wav" WAVE
    INDEX 01 00:00:00
  TRACK 06 AUDIO
    TITLE "Bombshell (1988 Gilman St. Demo)"
    PERFORMER "Operation Ivy"
    INDEX 00 03:22:23
FILE "06 - Operation Ivy - Bombshell (1988 Gilman St. Demo).wav" WAVE
    INDEX 01 00:00:00
  TRACK 07 AUDIO
    TITLE "Hedgecore (1988 Gilman St. Demo)"
    PERFORMER "Operation Ivy"
    INDEX 00 01:26:06
FILE "07 - Operation Ivy - Hedgecore (1988 Gilman St. Demo).wav" WAVE
    INDEX 01 00:00:00
  TRACK 08 AUDIO
    TITLE "Hangin' Out (1988 Gilman St. Demo)"
    PERFORMER "Operation Ivy"
    INDEX 00 01:39:71
FILE "08 - Operation Ivy - Hangin' Out (1988 Gilman St. Demo).wav" WAVE
    INDEX 01 00:00:00
  TRACK 09 AUDIO
    TITLE "Sarcastic (1988 Gilman St. Demo)"
    PERFORMER "Operation Ivy"
    INDEX 00 01:24:61
FILE "09 - Operation Ivy - Sarcastic (1988 Gilman St. Demo).wav" WAVE
    INDEX 01 00:00:00
  TRACK 10 AUDIO
    TITLE "Left Behind (1988 Gilman St. Demo)"
    PERFORMER "Operation Ivy"
    INDEX 00 01:38:28
FILE "10 - Operation Ivy - Left Behind (1988 Gilman St. Demo).wav" WAVE
    INDEX 01 00:00:00
  TRACK 11 AUDIO
    TITLE "Break It Down (1988 Gilman St. Demo)"
    PERFORMER "Operation Ivy"
    INDEX 00 02:28:58
FILE "11 - Operation Ivy - Break It Down (1988 Gilman St. Demo).wav" WAVE
    INDEX 01 00:00:00
  TRACK 12 AUDIO
    TITLE "Steppin' Out (1988 Gilman St. Demo)"
    PERFORMER "Operation Ivy"
    INDEX 00 01:46:28
FILE "12 - Operation Ivy - Steppin' Out (1988 Gilman St. Demo).wav" WAVE
    INDEX 01 00:00:00
  TRACK 13 AUDIO
    TITLE "Artificial Life (1988 Energy Demos)"
    PERFORMER "Operation Ivy"
    INDEX 00 07:40:04
FILE "13 - Operation Ivy - Artificial Life (1988 Energy Demos).wav" WAVE
    INDEX 01 00:00:00
  TRACK 14 AUDIO
    TITLE "Freeze Up (1988 Energy Demos)"
    PERFORMER "Operation Ivy"
    INDEX 00 01:58:11
FILE "14 - Operation Ivy - Freeze Up (1988 Energy Demos).wav" WAVE
    INDEX 01 00:00:00
  TRACK 15 AUDIO
    TITLE "Sound System (1988 Energy Demos)"
    PERFORMER "Operation Ivy"
    INDEX 00 02:18:30
FILE "15 - Operation Ivy - Sound System (1988 Energy Demos).wav" WAVE
    INDEX 01 00:00:00
  TRACK 16 AUDIO
    TITLE "Jaded (1988 Energy Demos)"
    PERFORMER "Operation Ivy"
    INDEX 00 02:14:23
FILE "16 - Operation Ivy - Jaded (1988 Energy Demos).wav" WAVE
    INDEX 01 00:00:00
  TRACK 17 AUDIO
    TITLE "Take Warning (1988 Energy Demos)"
    PERFORMER "Operation Ivy"
    INDEX 00 01:33:05
FILE "17 - Operation Ivy - Take Warning (1988 Energy Demos).wav" WAVE
    INDEX 01 00:00:00
  TRACK 18 AUDIO
    TITLE "6 To 10 (1988 Energy Demos)"
    PERFORMER "Operation Ivy"
    INDEX 00 02:30:00
FILE "18 - Operation Ivy - 6 To 10 (1988 Energy Demos).wav" WAVE
    INDEX 01 00:00:00
  TRACK 19 AUDIO
    TITLE "Missionary (1988 Energy Demos)"
    PERFORMER "Operation Ivy"
    INDEX 00 01:26:23
FILE "19 - Operation Ivy - Missionary (1988 Energy Demos).wav" WAVE
    INDEX 01 00:00:00
  TRACK 20 AUDIO
    TITLE "Bankshot (1988 Energy Demos)"
    PERFORMER "Operation Ivy"
    INDEX 00 01:59:11
FILE "20 - Operation Ivy - Bankshot (1988 Energy Demos).wav" WAVE
    INDEX 01 00:00:00
  TRACK 21 AUDIO
    TITLE "Unity (With Horns) (1988 Energy Demos)"
    PERFORMER "Operation Ivy"
    INDEX 00 01:34:35
FILE "21 - Operation Ivy - Unity (With Horns) (1988 Energy Demos).wav" WAVE
    INDEX 01 00:00:00
  TRACK 22 AUDIO
    TITLE "Smiling (1988 Energy Demos)"
    PERFORMER "Operation Ivy"
    INDEX 00 02:18:36
FILE "22 - Operation Ivy - Smiling (1988 Energy Demos).wav" WAVE
    INDEX 01 00:00:00
  TRACK 23 AUDIO
    TITLE "One Of These Days (1988 Energy Demos)"
    PERFORMER "Operation Ivy"
    INDEX 00 01:44:23
FILE "23 - Operation Ivy - One Of These Days (1988 Energy Demos).wav" WAVE
    INDEX 01 00:00:00
  TRACK 24 AUDIO
    TITLE "Face That Screams (1988 Energy Demos)"
    PERFORMER "Operation Ivy"
    INDEX 00 01:12:30
FILE "24 - Operation Ivy - Face That Screams (1988 Energy Demos).wav" WAVE
    INDEX 01 00:00:00
  TRACK 25 AUDIO
    TITLE "Gonna Find You (1988 Energy Demos)"
    PERFORMER "Operation Ivy"
    INDEX 00 02:00:38
FILE "25 - Operation Ivy - Gonna Find You (1988 Energy Demos).wav" WAVE
    INDEX 01 00:00:00
  TRACK 26 AUDIO
    TITLE "Room Without A Window (1988 Energy Demos)"
    PERFORMER "Operation Ivy"
    INDEX 00 01:50:33
FILE "26 - Operation Ivy - Room Without A Window (1988 Energy Demos).wav" WAVE
    INDEX 01 00:00:00
  TRACK 27 AUDIO
    TITLE "Hangin' Out (1988 Energy Demos)"
    PERFORMER "Operation Ivy"
    INDEX 00 01:22:25
FILE "27 - Operation Ivy - Hangin' Out (1988 Energy Demos).wav" WAVE
    INDEX 01 00:00:00
  TRACK 28 AUDIO
    TITLE "Sound System (Instro) (1988 Energy Demos)"
    PERFORMER "Operation Ivy"
    INDEX 00 01:18:58
FILE "28 - Operation Ivy - Sound System (Instro) (1988 Energy Demos).wav" WAVE
    INDEX 01 00:00:00
  TRACK 29 AUDIO
    TITLE "Sound System (Ext.) (1988 Energy Demos)"
    PERFORMER "Operation Ivy"
    INDEX 00 01:43:71
FILE "29 - Operation Ivy - Sound System (Ext.) (1988 Energy Demos).wav" WAVE
    INDEX 01 00:00:00
  TRACK 30 AUDIO
    TITLE "Unity (Instro W- Sax) (1988 Energy Demos)"
    PERFORMER "Operation Ivy"
    INDEX 00 01:47:68
FILE "30 - Operation Ivy - Unity (Instro W- Sax) (1988 Energy Demos).wav" WAVE
    INDEX 01 00:00:00
1. Healthy Body (Uncut Version)
2. Someday
3. Plea For Peace
4. Trouble Bound
5. Uncertain
6. Hangin' Out
7. Left Behind
8. Old Friendships
9. Hedgecore
10. Steppin' Out
11. The End (outro)

Код:

 
AUDIOCHECKER v1.2 - by Dester - opdester@freemail.hu
~~~~~~~~~~~~~~~~~

01 -===- J:\Operation Ivy\1996 - Seedy\01 - Operation Ivy - Healthy Body, Sick Mind (1987 'Hectic' Session).flac
Extracted successfully
Conclusion: This track looks like CDDA with probability 100%

02 -===- J:\Operation Ivy\1996 - Seedy\02 - Operation Ivy - Someday (1987 'Hectic' Session).flac
Extracted successfully
Conclusion: This track looks like CDDA with probability 99%

03 -===- J:\Operation Ivy\1996 - Seedy\03 - Operation Ivy - Plea For Peace (1987 'Hectic' Session).flac
Extracted successfully
Conclusion: This track looks like CDDA with probability 99%

04 -===- J:\Operation Ivy\1996 - Seedy\04 - Operation Ivy - Trouble Bound (Gilman Demo).flac
Extracted successfully
Conclusion: This track looks like CDDA with probability 100%

05 -===- J:\Operation Ivy\1996 - Seedy\05 - Operation Ivy - Uncertain (Gilman Demo).flac
Extracted successfully
Conclusion: This track looks like CDDA with probability 100%

06 -===- J:\Operation Ivy\1996 - Seedy\06 - Operation Ivy - Hangin' Out (Gilman Demo).flac
Extracted successfully
Conclusion: This track looks like CDDA with probability 100%

07 -===- J:\Operation Ivy\1996 - Seedy\07 - Operation Ivy - Left Behind (Gilman Demo).flac
Extracted successfully
Conclusion: This track looks like CDDA with probability 100%

08 -===- J:\Operation Ivy\1996 - Seedy\08 - Operation Ivy - Old Friendships (Live On Radio).flac
Extracted successfully
Conclusion: This track looks like CDDA with probability 100%

09 -===- J:\Operation Ivy\1996 - Seedy\09 - Operation Ivy - Hedgecore (Live On Radio).flac
Extracted successfully
Conclusion: This track looks like CDDA with probability 100%

10 -===- J:\Operation Ivy\1996 - Seedy\10 - Operation Ivy - Steppin' Out (Gilman Demo).flac
Extracted successfully
Conclusion: This track looks like CDDA with probability 100%

11 -===- J:\Operation Ivy\1996 - Seedy\11 - Operation Ivy - The End.flac
Extracted successfully
Conclusion: This track looks like CDDA with probability 100%

Код:

 
EAC extraction logfile from 1. July 2008, 21:43 for CD
Operation Ivy / Seedy

Used drive : PLEXTOR DVDR PX-708A Adapter: 1 ID: 1
Read mode : Secure with NO C2, accurate stream, disable cache
Read offset correction : 30
Overread into Lead-In and Lead-Out : No

Used output format : C:\Program Files\FLAC\flac.exe (User Defined Encoder)
320 kBit/s
Additional command line options : -V -8 -T "artist=%a" -T "title=%t" -T "album=%g" -T "date=%y" -T "tracknumber=%n" -T "genre=%m" %s

Other options :
Fill up missing offset samples with silence : Yes
Delete leading and trailing silent blocks : No
Native Win32 interface for Win NT & 2000

Track 1
Filename E:\Ripped\Operation Ivy - Seedy (flac)\01 - Operation Ivy - Healthy Body, Sick Mind (1987 'Hectic' Session).wav

Pre-gap length 0:00:02.42

Peak level 100.0 %
Track quality 100.0 %
Test CRC CA5114B8
Copy CRC CA5114B8
Copy OK

Track 2
Filename E:\Ripped\Operation Ivy - Seedy (flac)\02 - Operation Ivy - Someday (1987 'Hectic' Session).wav

Pre-gap length 0:00:01.73

Peak level 100.0 %
Track quality 100.0 %
Test CRC BA52C366
Copy CRC BA52C366
Copy OK

Track 3
Filename E:\Ripped\Operation Ivy - Seedy (flac)\03 - Operation Ivy - Plea For Peace (1987 'Hectic' Session).wav

Pre-gap length 0:00:01.64

Peak level 100.0 %
Track quality 100.0 %
Test CRC 315DD6DD
Copy CRC 315DD6DD
Copy OK

Track 4
Filename E:\Ripped\Operation Ivy - Seedy (flac)\04 - Operation Ivy - Trouble Bound (Gilman Demo).wav

Pre-gap length 0:00:01.69

Peak level 100.0 %
Track quality 100.0 %
Test CRC 5730CF28
Copy CRC 5730CF28
Copy OK

Track 5
Filename E:\Ripped\Operation Ivy - Seedy (flac)\05 - Operation Ivy - Uncertain (Gilman Demo).wav

Pre-gap length 0:00:00.33

Peak level 100.0 %
Track quality 100.0 %
Test CRC 978E272E
Copy CRC 978E272E
Copy OK

Track 6
Filename E:\Ripped\Operation Ivy - Seedy (flac)\06 - Operation Ivy - Hangin' Out (Gilman Demo).wav

Pre-gap length 0:00:01.33

Peak level 100.0 %
Track quality 99.8 %
Test CRC 81C79107
Copy CRC 81C79107
Copy OK

Track 7
Filename E:\Ripped\Operation Ivy - Seedy (flac)\07 - Operation Ivy - Left Behind (Gilman Demo).wav

Pre-gap length 0:00:00.66

Peak level 100.0 %
Track quality 100.0 %
Test CRC 148D3A5F
Copy CRC 148D3A5F
Copy OK

Track 8
Filename E:\Ripped\Operation Ivy - Seedy (flac)\08 - Operation Ivy - Old Friendships (Live On Radio).wav

Pre-gap length 0:00:01.29

Peak level 100.0 %
Track quality 100.0 %
Test CRC AE76520E
Copy CRC AE76520E
Copy OK

Track 9
Filename E:\Ripped\Operation Ivy - Seedy (flac)\09 - Operation Ivy - Hedgecore (Live On Radio).wav

Pre-gap length 0:00:01.37

Peak level 100.0 %
Track quality 99.9 %
Test CRC 505231C2
Copy CRC 505231C2
Copy OK

Track 10
Filename E:\Ripped\Operation Ivy - Seedy (flac)\10 - Operation Ivy - Steppin' Out (Gilman Demo).wav

Pre-gap length 0:00:01.46

Peak level 100.0 %
Track quality 100.0 %
Test CRC 8B993826
Copy CRC 8B993826
Copy OK

Track 11
Filename E:\Ripped\Operation Ivy - Seedy (flac)\11 - Operation Ivy - The End.wav

Pre-gap length 0:00:05.02

Peak level 100.0 %
Track quality 99.6 %
Test CRC 47CECCE0
Copy CRC 47CECCE0
Copy OK

No errors occured

End of status report

Код:

 
REM GENRE Punk
REM DATE 1996
REM DISCID 8107570B
REM COMMENT "ExactAudioCopy v0.95b3"
PERFORMER "Operation Ivy"
TITLE "Seedy"
FILE "01 - Operation Ivy - Healthy Body, Sick Mind (1987 'Hectic' Session).wav" WAVE
  TRACK 01 AUDIO
    TITLE "Healthy Body, Sick Mind (1987 'Hectic' Session)"
    PERFORMER "Operation Ivy"
    PREGAP 00:00:32
    INDEX 01 00:00:00
  TRACK 02 AUDIO
    TITLE "Someday (1987 'Hectic' Session)"
    PERFORMER "Operation Ivy"
    INDEX 00 03:50:48
FILE "02 - Operation Ivy - Someday (1987 'Hectic' Session).wav" WAVE
    INDEX 01 00:00:00
  TRACK 03 AUDIO
    TITLE "Plea For Peace (1987 'Hectic' Session)"
    PERFORMER "Operation Ivy"
    INDEX 00 01:40:02
FILE "03 - Operation Ivy - Plea For Peace (1987 'Hectic' Session).wav" WAVE
    INDEX 01 00:00:00
  TRACK 04 AUDIO
    TITLE "Trouble Bound (Gilman Demo)"
    PERFORMER "Operation Ivy"
    INDEX 00 02:13:60
FILE "04 - Operation Ivy - Trouble Bound (Gilman Demo).wav" WAVE
    INDEX 01 00:00:00
  TRACK 05 AUDIO
    TITLE "Uncertain (Gilman Demo)"
    PERFORMER "Operation Ivy"
    INDEX 00 01:49:48
FILE "05 - Operation Ivy - Uncertain (Gilman Demo).wav" WAVE
    INDEX 01 00:00:00
  TRACK 06 AUDIO
    TITLE "Hangin' Out (Gilman Demo)"
    PERFORMER "Operation Ivy"
    INDEX 00 02:19:17
FILE "06 - Operation Ivy - Hangin' Out (Gilman Demo).wav" WAVE
    INDEX 01 00:00:00
  TRACK 07 AUDIO
    TITLE "Left Behind (Gilman Demo)"
    PERFORMER "Operation Ivy"
    INDEX 00 01:25:48
FILE "07 - Operation Ivy - Left Behind (Gilman Demo).wav" WAVE
    INDEX 01 00:00:00
  TRACK 08 AUDIO
    TITLE "Old Friendships (Live On Radio)"
    PERFORMER "Operation Ivy"
    INDEX 00 02:30:25
FILE "08 - Operation Ivy - Old Friendships (Live On Radio).wav" WAVE
    INDEX 01 00:00:00
  TRACK 09 AUDIO
    TITLE "Hedgecore (Live On Radio)"
    PERFORMER "Operation Ivy"
    INDEX 00 01:49:05
FILE "09 - Operation Ivy - Hedgecore (Live On Radio).wav" WAVE
    INDEX 01 00:00:00
  TRACK 10 AUDIO
    TITLE "Steppin' Out (Gilman Demo)"
    PERFORMER "Operation Ivy"
    INDEX 00 04:58:30
FILE "10 - Operation Ivy - Steppin' Out (Gilman Demo).wav" WAVE
    INDEX 01 00:00:00
  TRACK 11 AUDIO
    TITLE "The End"
    PERFORMER "Operation Ivy"
    INDEX 00 07:50:40
FILE "11 - Operation Ivy - The End.wav" WAVE
    INDEX 01 00:00:00
1. Bombshell (Home Grown)
2. Unity (Reel Big Fish)
3. Big City (My Superhero)
4. Bankshot (Pocket Lent)
5. Yellin' In My Ear (Blue Meanies)
6. Sound System (Cherry Poppin' Daddies)
7. Smiling (Teen Heroes)
8. Take Warning (Long Beach Dub All Stars)
9. Healthy Body (Jeffries Fan Club)
10. Freeze Up (The Hippos)
11. The Crowd (Longfellow)
12. Bad Town (Marshall Arts)
13. Knowledge (The Aquabats)

Код:

AUDIOCHECKER v1.2 - by Dester - opdester@freemail.hu
~~~~~~~~~~~~~~~~~

01 -===- J:\Operation Ivy\1997 - Take Warning - The Songs Of Operation Ivy\01.Home Grown- Bombshell.flac
Extracted successfully
Conclusion: This track looks like CDDA with probability 100%

02 -===- J:\Operation Ivy\1997 - Take Warning - The Songs Of Operation Ivy\02.Reel Big Fish- Unity.flac
Extracted successfully
Conclusion: This track looks like CDDA with probability 100%

03 -===- J:\Operation Ivy\1997 - Take Warning - The Songs Of Operation Ivy\03.My Superhero- Big City.flac
Extracted successfully
Conclusion: This track looks like CDDA with probability 100%

04 -===- J:\Operation Ivy\1997 - Take Warning - The Songs Of Operation Ivy\04.Pocket Lent- Bankshot.flac
Extracted successfully
Conclusion: This track looks like CDDA with probability 100%

05 -===- J:\Operation Ivy\1997 - Take Warning - The Songs Of Operation Ivy\05.The Blue Meanies- Yellin' In My Ear.flac
Extracted successfully
Conclusion: This track looks like CDDA with probability 100%

06 -===- J:\Operation Ivy\1997 - Take Warning - The Songs Of Operation Ivy\06.Cherry Poppin' Daddies- Sound System.flac
Extracted successfully
Conclusion: This track looks like CDDA with probability 100%

07 -===- J:\Operation Ivy\1997 - Take Warning - The Songs Of Operation Ivy\07.Teen Heroes- Smiling.flac
Extracted successfully
Conclusion: This track looks like CDDA with probability 100%

08 -===- J:\Operation Ivy\1997 - Take Warning - The Songs Of Operation Ivy\08.Long Beach Dub All Stars- Take Warning.flac
Extracted successfully
Conclusion: This track looks like CDDA with probability 100%

09 -===- J:\Operation Ivy\1997 - Take Warning - The Songs Of Operation Ivy\09.Jeffries Fan Club- Healthy Body.flac
Extracted successfully
Conclusion: This track looks like CDDA with probability 100%

10 -===- J:\Operation Ivy\1997 - Take Warning - The Songs Of Operation Ivy\10.The Hippos- Freeze Up.flac
Extracted successfully
Conclusion: This track looks like CDDA with probability 100%

11 -===- J:\Operation Ivy\1997 - Take Warning - The Songs Of Operation Ivy\11.Longfellow- The Crowd.flac
Extracted successfully
Conclusion: This track looks like CDDA with probability 100%

12 -===- J:\Operation Ivy\1997 - Take Warning - The Songs Of Operation Ivy\12.Marshall Arts- Bad Town.flac
Extracted successfully
Conclusion: This track looks like CDDA with probability 100%

13 -===- J:\Operation Ivy\1997 - Take Warning - The Songs Of Operation Ivy\13.The Aquabats- Knowledge.flac
Extracted successfully
Conclusion: This track looks like CDDA with probability 100%

Код:

Exact Audio Copy V0.99 prebeta 3 from 28. July 2007

EAC extraction logfile from 11. March 2008, 20:02

Various Artists / Take Warning: The Songs Of Operation Ivy

Used drive : TSSTcorpCD/DVDW TS-H653L Adapter: 0 ID: 1

Read mode : Secure
Utilize accurate stream : Yes
Defeat audio cache : No
Make use of C2 pointers : No

Read offset correction : 6
Overread into Lead-In and Lead-Out : No
Fill up missing offset samples with silence : Yes
Delete leading and trailing silent blocks : No
Null samples used in CRC calculations : No
Used interface : Native Win32 interface for Win NT & 2000
Gap handling : Appended to previous track

Used output format : User Defined Encoder
Selected bitrate : 768 kBit/s
Quality : High
Add ID3 tag : Yes
Command line compressor : C:\Program Files\Exact Audio Copy\Flac\flac.exe
Additional command line options : -8 -A tukey(0.25) -A gauss(0.1875) -b 4096 -V -T "artist=%a" -T "title=%t" -T "album=%g" -T "date=%y" -T "tracknumber=%n" -T "genre=%m" %s --sector-align

TOC of the extracted CD

Track | Start | Length | Start sector | End sector
---------------------------------------------------------
1 | 0:00.00 | 1:12.32 | 0 | 5431
2 | 1:12.32 | 2:21.15 | 5432 | 16021
3 | 3:33.47 | 3:41.18 | 16022 | 32614
4 | 7:14.65 | 2:58.57 | 32615 | 46021
5 | 10:13.47 | 3:48.13 | 46022 | 63134
6 | 14:01.60 | 2:06.07 | 63135 | 72591
7 | 16:07.67 | 2:36.13 | 72592 | 84304
8 | 18:44.05 | 3:24.22 | 84305 | 99626
9 | 22:08.27 | 1:55.40 | 99627 | 108291
10 | 24:03.67 | 2:08.73 | 108292 | 117964
11 | 26:12.65 | 2:31.40 | 117965 | 129329
12 | 28:44.30 | 3:33.55 | 129330 | 145359
13 | 32:18.10 | 2:53.30 | 145360 | 158364

Track 1

Filename C:\Users\Derek\Music\WHAT.CD\Various Artists- Take Warning- The Songs Of Operation Ivy (FLAC)\01.Home Grown - Bombshell.wav

Pre-gap length 0:00:02.00

Peak level 99.9 %
Track quality 100.0 %
Copy CRC 39F5AE6B
Accurately ripped (confidence 1) [3DF6DDAB]
Copy OK

Track 2

Filename C:\Users\Derek\Music\WHAT.CD\Various Artists- Take Warning- The Songs Of Operation Ivy (FLAC)\02.Reel Big Fish - Unity.wav

Peak level 72.4 %
Track quality 100.0 %
Copy CRC 7B361D25
Accurately ripped (confidence 1) [9F91570F]
Copy OK

Track 3

Filename C:\Users\Derek\Music\WHAT.CD\Various Artists- Take Warning- The Songs Of Operation Ivy (FLAC)\03.My Superhero - Big City.wav

Peak level 99.9 %
Track quality 100.0 %
Copy CRC E4B668E3
Accurately ripped (confidence 1) [E70753A2]
Copy OK

Track 4

Filename C:\Users\Derek\Music\WHAT.CD\Various Artists- Take Warning- The Songs Of Operation Ivy (FLAC)\04.Pocket Lent - Bankshot.wav

Peak level 94.4 %
Track quality 100.0 %
Copy CRC A5FF16E4
Accurately ripped (confidence 1) [29BE5CA6]
Copy OK

Track 5

Filename C:\Users\Derek\Music\WHAT.CD\Various Artists- Take Warning- The Songs Of Operation Ivy (FLAC)\05.The Blue Meanies - Yellin' In My Ear.wav

Peak level 85.4 %
Track quality 100.0 %
Copy CRC C788B6C5
Accurately ripped (confidence 1) [E6940D67]
Copy OK

Track 6

Filename C:\Users\Derek\Music\WHAT.CD\Various Artists- Take Warning- The Songs Of Operation Ivy (FLAC)\06.Cherry Poppin' Daddies - Sound System.wav

Peak level 86.4 %
Track quality 100.0 %
Copy CRC DBC251C8
Accurately ripped (confidence 1) [648359A3]
Copy OK

Track 7

Filename C:\Users\Derek\Music\WHAT.CD\Various Artists- Take Warning- The Songs Of Operation Ivy (FLAC)\07.Teen Heroes - Smiling.wav

Peak level 99.9 %
Track quality 100.0 %
Copy CRC 448A07D2
Accurately ripped (confidence 1) [25EB0AE9]
Copy OK

Track 8

Filename C:\Users\Derek\Music\WHAT.CD\Various Artists- Take Warning- The Songs Of Operation Ivy (FLAC)\08.Long Beach Dub All Stars - Take Warning.wav

Peak level 94.7 %
Track quality 100.0 %
Copy CRC 935E88E4
Accurately ripped (confidence 1) [680BF60C]
Copy OK

Track 9

Filename C:\Users\Derek\Music\WHAT.CD\Various Artists- Take Warning- The Songs Of Operation Ivy (FLAC)\09.Jeffries Fan Club - Healthy Body.wav

Peak level 99.9 %
Track quality 99.9 %
Copy CRC 08028698
Accurately ripped (confidence 1) [92031A8C]
Copy OK

Track 10

Filename C:\Users\Derek\Music\WHAT.CD\Various Artists- Take Warning- The Songs Of Operation Ivy (FLAC)\10.The Hippos - Freeze Up.wav

Peak level 94.2 %
Track quality 100.0 %
Copy CRC DEC1E2A0
Accurately ripped (confidence 1) [AA0F5DFF]
Copy OK

Track 11

Filename C:\Users\Derek\Music\WHAT.CD\Various Artists- Take Warning- The Songs Of Operation Ivy (FLAC)\11.Longfellow - The Crowd.wav

Peak level 99.9 %
Track quality 100.0 %
Copy CRC B8FD5811
Accurately ripped (confidence 1) [5C5226A3]
Copy OK

Track 12

Filename C:\Users\Derek\Music\WHAT.CD\Various Artists- Take Warning- The Songs Of Operation Ivy (FLAC)\12.Marshall Arts - Bad Town.wav

Peak level 99.9 %
Track quality 100.0 %
Copy CRC 865FB2C2
Accurately ripped (confidence 1) [17A0D8C1]
Copy OK

Track 13

Filename C:\Users\Derek\Music\WHAT.CD\Various Artists- Take Warning- The Songs Of Operation Ivy (FLAC)\13.The Aquabats - Knowledge.wav

Peak level 85.0 %
Track quality 100.0 %
Copy CRC 6A43B171
Accurately ripped (confidence 1) [5D2BF5B6]
Copy OK

All tracks accurately ripped

No errors occurred

End of status report

Код:

REM GENRE Ska
REM DATE 1997
REM DISCID A3083F0D
REM COMMENT "ExactAudioCopy v0.99pb3"
PERFORMER "Various Artists"
TITLE "Take Warning: The Songs Of Operation Ivy"
FILE "01.Home Grown - Bombshell.wav" WAVE
  TRACK 01 AUDIO
    TITLE "Home Grown - Bombshell"
    PERFORMER "Home Grown - Bombshell"
    INDEX 01 00:00:00
FILE "02.Reel Big Fish - Unity.wav" WAVE
  TRACK 02 AUDIO
    TITLE "Reel Big Fish - Unity"
    PERFORMER "Reel Big Fish - Unity"
    INDEX 01 00:00:00
FILE "03.My Superhero - Big City.wav" WAVE
  TRACK 03 AUDIO
    TITLE "My Superhero - Big City"
    PERFORMER "My Superhero - Big City"
    INDEX 01 00:00:00
FILE "04.Pocket Lent - Bankshot.wav" WAVE
  TRACK 04 AUDIO
    TITLE "Pocket Lent - Bankshot"
    PERFORMER "Pocket Lent - Bankshot"
    INDEX 01 00:00:00
FILE "05.The Blue Meanies - Yellin' In My Ear.wav" WAVE
  TRACK 05 AUDIO
    TITLE "The Blue Meanies - Yellin' In My Ear"
    PERFORMER "The Blue Meanies - Yellin' In My Ear"
    INDEX 01 00:00:00
FILE "06.Cherry Poppin' Daddies - Sound System.wav" WAVE
  TRACK 06 AUDIO
    TITLE "Cherry Poppin' Daddies - Sound System"
    PERFORMER "Cherry Poppin' Daddies - Sound System"
    INDEX 01 00:00:00
FILE "07.Teen Heroes - Smiling.wav" WAVE
  TRACK 07 AUDIO
    TITLE "Teen Heroes - Smiling"
    PERFORMER "Teen Heroes - Smiling"
    INDEX 01 00:00:00
FILE "08.Long Beach Dub All Stars - Take Warning.wav" WAVE
  TRACK 08 AUDIO
    TITLE "Long Beach Dub All Stars - Take Warning"
    PERFORMER "Long Beach Dub All Stars - Take Warning"
    INDEX 01 00:00:00
FILE "09.Jeffries Fan Club - Healthy Body.wav" WAVE
  TRACK 09 AUDIO
    TITLE "Jeffries Fan Club - Healthy Body"
    PERFORMER "Jeffries Fan Club - Healthy Body"
    INDEX 01 00:00:00
FILE "10.The Hippos - Freeze Up.wav" WAVE
  TRACK 10 AUDIO
    TITLE "The Hippos - Freeze Up"
    PERFORMER "The Hippos - Freeze Up"
    INDEX 01 00:00:00
FILE "11.Longfellow - The Crowd.wav" WAVE
  TRACK 11 AUDIO
    TITLE "Longfellow - The Crowd"
    PERFORMER "Longfellow - The Crowd"
    INDEX 01 00:00:00
FILE "12.Marshall Arts - Bad Town.wav" WAVE
  TRACK 12 AUDIO
    TITLE "Marshall Arts - Bad Town"
    PERFORMER "Marshall Arts - Bad Town"
    INDEX 01 00:00:00
FILE "13.The Aquabats - Knowledge.wav" WAVE
  TRACK 13 AUDIO
    TITLE "The Aquabats - Knowledge"
    PERFORMER "The Aquabats - Knowledge"
    INDEX 01 00:00:00
info [Профиль]  [ЛС] 

TheMrMafiozi

Пол: Пол:Муж

Стаж: 6 лет 9 месяцев

Сообщений: 859

СССР
Рейтинг

post 10-Ноя-2010 16:40 (спустя 58 минут) [-]0[+]

[Цитировать] 

1988 - Hectic - возможно неточный рип, остальные точные.

_________________
観自在菩薩行深般若波羅蜜多時、照見五蘊皆空、度一切苦厄。舎利子
も自由にお使いく
言語の科
info [Профиль]  [ЛС] 

Ilyaz47

Пол: Пол:Муж

Стаж: 6 лет 7 месяцев

Сообщений: 8

Предупреждений: 1

О.Святой Елены
Рейтинг

post 10-Ноя-2010 20:52 (спустя 4 часа) [-]0[+]

[Цитировать] 

The Crowd наверно самая хитовая песня
info [Профиль]  [ЛС] 
Показать сообщения:    
Ответить на тему

Текущее время: 02-Дек 22:12

Часовой пояс: GMT + 4



Вы не можете начинать темы
Вы не можете отвечать на сообщения
Вы не можете редактировать свои сообщения
Вы не можете удалять свои сообщения
Вы не можете голосовать в опросах
Вы не можете прикреплять файлы к сообщениям
Вы не можете скачивать файлы